  0
SECTION
  2
HEADER
  9
$ACADVER
  1
AC1027
  9
$ACADMAINTVER
 70
   106
  9
$DWGCODEPAGE
  3
ANSI_932
  9
$LASTSAVEDBY
  1
takamura205
  9
$REQUIREDVERSIONS
160
                 0
  9
$INSBASE
 10
0.0
 20
0.0
 30
0.0
  9
$EXTMIN
 10
33316.24093491148
 20
28289.23237812787
 30
0.0
  9
$EXTMAX
 10
34996.24093491148
 20
29477.23237812787
 30
0.0
  9
$LIMMIN
 10
0.0
 20
0.0
  9
$LIMMAX
 10
420.0
 20
297.0
  9
$ORTHOMODE
 70
     0
  9
$REGENMODE
 70
     1
  9
$FILLMODE
 70
     1
  9
$QTEXTMODE
 70
     0
  9
$MIRRTEXT
 70
     0
  9
$LTSCALE
 40
1.0
  9
$ATTMODE
 70
     1
  9
$TEXTSIZE
 40
2.5
  9
$TRACEWID
 40
1.0
  9
$TEXTSTYLE
  7
Standard
  9
$CLAYER
  8
寸法線
  9
$CELTYPE
  6
ByLayer
  9
$CECOLOR
 62
   256
  9
$CELTSCALE
 40
1.0
  9
$DISPSILH
 70
     0
  9
$DIMSCALE
 40
1.0
  9
$DIMASZ
 40
2.5
  9
$DIMEXO
 40
0.625
  9
$DIMDLI
 40
3.75
  9
$DIMRND
 40
0.0
  9
$DIMDLE
 40
0.0
  9
$DIMEXE
 40
1.25
  9
$DIMTP
 40
0.0
  9
$DIMTM
 40
0.0
  9
$DIMTXT
 40
20.0
  9
$DIMCEN
 40
2.5
  9
$DIMTSZ
 40
0.0
  9
$DIMTOL
 70
     0
  9
$DIMLIM
 70
     0
  9
$DIMTIH
 70
     0
  9
$DIMTOH
 70
     0
  9
$DIMSE1
 70
     0
  9
$DIMSE2
 70
     0
  9
$DIMTAD
 70
     1
  9
$DIMZIN
 70
     8
  9
$DIMBLK
  1

  9
$DIMASO
 70
     1
  9
$DIMSHO
 70
     1
  9
$DIMPOST
  1

  9
$DIMAPOST
  1

  9
$DIMALT
 70
     0
  9
$DIMALTD
 70
     3
  9
$DIMALTF
 40
0.03937007874016
  9
$DIMLFAC
 40
1.0
  9
$DIMTOFL
 70
     1
  9
$DIMTVP
 40
0.0
  9
$DIMTIX
 70
     0
  9
$DIMSOXD
 70
     0
  9
$DIMSAH
 70
     0
  9
$DIMBLK1
  1

  9
$DIMBLK2
  1

  9
$DIMSTYLE
  2
ISO-25
  9
$DIMCLRD
 70
     0
  9
$DIMCLRE
 70
     0
  9
$DIMCLRT
 70
     0
  9
$DIMTFAC
 40
1.0
  9
$DIMGAP
 40
0.625
  9
$DIMJUST
 70
     0
  9
$DIMSD1
 70
     0
  9
$DIMSD2
 70
     0
  9
$DIMTOLJ
 70
     0
  9
$DIMTZIN
 70
     8
  9
$DIMALTZ
 70
     0
  9
$DIMALTTZ
 70
     0
  9
$DIMUPT
 70
     0
  9
$DIMDEC
 70
     2
  9
$DIMTDEC
 70
     2
  9
$DIMALTU
 70
     2
  9
$DIMALTTD
 70
     3
  9
$DIMTXSTY
  7
Standard
  9
$DIMAUNIT
 70
     0
  9
$DIMADEC
 70
     0
  9
$DIMALTRND
 40
0.0
  9
$DIMAZIN
 70
     0
  9
$DIMDSEP
 70
    44
  9
$DIMATFIT
 70
     3
  9
$DIMFRAC
 70
     0
  9
$DIMLDRBLK
  1

  9
$DIMLUNIT
 70
     2
  9
$DIMLWD
 70
    -2
  9
$DIMLWE
 70
    -2
  9
$DIMTMOVE
 70
     0
  9
$DIMFXL
 40
1.0
  9
$DIMFXLON
 70
     0
  9
$DIMJOGANG
 40
0.7853981633974483
  9
$DIMTFILL
 70
     0
  9
$DIMTFILLCLR
 70
     0
  9
$DIMARCSYM
 70
     0
  9
$DIMLTYPE
  6

  9
$DIMLTEX1
  6

  9
$DIMLTEX2
  6

  9
$DIMTXTDIRECTION
 70
     0
  9
$LUNITS
 70
     2
  9
$LUPREC
 70
     4
  9
$SKETCHINC
 40
1.0
  9
$FILLETRAD
 40
1.0
  9
$AUNITS
 70
     0
  9
$AUPREC
 70
     0
  9
$MENU
  1
.
  9
$ELEVATION
 40
0.0
  9
$PELEVATION
 40
0.0
  9
$THICKNESS
 40
0.0
  9
$LIMCHECK
 70
     0
  9
$CHAMFERA
 40
0.0
  9
$CHAMFERB
 40
0.0
  9
$CHAMFERC
 40
0.0
  9
$CHAMFERD
 40
0.0
  9
$SKPOLY
 70
     0
  9
$TDCREATE
 40
2457175.672123785
  9
$TDUCREATE
 40
2457175.297123785
  9
$TDUPDATE
 40
2457871.477967512
  9
$TDUUPDATE
 40
2457871.102967511
  9
$TDINDWG
 40
0.8403052894
  9
$TDUSRTIMER
 40
0.8403051852
  9
$USRTIMER
 70
     1
  9
$ANGBASE
 50
0.0
  9
$ANGDIR
 70
     0
  9
$PDMODE
 70
     0
  9
$PDSIZE
 40
0.0
  9
$PLINEWID
 40
0.0
  9
$SPLFRAME
 70
     0
  9
$SPLINETYPE
 70
     6
  9
$SPLINESEGS
 70
     8
  9
$HANDSEED
  5
19AA
  9
$SURFTAB1
 70
     6
  9
$SURFTAB2
 70
     6
  9
$SURFTYPE
 70
     6
  9
$SURFU
 70
     6
  9
$SURFV
 70
     6
  9
$UCSBASE
  2

  9
$UCSNAME
  2

  9
$UCSORG
 10
0.0
 20
0.0
 30
0.0
  9
$UCSXDIR
 10
1.0
 20
0.0
 30
0.0
  9
$UCSYDIR
 10
0.0
 20
1.0
 30
0.0
  9
$UCSORTHOREF
  2

  9
$UCSORTHOVIEW
 70
     0
  9
$UCSORGTOP
 10
0.0
 20
0.0
 30
0.0
  9
$UCSORGBOTTOM
 10
0.0
 20
0.0
 30
0.0
  9
$UCSORGLEFT
 10
0.0
 20
0.0
 30
0.0
  9
$UCSORGRIGHT
 10
0.0
 20
0.0
 30
0.0
  9
$UCSORGFRONT
 10
0.0
 20
0.0
 30
0.0
  9
$UCSORGBACK
 10
0.0
 20
0.0
 30
0.0
  9
$PUCSBASE
  2

  9
$PUCSNAME
  2

  9
$PUCSORG
 10
0.0
 20
0.0
 30
0.0
  9
$PUCSXDIR
 10
1.0
 20
0.0
 30
0.0
  9
$PUCSYDIR
 10
0.0
 20
1.0
 30
0.0
  9
$PUCSORTHOREF
  2

  9
$PUCSORTHOVIEW
 70
     0
  9
$PUCSORGTOP
 10
0.0
 20
0.0
 30
0.0
  9
$PUCSORGBOTTOM
 10
0.0
 20
0.0
 30
0.0
  9
$PUCSORGLEFT
 10
0.0
 20
0.0
 30
0.0
  9
$PUCSORGRIGHT
 10
0.0
 20
0.0
 30
0.0
  9
$PUCSORGFRONT
 10
0.0
 20
0.0
 30
0.0
  9
$PUCSORGBACK
 10
0.0
 20
0.0
 30
0.0
  9
$USERI1
 70
     0
  9
$USERI2
 70
     0
  9
$USERI3
 70
     0
  9
$USERI4
 70
     0
  9
$USERI5
 70
     0
  9
$USERR1
 40
0.0
  9
$USERR2
 40
0.0
  9
$USERR3
 40
0.0
  9
$USERR4
 40
0.0
  9
$USERR5
 40
0.0
  9
$WORLDVIEW
 70
     1
  9
$SHADEDGE
 70
     3
  9
$SHADEDIF
 70
    70
  9
$TILEMODE
 70
     1
  9
$MAXACTVP
 70
    64
  9
$PINSBASE
 10
0.0
 20
0.0
 30
0.0
  9
$PLIMCHECK
 70
     0
  9
$PEXTMIN
 10
25.69999999999999
 20
19.5
 30
0.0
  9
$PEXTMAX
 10
231.3
 20
175.5
 30
0.0
  9
$PLIMMIN
 10
-4.9847412109375
 20
-4.984749794006347
  9
$PLIMMAX
 10
415.0042419433593
 20
292.0259008407593
  9
$UNITMODE
 70
     0
  9
$VISRETAIN
 70
     1
  9
$PLINEGEN
 70
     0
  9
$PSLTSCALE
 70
     1
  9
$TREEDEPTH
 70
  3020
  9
$CMLSTYLE
  2
Standard
  9
$CMLJUST
 70
     0
  9
$CMLSCALE
 40
20.0
  9
$PROXYGRAPHICS
 70
     1
  9
$MEASUREMENT
 70
     1
  9
$CELWEIGHT
370
    -1
  9
$ENDCAPS
280
     0
  9
$JOINSTYLE
280
     0
  9
$LWDISPLAY
290
     0
  9
$INSUNITS
 70
     4
  9
$HYPERLINKBASE
  1

  9
$STYLESHEET
  1
monochrome.stb
  9
$XEDIT
290
     1
  9
$CEPSNTYPE
380
     0
  9
$PSTYLEMODE
290
     0
  9
$FINGERPRINTGUID
  2
{083708C7-F509-4151-B42C-06F3721D7F80}
  9
$VERSIONGUID
  2
{CDC7FAF2-DA96-4769-81DD-3F59C8E84214}
  9
$EXTNAMES
290
     1
  9
$PSVPSCALE
 40
0.0
  9
$OLESTARTUP
290
     0
  9
$SORTENTS
280
   127
  9
$INDEXCTL
280
     0
  9
$HIDETEXT
280
     1
  9
$XCLIPFRAME
280
     2
  9
$HALOGAP
280
     0
  9
$OBSCOLOR
 70
   257
  9
$OBSLTYPE
280
     0
  9
$INTERSECTIONDISPLAY
280
     0
  9
$INTERSECTIONCOLOR
 70
   257
  9
$DIMASSOC
280
     2
  9
$PROJECTNAME
  1

  9
$CAMERADISPLAY
290
     0
  9
$LENSLENGTH
 40
50.0
  9
$CAMERAHEIGHT
 40
1524.0
  9
$STEPSPERSEC
 40
2.0
  9
$STEPSIZE
 40
6.0
  9
$3DDWFPREC
 40
2.0
  9
$PSOLWIDTH
 40
5.0
  9
$PSOLHEIGHT
 40
80.0
  9
$LOFTANG1
 40
1.570796326794896
  9
$LOFTANG2
 40
1.570796326794896
  9
$LOFTMAG1
 40
0.0
  9
$LOFTMAG2
 40
0.0
  9
$LOFTPARAM
 70
     7
  9
$LOFTNORMALS
280
     1
  9
$LATITUDE
 40
37.795
  9
$LONGITUDE
 40
-122.394
  9
$NORTHDIRECTION
 40
0.0
  9
$TIMEZONE
 70
 -8000
  9
$LIGHTGLYPHDISPLAY
280
     1
  9
$TILEMODELIGHTSYNCH
280
     1
  9
$CMATERIAL
347
E3
  9
$SOLIDHIST
280
     0
  9
$SHOWHIST
280
     1
  9
$DWFFRAME
280
     2
  9
$DGNFRAME
280
     0
  9
$REALWORLDSCALE
290
     1
  9
$INTERFERECOLOR
 62
     1
  9
$INTERFEREOBJVS
345
F0
  9
$INTERFEREVPVS
346
ED
  9
$CSHADOW
280
     0
  9
$SHADOWPLANELOCATION
 40
0.0
  0
ENDSEC
  0
SECTION
  2
CLASSES
  0
CLASS
  1
ACDBDICTIONARYWDFLT
  2
AcDbDictionaryWithDefault
  3
ObjectDBX Classes
 90
        0
 91
        1
280
     0
281
     0
  0
CLASS
  1
DICTIONARYVAR
  2
AcDbDictionaryVar
  3
ObjectDBX Classes
 90
        0
 91
       10
280
     0
281
     0
  0
CLASS
  1
TABLESTYLE
  2
AcDbTableStyle
  3
ObjectDBX Classes
 90
     4095
 91
        1
280
     0
281
     0
  0
CLASS
  1
MATERIAL
  2
AcDbMaterial
  3
ObjectDBX Classes
 90
     1153
 91
        3
280
     0
281
     0
  0
CLASS
  1
VISUALSTYLE
  2
AcDbVisualStyle
  3
ObjectDBX Classes
 90
     4095
 91
       24
280
     0
281
     0
  0
CLASS
  1
SCALE
  2
AcDbScale
  3
ObjectDBX Classes
 90
     1153
 91
       17
280
     0
281
     0
  0
CLASS
  1
MLEADERSTYLE
  2
AcDbMLeaderStyle
  3
ACDB_MLEADERSTYLE_CLASS
 90
     4095
 91
        2
280
     0
281
     0
  0
CLASS
  1
CELLSTYLEMAP
  2
AcDbCellStyleMap
  3
ObjectDBX Classes
 90
     1152
 91
        1
280
     0
281
     0
  0
CLASS
  1
EXACXREFPANELOBJECT
  2
ExAcXREFPanelObject
  3
EXAC_ESW
 90
     1025
 91
        0
280
     0
281
     0
  0
CLASS
  1
NPOCOLLECTION
  2
AcDbImpNonPersistentObjectsCollection
  3
ObjectDBX Classes
 90
     1153
 91
        0
280
     0
281
     0
  0
CLASS
  1
LAYER_INDEX
  2
AcDbLayerIndex
  3
ObjectDBX Classes
 90
        0
 91
        0
280
     0
281
     0
  0
CLASS
  1
SPATIAL_INDEX
  2
AcDbSpatialIndex
  3
ObjectDBX Classes
 90
        0
 91
        0
280
     0
281
     0
  0
CLASS
  1
IDBUFFER
  2
AcDbIdBuffer
  3
ObjectDBX Classes
 90
        0
 91
        0
280
     0
281
     0
  0
CLASS
  1
ACDBSECTIONVIEWSTYLE
  2
AcDbSectionViewStyle
  3
ObjectDBX Classes
 90
     1025
 91
        1
280
     0
281
     0
  0
CLASS
  1
ACDBDETAILVIEWSTYLE
  2
AcDbDetailViewStyle
  3
ObjectDBX Classes
 90
     1025
 91
        1
280
     0
281
     0
  0
CLASS
  1
DIMASSOC
  2
AcDbDimAssoc
  3
"AcDbDimAssoc|Product Desc:     AcDim ARX App For Dimension|Company:          Autodesk, Inc.|WEB Address:      www.autodesk.com"
 90
        0
 91
        8
280
     0
281
     0
  0
CLASS
  1
SORTENTSTABLE
  2
AcDbSortentsTable
  3
ObjectDBX Classes
 90
        0
 91
        1
280
     0
281
     0
  0
CLASS
  1
PLOTSETTINGS
  2
AcDbPlotSettings
  3
ObjectDBX Classes
 90
        0
 91
        1
280
     0
281
     0
  0
ENDSEC
  0
SECTION
  2
TABLES
  0
TABLE
  2
VPORT
  5
8
330
0
100
AcDbSymbolTable
 70
     1
  0
VPORT
  5
E1
330
8
100
AcDbSymbolTableRecord
100
AcDbViewportTableRecord
  2
*Active
 70
     0
 10
0.0
 20
0.0
 11
1.0
 21
1.0
 12
34477.45592483971
 22
29102.17462855932
 13
0.0
 23
0.0
 14
10.0
 24
10.0
 15
10.0
 25
10.0
 16
0.0
 26
0.0
 36
1.0
 17
0.0
 27
0.0
 37
0.0
 40
2229.157877297963
 41
1.203585147247119
 42
50.0
 43
0.0
 44
0.0
 50
0.0
 51
0.0
 71
     0
 72
  1000
 73
     1
 74
     3
 75
     0
 76
     1
 77
     0
 78
     0
281
     0
 65
     1
110
0.0
120
0.0
130
0.0
111
1.0
121
0.0
131
0.0
112
0.0
122
1.0
132
0.0
 79
     0
146
0.0
348
EC
 60
     3
 61
     5
292
     1
282
     1
141
0.0
142
0.0
 63
   250
421
  3355443
1001
ACAD_NAV_VCDISPLAY
1070
     3
  0
ENDTAB
  0
TABLE
  2
LTYPE
  5
5
330
0
100
AcDbSymbolTable
 70
     4
  0
LTYPE
  5
14
330
5
100
AcDbSymbolTableRecord
100
AcDbLinetypeTableRecord
  2
ByBlock
 70
     0
  3

 72
    65
 73
     0
 40
0.0
  0
LTYPE
  5
15
330
5
100
AcDbSymbolTableRecord
100
AcDbLinetypeTableRecord
  2
ByLayer
 70
     0
  3

 72
    65
 73
     0
 40
0.0
  0
LTYPE
  5
16
330
5
100
AcDbSymbolTableRecord
100
AcDbLinetypeTableRecord
  2
Continuous
 70
     0
  3
Solid line
 72
    65
 73
     0
 40
0.0
  0
LTYPE
  5
25A
330
5
100
AcDbSymbolTableRecord
100
AcDbLinetypeTableRecord
  2
ACAD_ISO04W100
 70
     0
  3
ISO long-dash dot ____ . ____ . ____ . ____ . _
 72
    65
 73
     4
 40
30.0
 49
24.0
 74
     0
 49
-3.0
 74
     0
 49
0.0
 74
     0
 49
-3.0
 74
     0
  0
LTYPE
  5
25E
330
5
100
AcDbSymbolTableRecord
100
AcDbLinetypeTableRecord
  2
ACAD_ISO02W100
 70
     0
  3
ISO dash __ __ __ __ __ __ __ __ __ __ __ __ __
 72
    65
 73
     2
 40
15.0
 49
12.0
 74
     0
 49
-3.0
 74
     0
  0
LTYPE
  5
260
330
5
100
AcDbSymbolTableRecord
100
AcDbLinetypeTableRecord
  2
ACAD_ISO07W100
 70
     0
  3
ISO dot . . . . . . . . . . . . . . . . . . . .
 72
    65
 73
     2
 40
3.0
 49
0.0
 74
     0
 49
-3.0
 74
     0
  0
ENDTAB
  0
TABLE
  2
LAYER
  5
2
102
{ACAD_XDICTIONARY
360
1F6
102
}
330
0
100
AcDbSymbolTable
 70
    14
  0
LAYER
  5
10
102
{ACAD_XDICTIONARY
360
133
102
}
330
2
100
AcDbSymbolTableRecord
100
AcDbLayerTableRecord
  2
0
 70
     0
 62
     7
  6
Continuous
370
    -3
390
F
347
E5
348
0
  0
LAYER
  5
255
330
2
100
AcDbSymbolTableRecord
100
AcDbLayerTableRecord
  2
中心線
 70
     0
 62
     3
  6
ACAD_ISO04W100
370
     9
390
F
347
E5
348
0
1001
AcAecLayerStandard
1000

1000

1001
AcCmTransparency
1071
        0
  0
LAYER
  5
25B
330
2
100
AcDbSymbolTableRecord
100
AcDbLayerTableRecord
  2
外形線②
 70
     0
 62
     7
  6
Continuous
370
    15
390
F
347
E5
348
0
1001
AcAecLayerStandard
1000

1000

1001
AcCmTransparency
1071
        0
  0
LAYER
  5
25C
330
2
100
AcDbSymbolTableRecord
100
AcDbLayerTableRecord
  2
寸法線
 70
     0
 62
     3
  6
Continuous
370
    13
390
F
347
E5
348
0
1001
AcAecLayerStandard
1000

1000

1001
AcCmTransparency
1071
        0
  0
LAYER
  5
25D
330
2
100
AcDbSymbolTableRecord
100
AcDbLayerTableRecord
  2
点線
 70
     0
 62
     4
  6
ACAD_ISO02W100
370
     9
390
F
347
E5
348
0
1001
AcAecLayerStandard
1000

1000

1001
AcCmTransparency
1071
        0
  0
LAYER
  5
25F
330
2
100
AcDbSymbolTableRecord
100
AcDbLayerTableRecord
  2
オフセット
 70
     0
 62
    -6
  6
Continuous
370
    13
390
F
347
E5
348
0
1001
AcAecLayerStandard
1000

1000

1001
AcCmTransparency
1071
        0
  0
LAYER
  5
271
330
2
100
AcDbSymbolTableRecord
100
AcDbLayerTableRecord
  2
Defpoints
 70
     0
 62
     7
  6
Continuous
290
     0
370
    -3
390
F
347
E5
348
0
  0
LAYER
  5
2F1
330
2
100
AcDbSymbolTableRecord
100
AcDbLayerTableRecord
  2
ビューポート
 70
     0
 62
     3
  6
Continuous
370
    15
390
F
347
E5
348
0
1001
AcAecLayerStandard
1000

1000

1001
AcCmTransparency
1071
        0
  0
LAYER
  5
382
330
2
100
AcDbSymbolTableRecord
100
AcDbLayerTableRecord
  2
外形線
 70
     0
 62
     7
  6
Continuous
370
    15
390
F
347
E5
348
0
1001
AcAecLayerStandard
1000

1000

1001
AcCmTransparency
1071
        0
  0
LAYER
  5
430
330
2
100
AcDbSymbolTableRecord
100
AcDbLayerTableRecord
  2
LED器具
 70
     0
 62
     4
  6
Continuous
370
    13
390
F
347
E5
348
0
1001
AcAecLayerStandard
1000

1000

1001
AcCmTransparency
1071
        0
  0
LAYER
  5
44D
330
2
100
AcDbSymbolTableRecord
100
AcDbLayerTableRecord
  2
孔
 70
     0
 62
     4
  6
Continuous
370
    15
390
F
347
E5
348
0
1001
AcAecLayerStandard
1000

1000

1001
AcCmTransparency
1071
        0
  0
LAYER
  5
AAC
330
2
100
AcDbSymbolTableRecord
100
AcDbLayerTableRecord
  2
枠線
 70
     0
 62
     2
  6
Continuous
370
     9
390
F
347
E5
348
0
1001
AcAecLayerStandard
1000

1000

1001
AcCmTransparency
1071
        0
  0
LAYER
  5
CEA
102
{ACAD_XDICTIONARY
360
CEB
102
}
330
2
100
AcDbSymbolTableRecord
100
AcDbLayerTableRecord
  2
1
 70
     0
 62
     7
  6
Continuous
370
    -3
390
F
347
E5
348
0
  0
LAYER
  5
DBB
330
2
100
AcDbSymbolTableRecord
100
AcDbLayerTableRecord
  2
○
 70
     0
 62
     3
  6
Continuous
370
     9
390
F
347
E5
348
0
1001
AcAecLayerStandard
1000

1000

1001
AcCmTransparency
1071
        0
  0
ENDTAB
  0
TABLE
  2
STYLE
  5
3
330
0
100
AcDbSymbolTable
 70
     4
  0
STYLE
  5
11
330
3
100
AcDbSymbolTableRecord
100
AcDbTextStyleTableRecord
  2
Standard
 70
     0
 40
0.0
 41
1.0
 50
0.0
 71
     0
 42
2.5
  3
arial.ttf
  4

1001
ACAD
1000
Arial
1071
       34
  0
STYLE
  5
129
330
3
100
AcDbSymbolTableRecord
100
AcDbTextStyleTableRecord
  2
Annotative
 70
     0
 40
0.0
 41
1.0
 50
0.0
 71
     0
 42
2.5
  3
arial.ttf
  4

1001
AcadAnnotative
1000
AnnotativeData
1002
{
1070
     1
1070
     1
1002
}
1001
ACAD
1000
Arial
1071
       34
  0
STYLE
  5
259
330
3
100
AcDbSymbolTableRecord
100
AcDbTextStyleTableRecord
  2

 70
     1
 40
0.0
 41
1.0
 50
0.0
 71
     0
 42
2.5
  3
ltypeshp.shx
  4

  0
STYLE
  5
CEC
330
3
100
AcDbSymbolTableRecord
100
AcDbTextStyleTableRecord
  2
BIGFONT
 70
     0
 40
1.0
 41
1.0
 50
0.0
 71
     0
 42
1.0
  3
TXT
  4
BIGFONT
  0
ENDTAB
  0
TABLE
  2
VIEW
  5
6
330
0
100
AcDbSymbolTable
 70
     0
  0
ENDTAB
  0
TABLE
  2
UCS
  5
7
330
0
100
AcDbSymbolTable
 70
     0
  0
ENDTAB
  0
TABLE
  2
APPID
  5
9
330
0
100
AcDbSymbolTable
 70
    13
  0
APPID
  5
12
330
9
100
AcDbSymbolTableRecord
100
AcDbRegAppTableRecord
  2
ACAD
 70
     0
  0
APPID
  5
A0
330
9
100
AcDbSymbolTableRecord
100
AcDbRegAppTableRecord
  2
ACAD_PSEXT
 70
     0
  0
APPID
  5
12A
330
9
100
AcDbSymbolTableRecord
100
AcDbRegAppTableRecord
  2
AcadAnnoPO
 70
     0
  0
APPID
  5
12B
330
9
100
AcDbSymbolTableRecord
100
AcDbRegAppTableRecord
  2
AcadAnnotative
 70
     0
  0
APPID
  5
12C
330
9
100
AcDbSymbolTableRecord
100
AcDbRegAppTableRecord
  2
ACAD_DSTYLE_DIMJAG
 70
     0
  0
APPID
  5
12D
330
9
100
AcDbSymbolTableRecord
100
AcDbRegAppTableRecord
  2
ACAD_DSTYLE_DIMTALN
 70
     0
  0
APPID
  5
15C
330
9
100
AcDbSymbolTableRecord
100
AcDbRegAppTableRecord
  2
ACAD_MLEADERVER
 70
     0
  0
APPID
  5
20E
330
9
100
AcDbSymbolTableRecord
100
AcDbRegAppTableRecord
  2
ACAD_NAV_VCDISPLAY
 70
     0
  0
APPID
  5
256
330
9
100
AcDbSymbolTableRecord
100
AcDbRegAppTableRecord
  2
AcAecLayerStandard
 70
     0
  0
APPID
  5
257
330
9
100
AcDbSymbolTableRecord
100
AcDbRegAppTableRecord
  2
AcCmTransparency
 70
     0
  0
APPID
  5
264
330
9
100
AcDbSymbolTableRecord
100
AcDbRegAppTableRecord
  2
ACAD_EXEMPT_FROM_CAD_STANDARDS
 70
     0
  0
APPID
  5
26F
330
9
100
AcDbSymbolTableRecord
100
AcDbRegAppTableRecord
  2
ACAD_DSTYLE_DIMRADIAL_EXTENSION
 70
     0
  0
APPID
  5
A2B
330
9
100
AcDbSymbolTableRecord
100
AcDbRegAppTableRecord
  2
AcadAnnoMonitorAlertIconDisabled
 70
     0
  0
ENDTAB
  0
TABLE
  2
DIMSTYLE
  5
A
330
0
100
AcDbSymbolTable
 70
     3
100
AcDbDimStyleTable
 71
     2
340
27
340
12E
  0
DIMSTYLE
105
1A7
330
A
100
AcDbSymbolTableRecord
100
AcDbDimStyleTableRecord
  2
Standard
 70
     0
340
11
  0
DIMSTYLE
105
12E
330
A
100
AcDbSymbolTableRecord
100
AcDbDimStyleTableRecord
  2
Annotative
 70
     0
 40
0.0
 41
2.5
 42
0.625
 43
3.75
 44
1.25
 73
     0
 74
     0
 77
     1
 78
     8
140
2.5
141
2.5
143
0.03937007874016
147
0.625
171
     3
172
     1
271
     2
272
     2
274
     3
278
    44
283
     0
284
     8
340
11
1001
AcadAnnotative
1000
AnnotativeData
1002
{
1070
     1
1070
     1
1002
}
1001
ACAD_DSTYLE_DIMJAG
1070
   388
1040
1.5
1001
ACAD_DSTYLE_DIMTALN
1070
   392
1070
     0
  0
DIMSTYLE
105
27
102
{ACAD_REACTORS
330
C6E
330
C86
330
CBA
330
CD2
330
1314
330
181B
330
1833
330
184B
102
}
330
A
100
AcDbSymbolTableRecord
100
AcDbDimStyleTableRecord
  2
ISO-25
 70
     0
 41
2.5
 42
0.625
 43
3.75
 44
1.25
 73
     0
 74
     0
 77
     1
 78
     8
140
20.0
141
2.5
143
0.03937007874016
147
0.625
171
     3
172
     1
271
     2
272
     2
274
     3
278
    44
283
     0
284
     8
340
11
1001
ACAD_DSTYLE_DIMJAG
1070
   388
1040
1.5
1001
ACAD_DSTYLE_DIMTALN
1070
   392
1070
     0
  0
ENDTAB
  0
TABLE
  2
BLOCK_RECORD
  5
1
330
0
100
AcDbSymbolTable
 70
     9
  0
BLOCK_RECORD
  5
1F
102
{ACAD_XDICTIONARY
360
1C5
102
}
330
1
100
AcDbSymbolTableRecord
100
AcDbBlockTableRecord
  2
*Model_Space
340
22
 70
     0
280
     1
281
     0
  0
BLOCK_RECORD
  5
D2
330
1
100
AcDbSymbolTableRecord
100
AcDbBlockTableRecord
  2
*Paper_Space
340
D3
 70
     0
280
     1
281
     0
  0
BLOCK_RECORD
  5
D6
330
1
100
AcDbSymbolTableRecord
100
AcDbBlockTableRecord
  2
*Paper_Space0
340
D7
 70
     0
280
     1
281
     0
  0
BLOCK_RECORD
  5
C6F
330
1
100
AcDbSymbolTableRecord
100
AcDbBlockTableRecord
  2
*D1
340
0
 70
     0
280
     1
281
     0
  0
BLOCK_RECORD
  5
C87
330
1
100
AcDbSymbolTableRecord
100
AcDbBlockTableRecord
  2
*D2
340
0
 70
     0
280
     1
281
     0
  0
BLOCK_RECORD
  5
CBB
330
1
100
AcDbSymbolTableRecord
100
AcDbBlockTableRecord
  2
*D3
340
0
 70
     0
280
     1
281
     0
  0
BLOCK_RECORD
  5
CD3
330
1
100
AcDbSymbolTableRecord
100
AcDbBlockTableRecord
  2
*D4
340
0
 70
     0
280
     1
281
     0
  0
BLOCK_RECORD
  5
1315
330
1
100
AcDbSymbolTableRecord
100
AcDbBlockTableRecord
  2
*D5
340
0
 70
     0
280
     1
281
     0
  0
BLOCK_RECORD
  5
181C
330
1
100
AcDbSymbolTableRecord
100
AcDbBlockTableRecord
  2
*D6
340
0
 70
     0
280
     1
281
     0
  0
BLOCK_RECORD
  5
1834
330
1
100
AcDbSymbolTableRecord
100
AcDbBlockTableRecord
  2
*D7
340
0
 70
     0
280
     1
281
     0
  0
BLOCK_RECORD
  5
184C
330
1
100
AcDbSymbolTableRecord
100
AcDbBlockTableRecord
  2
*D8
340
0
 70
     0
280
     1
281
     0
  0
ENDTAB
  0
ENDSEC
  0
SECTION
  2
BLOCKS
  0
BLOCK
  5
20
330
1F
100
AcDbEntity
  8
0
100
AcDbBlockBegin
  2
*Model_Space
 70
     0
 10
0.0
 20
0.0
 30
0.0
  3
*Model_Space
  1

  0
ENDBLK
  5
21
330
1F
100
AcDbEntity
  8
0
100
AcDbBlockEnd
  0
BLOCK
  5
D4
330
D2
100
AcDbEntity
 67
     1
  8
0
100
AcDbBlockBegin
  2
*Paper_Space
 70
     0
 10
0.0
 20
0.0
 30
0.0
  3
*Paper_Space
  1

  0
ENDBLK
  5
D5
330
D2
100
AcDbEntity
 67
     1
  8
0
100
AcDbBlockEnd
  0
BLOCK
  5
D8
330
D6
100
AcDbEntity
 67
     1
  8
0
100
AcDbBlockBegin
  2
*Paper_Space0
 70
     0
 10
0.0
 20
0.0
 30
0.0
  3
*Paper_Space0
  1

  0
ENDBLK
  5
D9
330
D6
100
AcDbEntity
 67
     1
  8
0
100
AcDbBlockEnd
  0
BLOCK
  5
C70
330
C6F
100
AcDbEntity
  8
0
100
AcDbBlockBegin
  2
*D1
 70
     1
 10
0.0
 20
0.0
 30
0.0
  3
*D1
  1

  0
LINE
  5
191E
330
C6F
100
AcDbEntity
  8
寸法線
 62
     0
440
 16777216
370
    -2
100
AcDbLine
 10
34542.14958834097
 20
28816.69599312465
 30
0.0
 11
34542.14958834097
 21
28936.78814345202
 31
0.0
  0
LINE
  5
191F
330
C6F
100
AcDbEntity
  8
寸法線
 62
     0
440
 16777216
370
    -2
100
AcDbLine
 10
34587.14958834097
 20
28816.69599312465
 30
0.0
 11
34587.14958834097
 21
28936.78814345202
 31
0.0
  0
LINE
  5
1920
330
C6F
100
AcDbEntity
  8
寸法線
 62
     0
440
 16777216
370
    -2
100
AcDbLine
 10
34544.64958834098
 20
28935.53814345202
 30
0.0
 11
34584.64958834098
 21
28935.53814345202
 31
0.0
  0
SOLID
  5
1921
330
C6F
100
AcDbEntity
  8
寸法線
 62
     0
440
 16777216
100
AcDbTrace
 10
34544.64958834098
 20
28935.95481011868
 30
0.0
 11
34544.64958834098
 21
28935.12147678535
 31
0.0
 12
34542.14958834097
 22
28935.53814345202
 32
0.0
 13
34542.14958834097
 23
28935.53814345202
 33
0.0
  0
SOLID
  5
1922
330
C6F
100
AcDbEntity
  8
寸法線
 62
     0
440
 16777216
100
AcDbTrace
 10
34584.64958834098
 20
28935.95481011868
 30
0.0
 11
34584.64958834098
 21
28935.12147678535
 31
0.0
 12
34587.14958834097
 22
28935.53814345202
 32
0.0
 13
34587.14958834097
 23
28935.53814345202
 33
0.0
  0
MTEXT
  5
1923
330
C6F
100
AcDbEntity
  8
寸法線
 62
     0
440
 16777216
100
AcDbMText
 10
34564.64958834097
 20
28946.33367551204
 30
0.0
 40
20.0
 41
0.0
 46
0.0
 71
     5
 72
     1
  1
45
 73
     1
 44
1.0
  0
POINT
  5
1924
330
C6F
100
AcDbEntity
  8
Defpoints
 62
     0
440
 16777216
100
AcDbPoint
 10
34542.14958834097
 20
28816.07099312465
 30
0.0
  0
POINT
  5
1925
330
C6F
100
AcDbEntity
  8
Defpoints
 62
     0
440
 16777216
100
AcDbPoint
 10
34587.14958834097
 20
28816.07099312465
 30
0.0
  0
POINT
  5
1926
330
C6F
100
AcDbEntity
  8
Defpoints
 62
     0
440
 16777216
100
AcDbPoint
 10
34587.14958834097
 20
28935.53814345202
 30
0.0
  0
ENDBLK
  5
C71
330
C6F
100
AcDbEntity
  8
0
100
AcDbBlockEnd
  0
BLOCK
  5
C88
330
C87
100
AcDbEntity
  8
0
100
AcDbBlockBegin
  2
*D2
 70
     1
 10
0.0
 20
0.0
 30
0.0
  3
*D2
  1

  0
LINE
  5
1927
330
C87
100
AcDbEntity
  8
寸法線
 62
     0
440
 16777216
370
    -2
100
AcDbLine
 10
34566.14958834098
 20
28879.19599312465
 30
0.0
 11
34566.14958834098
 21
28909.96222087823
 31
0.0
  0
LINE
  5
1928
330
C87
100
AcDbEntity
  8
寸法線
 62
     0
440
 16777216
370
    -2
100
AcDbLine
 10
34542.14958834097
 20
28879.19599312465
 30
0.0
 11
34542.14958834097
 21
28909.96222087823
 31
0.0
  0
LINE
  5
1929
330
C87
100
AcDbEntity
  8
寸法線
 62
     0
440
 16777216
370
    -2
100
AcDbLine
 10
34563.64958834098
 20
28908.71222087823
 30
0.0
 11
34544.64958834098
 21
28908.71222087823
 31
0.0
  0
LINE
  5
192A
330
C87
100
AcDbEntity
  8
寸法線
 62
     0
440
 16777216
370
    -2
100
AcDbLine
 10
34542.14958834097
 20
28908.71222087823
 30
0.0
 11
34509.49099352515
 21
28908.71222087823
 31
0.0
  0
SOLID
  5
192B
330
C87
100
AcDbEntity
  8
寸法線
 62
     0
440
 16777216
100
AcDbTrace
 10
34563.64958834098
 20
28909.1288875449
 30
0.0
 11
34563.64958834098
 21
28908.29555421156
 31
0.0
 12
34566.14958834098
 22
28908.71222087823
 32
0.0
 13
34566.14958834098
 23
28908.71222087823
 33
0.0
  0
SOLID
  5
192C
330
C87
100
AcDbEntity
  8
寸法線
 62
     0
440
 16777216
100
AcDbTrace
 10
34544.64958834098
 20
28909.1288875449
 30
0.0
 11
34544.64958834098
 21
28908.29555421156
 31
0.0
 12
34542.14958834097
 22
28908.71222087823
 32
0.0
 13
34542.14958834097
 23
28908.71222087823
 33
0.0
  0
MTEXT
  5
192D
330
C87
100
AcDbEntity
  8
寸法線
 62
     0
440
 16777216
100
AcDbMText
 10
34524.57029093306
 20
28919.37814857264
 30
0.0
 40
20.0
 41
0.0
 46
0.0
 71
     5
 72
     1
  1
24
 73
     1
 44
1.0
  0
POINT
  5
192E
330
C87
100
AcDbEntity
  8
Defpoints
 62
     0
440
 16777216
100
AcDbPoint
 10
34566.14958834098
 20
28878.57099312465
 30
0.0
  0
POINT
  5
192F
330
C87
100
AcDbEntity
  8
Defpoints
 62
     0
440
 16777216
100
AcDbPoint
 10
34542.14958834097
 20
28878.57099312465
 30
0.0
  0
POINT
  5
1930
330
C87
100
AcDbEntity
  8
Defpoints
 62
     0
440
 16777216
100
AcDbPoint
 10
34542.14958834097
 20
28908.71222087823
 30
0.0
  0
ENDBLK
  5
C89
330
C87
100
AcDbEntity
  8
0
100
AcDbBlockEnd
  0
BLOCK
  5
CBC
330
CBB
100
AcDbEntity
  8
0
100
AcDbBlockBegin
  2
*D3
 70
     1
 10
0.0
 20
0.0
 30
0.0
  3
*D3
  1

  0
LINE
  5
1931
330
CBB
100
AcDbEntity
  8
寸法線
 62
     0
440
 16777216
370
    -2
100
AcDbLine
 10
34550.14958834098
 20
28852.94599312464
 30
0.0
 11
34550.14958834098
 21
28882.40885429553
 31
0.0
  0
LINE
  5
1932
330
CBB
100
AcDbEntity
  8
寸法線
 62
     0
440
 16777216
370
    -2
100
AcDbLine
 10
34582.14958834097
 20
28852.94599312464
 30
0.0
 11
34582.14958834097
 21
28882.40885429553
 31
0.0
  0
LINE
  5
1933
330
CBB
100
AcDbEntity
  8
寸法線
 62
     0
440
 16777216
370
    -2
100
AcDbLine
 10
34552.64958834098
 20
28881.15885429553
 30
0.0
 11
34579.64958834097
 21
28881.15885429553
 31
0.0
  0
SOLID
  5
1934
330
CBB
100
AcDbEntity
  8
寸法線
 62
     0
440
 16777216
100
AcDbTrace
 10
34552.64958834098
 20
28881.57552096219
 30
0.0
 11
34552.64958834098
 21
28880.74218762886
 31
0.0
 12
34550.14958834098
 22
28881.15885429553
 32
0.0
 13
34550.14958834098
 23
28881.15885429553
 33
0.0
  0
SOLID
  5
1935
330
CBB
100
AcDbEntity
  8
寸法線
 62
     0
440
 16777216
100
AcDbTrace
 10
34579.64958834097
 20
28881.57552096219
 30
0.0
 11
34579.64958834097
 21
28880.74218762886
 31
0.0
 12
34582.14958834097
 22
28881.15885429553
 32
0.0
 13
34582.14958834097
 23
28881.15885429553
 33
0.0
  0
MTEXT
  5
1936
330
CBB
100
AcDbEntity
  8
寸法線
 62
     0
440
 16777216
100
AcDbMText
 10
34566.14958834097
 20
28892.00213533236
 30
0.0
 40
20.0
 41
0.0
 46
0.0
 71
     5
 72
     1
  1
32
 73
     1
 44
1.0
  0
POINT
  5
1937
330
CBB
100
AcDbEntity
  8
Defpoints
 62
     0
440
 16777216
100
AcDbPoint
 10
34550.14958834098
 20
28852.32099312465
 30
0.0
  0
POINT
  5
1938
330
CBB
100
AcDbEntity
  8
Defpoints
 62
     0
440
 16777216
100
AcDbPoint
 10
34582.14958834097
 20
28852.32099312465
 30
0.0
  0
POINT
  5
1939
330
CBB
100
AcDbEntity
  8
Defpoints
 62
     0
440
 16777216
100
AcDbPoint
 10
34582.14958834097
 20
28881.15885429553
 30
0.0
  0
ENDBLK
  5
CBD
330
CBB
100
AcDbEntity
  8
0
100
AcDbBlockEnd
  0
BLOCK
  5
CD4
330
CD3
100
AcDbEntity
  8
0
100
AcDbBlockBegin
  2
*D4
 70
     1
 10
0.0
 20
0.0
 30
0.0
  3
*D4
  1

  0
LINE
  5
193A
330
CD3
100
AcDbEntity
  8
寸法線
 62
     0
440
 16777216
370
    -2
100
AcDbLine
 10
34565.52458834098
 20
28868.57099312464
 30
0.0
 11
34492.87453256058
 21
28868.57099312464
 31
0.0
  0
LINE
  5
193B
330
CD3
100
AcDbEntity
  8
寸法線
 62
     0
440
 16777216
370
    -2
100
AcDbLine
 10
34565.52458834098
 20
28791.57099312465
 30
0.0
 11
34492.87453256058
 21
28791.57099312465
 31
0.0
  0
LINE
  5
193C
330
CD3
100
AcDbEntity
  8
寸法線
 62
     0
440
 16777216
370
    -2
100
AcDbLine
 10
34494.12453256059
 20
28866.07099312465
 30
0.0
 11
34494.12453256059
 21
28794.07099312464
 31
0.0
  0
SOLID
  5
193D
330
CD3
100
AcDbEntity
  8
寸法線
 62
     0
440
 16777216
100
AcDbTrace
 10
34493.70786589392
 20
28866.07099312465
 30
0.0
 11
34494.54119922725
 21
28866.07099312465
 31
0.0
 12
34494.12453256059
 22
28868.57099312464
 32
0.0
 13
34494.12453256059
 23
28868.57099312464
 33
0.0
  0
SOLID
  5
193E
330
CD3
100
AcDbEntity
  8
寸法線
 62
     0
440
 16777216
100
AcDbTrace
 10
34493.70786589392
 20
28794.07099312464
 30
0.0
 11
34494.54119922725
 21
28794.07099312464
 31
0.0
 12
34494.12453256059
 22
28791.57099312465
 32
0.0
 13
34494.12453256059
 23
28791.57099312465
 33
0.0
  0
MTEXT
  5
193F
330
CD3
100
AcDbEntity
  8
寸法線
 62
     0
440
 16777216
100
AcDbMText
 10
34483.49953256058
 20
28830.07099312465
 30
0.0
 40
20.0
 41
0.0
 46
0.0
 71
     5
 72
     1
  1
77
 11
0.0000000000000001
 21
1.0
 31
0.0
 73
     1
 44
1.0
  0
POINT
  5
1940
330
CD3
100
AcDbEntity
  8
Defpoints
 62
     0
440
 16777216
100
AcDbPoint
 10
34566.14958834097
 20
28868.57099312464
 30
0.0
  0
POINT
  5
1941
330
CD3
100
AcDbEntity
  8
Defpoints
 62
     0
440
 16777216
100
AcDbPoint
 10
34566.14958834098
 20
28791.57099312465
 30
0.0
  0
POINT
  5
1942
330
CD3
100
AcDbEntity
  8
Defpoints
 62
     0
440
 16777216
100
AcDbPoint
 10
34494.12453256059
 20
28791.57099312465
 30
0.0
  0
ENDBLK
  5
CD5
330
CD3
100
AcDbEntity
  8
0
100
AcDbBlockEnd
  0
BLOCK
  5
1316
330
1315
100
AcDbEntity
  8
0
100
AcDbBlockBegin
  2
*D5
 70
     1
 10
0.0
 20
0.0
 30
0.0
  3
*D5
  1

  0
LINE
  5
1943
330
1315
100
AcDbEntity
  8
寸法線
 62
     0
440
 16777216
370
    -2
100
AcDbLine
 10
34566.14958834098
 20
28879.19599312465
 30
0.0
 11
34566.14958834098
 21
28909.96222087823
 31
0.0
  0
LINE
  5
1944
330
1315
100
AcDbEntity
  8
寸法線
 62
     0
440
 16777216
370
    -2
100
AcDbLine
 10
34587.14958834097
 20
28852.94599312464
 30
0.0
 11
34587.14958834097
 21
28909.96222087823
 31
0.0
  0
LINE
  5
1945
330
1315
100
AcDbEntity
  8
寸法線
 62
     0
440
 16777216
370
    -2
100
AcDbLine
 10
34568.64958834098
 20
28908.71222087823
 30
0.0
 11
34584.64958834098
 21
28908.71222087823
 31
0.0
  0
LINE
  5
1946
330
1315
100
AcDbEntity
  8
寸法線
 62
     0
440
 16777216
370
    -2
100
AcDbLine
 10
34587.14958834097
 20
28908.71222087823
 30
0.0
 11
34616.02919270659
 21
28908.71222087823
 31
0.0
  0
SOLID
  5
1947
330
1315
100
AcDbEntity
  8
寸法線
 62
     0
440
 16777216
100
AcDbTrace
 10
34568.64958834098
 20
28909.1288875449
 30
0.0
 11
34568.64958834098
 21
28908.29555421156
 31
0.0
 12
34566.14958834098
 22
28908.71222087823
 32
0.0
 13
34566.14958834098
 23
28908.71222087823
 33
0.0
  0
SOLID
  5
1948
330
1315
100
AcDbEntity
  8
寸法線
 62
     0
440
 16777216
100
AcDbTrace
 10
34584.64958834098
 20
28909.1288875449
 30
0.0
 11
34584.64958834098
 21
28908.29555421156
 31
0.0
 12
34587.14958834097
 22
28908.71222087823
 32
0.0
 13
34587.14958834097
 23
28908.71222087823
 33
0.0
  0
MTEXT
  5
1949
330
1315
100
AcDbEntity
  8
寸法線
 62
     0
440
 16777216
100
AcDbMText
 10
34602.83939052378
 20
28919.37814857264
 30
0.0
 40
20.0
 41
0.0
 46
0.0
 71
     5
 72
     1
  1
21
 73
     1
 44
1.0
  0
POINT
  5
194A
330
1315
100
AcDbEntity
  8
Defpoints
 62
     0
440
 16777216
100
AcDbPoint
 10
34566.14958834098
 20
28878.57099312465
 30
0.0
  0
POINT
  5
194B
330
1315
100
AcDbEntity
  8
Defpoints
 62
     0
440
 16777216
100
AcDbPoint
 10
34587.14958834097
 20
28852.32099312465
 30
0.0
  0
POINT
  5
194C
330
1315
100
AcDbEntity
  8
Defpoints
 62
     0
440
 16777216
100
AcDbPoint
 10
34587.14958834097
 20
28908.71222087823
 30
0.0
  0
ENDBLK
  5
1317
330
1315
100
AcDbEntity
  8
0
100
AcDbBlockEnd
  0
BLOCK
  5
181D
330
181C
100
AcDbEntity
  8
0
100
AcDbBlockBegin
  2
*D6
 70
     1
 10
0.0
 20
0.0
 30
0.0
  3
*D6
  1

  0
LINE
  5
194D
330
181C
100
AcDbEntity
  8
寸法線
 62
     0
440
 16777216
370
    -2
100
AcDbLine
 10
33515.53638066461
 20
29067.19599312465
 30
0.0
 11
33515.53638066461
 21
29164.52803018247
 31
0.0
  0
LINE
  5
194E
330
181C
100
AcDbEntity
  8
寸法線
 62
     0
440
 16777216
370
    -2
100
AcDbLine
 10
34388.53638066461
 20
29067.19599312465
 30
0.0
 11
34388.53638066461
 21
29164.52803018247
 31
0.0
  0
LINE
  5
194F
330
181C
100
AcDbEntity
  8
寸法線
 62
     0
440
 16777216
370
    -2
100
AcDbLine
 10
33518.03638066461
 20
29163.27803018248
 30
0.0
 11
34386.03638066461
 21
29163.27803018248
 31
0.0
  0
SOLID
  5
1950
330
181C
100
AcDbEntity
  8
寸法線
 62
     0
440
 16777216
100
AcDbTrace
 10
33518.03638066461
 20
29163.69469684914
 30
0.0
 11
33518.03638066461
 21
29162.86136351581
 31
0.0
 12
33515.53638066461
 22
29163.27803018248
 32
0.0
 13
33515.53638066461
 23
29163.27803018248
 33
0.0
  0
SOLID
  5
1951
330
181C
100
AcDbEntity
  8
寸法線
 62
     0
440
 16777216
100
AcDbTrace
 10
34386.03638066461
 20
29163.69469684914
 30
0.0
 11
34386.03638066461
 21
29162.86136351581
 31
0.0
 12
34388.53638066461
 22
29163.27803018248
 32
0.0
 13
34388.53638066461
 23
29163.27803018248
 33
0.0
  0
MTEXT
  5
1952
330
181C
100
AcDbEntity
  8
寸法線
 62
     0
440
 16777216
100
AcDbMText
 10
33952.0363806646
 20
29174.12131121931
 30
0.0
 40
20.0
 41
0.0
 46
0.0
 71
     5
 72
     1
  1
873
 73
     1
 44
1.0
  0
POINT
  5
1953
330
181C
100
AcDbEntity
  8
Defpoints
 62
     0
440
 16777216
100
AcDbPoint
 10
33515.53638066461
 20
29066.57099312464
 30
0.0
  0
POINT
  5
1954
330
181C
100
AcDbEntity
  8
Defpoints
 62
     0
440
 16777216
100
AcDbPoint
 10
34388.53638066461
 20
29066.57099312464
 30
0.0
  0
POINT
  5
1955
330
181C
100
AcDbEntity
  8
Defpoints
 62
     0
440
 16777216
100
AcDbPoint
 10
34388.53638066461
 20
29163.27803018248
 30
0.0
  0
ENDBLK
  5
181E
330
181C
100
AcDbEntity
  8
0
100
AcDbBlockEnd
  0
BLOCK
  5
1835
330
1834
100
AcDbEntity
  8
0
100
AcDbBlockBegin
  2
*D7
 70
     1
 10
0.0
 20
0.0
 30
0.0
  3
*D7
  1

  0
LINE
  5
1956
330
1834
100
AcDbEntity
  8
寸法線
 62
     0
440
 16777216
370
    -2
100
AcDbLine
 10
34388.16138066461
 20
28816.57099312464
 30
0.0
 11
34444.90302111788
 21
28816.57099312464
 31
0.0
  0
LINE
  5
1957
330
1834
100
AcDbEntity
  8
寸法線
 62
     0
440
 16777216
370
    -2
100
AcDbLine
 10
34388.16138066461
 20
28868.57099312464
 30
0.0
 11
34444.90302111788
 21
28868.57099312464
 31
0.0
  0
LINE
  5
1958
330
1834
100
AcDbEntity
  8
寸法線
 62
     0
440
 16777216
370
    -2
100
AcDbLine
 10
34443.65302111788
 20
28819.07099312465
 30
0.0
 11
34443.65302111788
 21
28866.07099312465
 31
0.0
  0
SOLID
  5
1959
330
1834
100
AcDbEntity
  8
寸法線
 62
     0
440
 16777216
100
AcDbTrace
 10
34443.23635445122
 20
28819.07099312465
 30
0.0
 11
34444.06968778455
 21
28819.07099312465
 31
0.0
 12
34443.65302111788
 22
28816.57099312464
 32
0.0
 13
34443.65302111788
 23
28816.57099312464
 33
0.0
  0
SOLID
  5
195A
330
1834
100
AcDbEntity
  8
寸法線
 62
     0
440
 16777216
100
AcDbTrace
 10
34443.23635445122
 20
28866.07099312465
 30
0.0
 11
34444.06968778455
 21
28866.07099312465
 31
0.0
 12
34443.65302111788
 22
28868.57099312464
 32
0.0
 13
34443.65302111788
 23
28868.57099312464
 33
0.0
  0
MTEXT
  5
195B
330
1834
100
AcDbEntity
  8
寸法線
 62
     0
440
 16777216
100
AcDbMText
 10
34432.81656136344
 20
28842.57099312465
 30
0.0
 40
20.0
 41
0.0
 46
0.0
 71
     5
 72
     1
  1
52
 11
0.0000000000000001
 21
1.0
 31
0.0
 73
     1
 44
1.0
  0
POINT
  5
195C
330
1834
100
AcDbEntity
  8
Defpoints
 62
     0
440
 16777216
100
AcDbPoint
 10
34387.53638066461
 20
28816.57099312464
 30
0.0
  0
POINT
  5
195D
330
1834
100
AcDbEntity
  8
Defpoints
 62
     0
440
 16777216
100
AcDbPoint
 10
34387.53638066461
 20
28868.57099312464
 30
0.0
  0
POINT
  5
195E
330
1834
100
AcDbEntity
  8
Defpoints
 62
     0
440
 16777216
100
AcDbPoint
 10
34443.65302111788
 20
28868.57099312464
 30
0.0
  0
ENDBLK
  5
1836
330
1834
100
AcDbEntity
  8
0
100
AcDbBlockEnd
  0
BLOCK
  5
184D
330
184C
100
AcDbEntity
  8
0
100
AcDbBlockBegin
  2
*D8
 70
     1
 10
0.0
 20
0.0
 30
0.0
  3
*D8
  1

  0
LINE
  5
195F
330
184C
100
AcDbEntity
  8
寸法線
 62
     0
440
 16777216
370
    -2
100
AcDbLine
 10
34388.16138066461
 20
28816.57099312464
 30
0.0
 11
34444.90302111788
 21
28816.57099312464
 31
0.0
  0
LINE
  5
1960
330
184C
100
AcDbEntity
  8
寸法線
 62
     0
440
 16777216
370
    -2
100
AcDbLine
 10
33985.96138066461
 20
28791.57099312465
 30
0.0
 11
34444.90302111788
 21
28791.57099312465
 31
0.0
  0
LINE
  5
1961
330
184C
100
AcDbEntity
  8
寸法線
 62
     0
440
 16777216
370
    -2
100
AcDbLine
 10
34443.65302111788
 20
28814.07099312465
 30
0.0
 11
34443.65302111788
 21
28794.07099312464
 31
0.0
  0
LINE
  5
1962
330
184C
100
AcDbEntity
  8
寸法線
 62
     0
440
 16777216
370
    -2
100
AcDbLine
 10
34443.65302111788
 20
28791.57099312465
 30
0.0
 11
34443.65302111788
 21
28758.68047470719
 31
0.0
  0
SOLID
  5
1963
330
184C
100
AcDbEntity
  8
寸法線
 62
     0
440
 16777216
100
AcDbTrace
 10
34443.23635445122
 20
28814.07099312465
 30
0.0
 11
34444.06968778455
 21
28814.07099312465
 31
0.0
 12
34443.65302111788
 22
28816.57099312464
 32
0.0
 13
34443.65302111788
 23
28816.57099312464
 33
0.0
  0
SOLID
  5
1964
330
184C
100
AcDbEntity
  8
寸法線
 62
     0
440
 16777216
100
AcDbTrace
 10
34443.23635445122
 20
28794.07099312464
 30
0.0
 11
34444.06968778455
 21
28794.07099312464
 31
0.0
 12
34443.65302111788
 22
28791.57099312465
 32
0.0
 13
34443.65302111788
 23
28791.57099312465
 33
0.0
  0
MTEXT
  5
1965
330
184C
100
AcDbEntity
  8
寸法線
 62
     0
440
 16777216
100
AcDbMText
 10
34432.81656136344
 20
28773.87573391592
 30
0.0
 40
20.0
 41
0.0
 46
0.0
 71
     5
 72
     1
  1
25
 11
0.0000000000000001
 21
1.0
 31
0.0
 73
     1
 44
1.0
  0
POINT
  5
1966
330
184C
100
AcDbEntity
  8
Defpoints
 62
     0
440
 16777216
100
AcDbPoint
 10
34387.53638066461
 20
28816.57099312464
 30
0.0
  0
POINT
  5
1967
330
184C
100
AcDbEntity
  8
Defpoints
 62
     0
440
 16777216
100
AcDbPoint
 10
33985.33638066461
 20
28791.57099312465
 30
0.0
  0
POINT
  5
1968
330
184C
100
AcDbEntity
  8
Defpoints
 62
     0
440
 16777216
100
AcDbPoint
 10
34443.65302111788
 20
28791.57099312465
 30
0.0
  0
ENDBLK
  5
184E
330
184C
100
AcDbEntity
  8
0
100
AcDbBlockEnd
  0
ENDSEC
  0
SECTION
  2
ENTITIES
  0
LINE
  5
7A2
102
{ACAD_REACTORS
330
CD1
102
}
330
1F
100
AcDbEntity
  8
外形線
100
AcDbLine
 10
34550.14958834098
 20
28852.32099312465
 30
0.0
 11
34550.14958834098
 21
28850.30542868757
 31
0.0
  0
LINE
  5
7A3
330
1F
100
AcDbEntity
  8
外形線
100
AcDbLine
 10
34582.14958834098
 20
28849.48153895175
 30
0.0
 11
34582.14958834098
 21
28852.32099312574
 31
0.0
  0
ARC
  5
7A4
102
{ACAD_REACTORS
330
CD1
330
CE9
102
}
330
1F
100
AcDbEntity
  8
外形線
100
AcDbCircle
 10
34566.14958834097
 20
28852.56907004773
 30
0.0
 40
16.00192307691588
100
AcDbArc
 50
359.1117111338804
 51
180.8882888661196
  0
ARC
  5
7A5
330
1F
100
AcDbEntity
  8
外形線
100
AcDbCircle
 10
34566.14958834098
 20
28852.32099312465
 30
0.0
 40
16.24999999999987
100
AcDbArc
 50
194.1411102338193
 51
217.6271906287984
  0
ARC
  5
7A6
330
1F
100
AcDbEntity
  8
外形線
100
AcDbCircle
 10
34541.39958834098
 20
28833.24220909631
 30
0.0
 40
15.0
100
AcDbArc
 50
0.0
 51
37.6271906287984
  0
ARC
  5
7A7
330
1F
100
AcDbEntity
  8
外形線
100
AcDbCircle
 10
34558.14958834098
 20
28850.30542868757
 30
0.0
 40
8.0
100
AcDbArc
 50
180.0
 51
194.1411102338193
  0
ARC
  5
7A8
330
1F
100
AcDbEntity
  8
外形線
100
AcDbCircle
 10
34566.14958834098
 20
28852.32099312465
 30
0.0
 40
16.24999999999987
100
AcDbArc
 50
322.3728093712016
 51
349.9367255563573
  0
ARC
  5
7A9
330
1F
100
AcDbEntity
  8
外形線
100
AcDbCircle
 10
34590.89958834098
 20
28833.24220909631
 30
0.0
 40
15.0
100
AcDbArc
 50
142.3728093712016
 51
180.0
  0
LINE
  5
7AA
330
1F
100
AcDbEntity
  8
外形線
100
AcDbLine
 10
34556.39958834098
 20
28833.24220909631
 30
0.0
 11
34556.39958834098
 21
28818.57099312465
 31
0.0
  0
LINE
  5
7AB
330
1F
100
AcDbEntity
  8
外形線
100
AcDbLine
 10
34556.39958834098
 20
28818.57099312465
 30
0.0
 11
34563.14958834098
 21
28818.57099312465
 31
0.0
  0
LINE
  5
7AC
330
1F
100
AcDbEntity
  8
外形線
100
AcDbLine
 10
34569.14958834098
 20
28818.57099312465
 30
0.0
 11
34575.89958834098
 21
28818.57099312465
 31
0.0
  0
LINE
  5
7AD
330
1F
100
AcDbEntity
  8
外形線
100
AcDbLine
 10
34575.89958834098
 20
28818.57099312465
 30
0.0
 11
34575.89958834098
 21
28833.24220909631
 31
0.0
  0
LINE
  5
7AE
330
1F
100
AcDbEntity
  8
外形線
100
AcDbLine
 10
34554.34958834098
 20
28826.57099312464
 30
0.0
 11
34554.34958834098
 21
28816.57099312464
 31
0.0
  0
LINE
  5
7AF
330
1F
100
AcDbEntity
  8
外形線
100
AcDbLine
 10
34554.34958834098
 20
28816.57099312464
 30
0.0
 11
34577.94958834099
 21
28816.57099312464
 31
0.0
  0
LINE
  5
7B0
330
1F
100
AcDbEntity
  8
外形線
100
AcDbLine
 10
34577.94958834099
 20
28816.57099312464
 30
0.0
 11
34577.94958834099
 21
28826.57099312464
 31
0.0
  0
LINE
  5
7B1
330
1F
100
AcDbEntity
  8
外形線
100
AcDbLine
 10
34554.34958834098
 20
28826.57099312464
 30
0.0
 11
34556.39958834098
 21
28826.57099312464
 31
0.0
  0
LINE
  5
7B2
330
1F
100
AcDbEntity
  8
外形線
100
AcDbLine
 10
34556.39958834098
 20
28826.57099312464
 30
0.0
 11
34556.39958834098
 21
28822.27099312464
 31
0.0
  0
LINE
  5
7B3
330
1F
100
AcDbEntity
  8
外形線
100
AcDbLine
 10
34556.39958834098
 20
28822.27099312464
 30
0.0
 11
34555.79958834098
 21
28822.27099312464
 31
0.0
  0
LINE
  5
7B4
330
1F
100
AcDbEntity
  8
外形線
100
AcDbLine
 10
34555.79958834098
 20
28822.27099312464
 30
0.0
 11
34555.79958834098
 21
28825.97099312465
 31
0.0
  0
LINE
  5
7B5
330
1F
100
AcDbEntity
  8
外形線
100
AcDbLine
 10
34555.79958834098
 20
28825.97099312465
 30
0.0
 11
34554.94958834098
 21
28825.97099312465
 31
0.0
  0
LINE
  5
7B6
330
1F
100
AcDbEntity
  8
外形線
100
AcDbLine
 10
34554.94958834098
 20
28825.97099312465
 30
0.0
 11
34554.94958834098
 21
28817.17099312465
 31
0.0
  0
LINE
  5
7B7
330
1F
100
AcDbEntity
  8
外形線
100
AcDbLine
 10
34554.94958834098
 20
28817.17099312465
 30
0.0
 11
34563.14958834098
 21
28817.17099312465
 31
0.0
  0
LINE
  5
7B8
330
1F
100
AcDbEntity
  8
外形線
100
AcDbLine
 10
34569.14958834098
 20
28817.17099312465
 30
0.0
 11
34577.34958834099
 21
28817.17099312465
 31
0.0
  0
LINE
  5
7B9
330
1F
100
AcDbEntity
  8
外形線
100
AcDbLine
 10
34577.34958834099
 20
28817.17099312465
 30
0.0
 11
34577.34958834099
 21
28825.97099312465
 31
0.0
  0
LINE
  5
7BA
330
1F
100
AcDbEntity
  8
外形線
100
AcDbLine
 10
34577.34958834099
 20
28825.97099312465
 30
0.0
 11
34576.49958834098
 21
28825.97099312465
 31
0.0
  0
LINE
  5
7BB
330
1F
100
AcDbEntity
  8
外形線
100
AcDbLine
 10
34576.49958834098
 20
28825.97099312465
 30
0.0
 11
34576.49958834098
 21
28822.27099312464
 31
0.0
  0
LINE
  5
7BC
330
1F
100
AcDbEntity
  8
外形線
100
AcDbLine
 10
34576.49958834098
 20
28822.27099312464
 30
0.0
 11
34575.89958834098
 21
28822.27099312464
 31
0.0
  0
LINE
  5
7BD
330
1F
100
AcDbEntity
  8
外形線
100
AcDbLine
 10
34575.89958834098
 20
28822.27099312464
 30
0.0
 11
34575.89958834098
 21
28826.57099312464
 31
0.0
  0
LINE
  5
7BE
330
1F
100
AcDbEntity
  8
外形線
100
AcDbLine
 10
34575.89958834098
 20
28826.57099312464
 30
0.0
 11
34577.94958834099
 21
28826.57099312464
 31
0.0
  0
LINE
  5
7BF
330
1F
100
AcDbEntity
  8
外形線
100
AcDbLine
 10
34563.14958834098
 20
28818.57099312465
 30
0.0
 11
34563.14958834098
 21
28816.57099312464
 31
0.0
  0
LINE
  5
7C0
330
1F
100
AcDbEntity
  8
外形線
100
AcDbLine
 10
34569.14958834098
 20
28818.57099312465
 30
0.0
 11
34569.14958834098
 21
28816.57099312464
 31
0.0
  0
LINE
  5
7C1
330
1F
100
AcDbEntity
  8
外形線
100
AcDbLine
 10
34557.89958834098
 20
28816.57099312464
 30
0.0
 11
34557.89958834098
 21
28812.57099312465
 31
0.0
  0
LINE
  5
7C2
330
1F
100
AcDbEntity
  8
外形線
100
AcDbLine
 10
34557.89958834098
 20
28812.57099312465
 30
0.0
 11
34574.39958834098
 21
28812.57099312465
 31
0.0
  0
LINE
  5
7C3
330
1F
100
AcDbEntity
  8
外形線
100
AcDbLine
 10
34574.39958834098
 20
28812.57099312465
 30
0.0
 11
34574.39958834098
 21
28816.57099312464
 31
0.0
  0
LINE
  5
7C4
330
1F
100
AcDbEntity
  8
孔
100
AcDbLine
 10
34564.49958834098
 20
28864.92099312464
 30
0.0
 11
34564.49958834098
 21
28863.22099312465
 31
0.0
  0
LINE
  5
7C5
330
1F
100
AcDbEntity
  8
孔
100
AcDbLine
 10
34567.79958834098
 20
28864.92099312464
 30
0.0
 11
34567.79958834098
 21
28863.22099312465
 31
0.0
  0
ARC
  5
7C6
330
1F
100
AcDbEntity
  8
孔
100
AcDbCircle
 10
34566.14958834098
 20
28864.92099312465
 30
0.0
 40
1.650000000001455
100
AcDbArc
 50
359.9999999995831
 51
180.0000000004169
  0
ARC
  5
7C7
330
1F
100
AcDbEntity
  8
孔
100
AcDbCircle
 10
34566.14958834098
 20
28863.22099312465
 30
0.0
 40
1.650000000001455
100
AcDbArc
 50
180.0
 51
0.0
  0
CIRCLE
  5
7C8
330
1F
100
AcDbEntity
  8
孔
100
AcDbCircle
 10
34566.14958834098
 20
28853.57099312465
 30
0.0
 40
1.6
  0
LINE
  5
7C9
330
1F
100
AcDbEntity
  8
孔
100
AcDbLine
 10
34564.49958834098
 20
28844.92099312465
 30
0.0
 11
34564.49958834098
 21
28841.22099312465
 31
0.0
  0
LINE
  5
7CA
330
1F
100
AcDbEntity
  8
孔
100
AcDbLine
 10
34567.79958834098
 20
28844.92099312465
 30
0.0
 11
34567.79958834098
 21
28841.22099312465
 31
0.0
  0
ARC
  5
7CB
330
1F
100
AcDbEntity
  8
孔
100
AcDbCircle
 10
34566.14958834099
 20
28844.92099312465
 30
0.0
 40
1.650000000008731
100
AcDbArc
 50
359.9999999995831
 51
180.0000000004169
  0
ARC
  5
7CC
330
1F
100
AcDbEntity
  8
孔
100
AcDbCircle
 10
34566.14958834098
 20
28841.22099312464
 30
0.0
 40
1.650000000001455
100
AcDbArc
 50
179.9999999995831
 51
0.0000000004168817
  0
LINE
  5
7CD
330
1F
100
AcDbEntity
  8
孔
100
AcDbLine
 10
34563.64958834098
 20
28833.07099312465
 30
0.0
 11
34563.64958834098
 21
28826.07099312465
 31
0.0
  0
LINE
  5
7CE
330
1F
100
AcDbEntity
  8
孔
100
AcDbLine
 10
34568.64958834098
 20
28833.07099312465
 30
0.0
 11
34568.64958834098
 21
28826.07099312465
 31
0.0
  0
ARC
  5
7CF
330
1F
100
AcDbEntity
  8
孔
100
AcDbCircle
 10
34566.14958834099
 20
28833.07099312465
 30
0.0
 40
2.500000000007275
100
AcDbArc
 50
0.0
 51
180.0
  0
ARC
  5
7D0
330
1F
100
AcDbEntity
  8
孔
100
AcDbCircle
 10
34566.14958834099
 20
28826.07099312465
 30
0.0
 40
2.499999999992724
100
AcDbArc
 50
180.0
 51
0.0
  0
LINE
  5
7D1
330
1F
100
AcDbEntity
  8
外形線
100
AcDbLine
 10
34556.39958834098
 20
28832.57099312465
 30
0.0
 11
34563.64958834098
 21
28832.57099312465
 31
0.0
  0
LINE
  5
7D2
330
1F
100
AcDbEntity
  8
外形線
100
AcDbLine
 10
34568.64958834098
 20
28832.57099312465
 30
0.0
 11
34575.89958834098
 21
28832.57099312465
 31
0.0
  0
LINE
  5
7D3
330
1F
100
AcDbEntity
  8
外形線
100
AcDbLine
 10
34556.39958834098
 20
28822.57099312464
 30
0.0
 11
34575.89958834098
 21
28822.57099312464
 31
0.0
  0
LINE
  5
7D4
330
1F
100
AcDbEntity
  8
外形線
100
AcDbLine
 10
34557.14958834098
 20
28858.32099312465
 30
0.0
 11
34557.14958834098
 21
28847.82099312465
 31
0.0
  0
LINE
  5
7D5
330
1F
100
AcDbEntity
  8
外形線
100
AcDbLine
 10
34561.64958834098
 20
28858.32099312465
 30
0.0
 11
34561.64958834098
 21
28847.82099312465
 31
0.0
  0
ARC
  5
7D6
330
1F
100
AcDbEntity
  8
外形線
100
AcDbCircle
 10
34559.39958834099
 20
28858.32099312465
 30
0.0
 40
2.250000000007275
100
AcDbArc
 50
0.0
 51
180.0
  0
ARC
  5
7D7
330
1F
100
AcDbEntity
  8
外形線
100
AcDbCircle
 10
34559.39958834099
 20
28847.82099312465
 30
0.0
 40
2.250000000007275
100
AcDbArc
 50
180.0
 51
0.0
  0
LINE
  5
7D8
330
1F
100
AcDbEntity
  8
外形線
100
AcDbLine
 10
34570.64958834097
 20
28858.32099312465
 30
0.0
 11
34570.64958834097
 21
28847.82099312465
 31
0.0
  0
LINE
  5
7D9
330
1F
100
AcDbEntity
  8
外形線
100
AcDbLine
 10
34575.14958834098
 20
28858.32099312465
 30
0.0
 11
34575.14958834098
 21
28847.82099312465
 31
0.0
  0
ARC
  5
7DA
330
1F
100
AcDbEntity
  8
外形線
100
AcDbCircle
 10
34572.89958834098
 20
28858.32099312465
 30
0.0
 40
2.250000000007275
100
AcDbArc
 50
0.0
 51
180.0
  0
ARC
  5
7DB
330
1F
100
AcDbEntity
  8
外形線
100
AcDbCircle
 10
34572.89958834098
 20
28847.82099312465
 30
0.0
 40
2.250000000007275
100
AcDbArc
 50
180.0
 51
0.0
  0
XLINE
  5
7E4
330
1F
100
AcDbEntity
  8
オフセット
100
AcDbXline
 10
32915.44093491146
 20
28102.11527306976
 30
0.0
 11
-1.0
 21
0.0
 31
0.0
  0
LINE
  5
86A
330
1F
100
AcDbEntity
  8
外形線
100
AcDbLine
 10
34586.64958834098
 20
28816.57099312464
 30
0.0
 11
34542.64958834098
 21
28816.57099312464
 31
0.0
  0
ARC
  5
86B
330
1F
100
AcDbEntity
  8
外形線
100
AcDbCircle
 10
34586.64958834098
 20
28816.07099312465
 30
0.0
 40
0.5
100
AcDbArc
 50
0.0
 51
90.0
  0
LINE
  5
86C
330
1F
100
AcDbEntity
  8
外形線
100
AcDbLine
 10
34542.14958834097
 20
28816.07099312465
 30
0.0
 11
34542.14958834097
 21
28797.07099312465
 31
0.0
  0
ARC
  5
86D
102
{ACAD_REACTORS
330
C85
102
}
330
1F
100
AcDbEntity
  8
外形線
100
AcDbCircle
 10
34542.64958834098
 20
28816.07099312465
 30
0.0
 40
0.5
100
AcDbArc
 50
90.0
 51
180.0
  0
LINE
  5
86E
330
1F
100
AcDbEntity
  8
外形線
100
AcDbLine
 10
34542.64958834098
 20
28796.57099312465
 30
0.0
 11
34549.14958834098
 21
28796.57099312465
 31
0.0
  0
ARC
  5
86F
330
1F
100
AcDbEntity
  8
外形線
100
AcDbCircle
 10
34542.64958834098
 20
28797.07099312465
 30
0.0
 40
0.5
100
AcDbArc
 50
180.0
 51
270.0
  0
LINE
  5
870
102
{ACAD_REACTORS
330
C85
102
}
330
1F
100
AcDbEntity
  8
外形線
100
AcDbLine
 10
34587.14958834097
 20
28797.07099312465
 30
0.0
 11
34587.14958834097
 21
28816.07099312465
 31
0.0
  0
ARC
  5
871
330
1F
100
AcDbEntity
  8
外形線
100
AcDbCircle
 10
34586.64958834098
 20
28797.07099312465
 30
0.0
 40
0.5
100
AcDbArc
 50
270.0
 51
0.0
  0
LINE
  5
872
330
1F
100
AcDbEntity
  8
中心線
 48
0.05
100
AcDbLine
 10
34571.14958834098
 20
28813.57099312465
 30
0.0
 11
34571.14958834098
 21
28819.57099312465
 31
0.0
  0
XLINE
  5
873
330
1F
100
AcDbEntity
  8
オフセット
100
AcDbXline
 10
32915.44093491146
 20
28273.73237812786
 30
0.0
 11
-1.0
 21
0.0
 31
0.0
  0
LINE
  5
89C
330
1F
100
AcDbEntity
  8
外形線
100
AcDbLine
 10
33678.53638066463
 20
29047.07099312465
 30
0.0
 11
33678.53638066463
 21
29054.57099312465
 31
0.0
  0
ARC
  5
89D
330
1F
100
AcDbEntity
  8
外形線
100
AcDbCircle
 10
33679.03638066463
 20
29047.07099312465
 30
0.0
 40
0.5
100
AcDbArc
 50
180.0
 51
270.0
  0
ARC
  5
89E
330
1F
100
AcDbEntity
  8
外形線
100
AcDbCircle
 10
33679.03638066463
 20
29091.07099312464
 30
0.0
 40
0.5
100
AcDbArc
 50
90.0
 51
180.0
  0
LINE
  5
89F
330
1F
100
AcDbEntity
  8
外形線
100
AcDbLine
 10
33679.03638066463
 20
29091.57099312465
 30
0.0
 11
33700.03638066463
 21
29091.57099312465
 31
0.0
  0
ARC
  5
8A2
330
1F
100
AcDbEntity
  8
外形線
100
AcDbCircle
 10
33700.03638066463
 20
29047.07099312465
 30
0.0
 40
0.5
100
AcDbArc
 50
270.0
 51
0.0
  0
LINE
  5
8A3
330
1F
100
AcDbEntity
  8
外形線
100
AcDbLine
 10
33700.03638066463
 20
29046.57099312465
 30
0.0
 11
33679.03638066463
 21
29046.57099312465
 31
0.0
  0
ARC
  5
8A7
330
1F
100
AcDbEntity
  8
外形線
100
AcDbCircle
 10
33712.03638066463
 20
29091.07099312464
 30
0.0
 40
0.5
100
AcDbArc
 50
0.0
 51
90.0
  0
LINE
  5
8A8
330
1F
100
AcDbEntity
  8
外形線
100
AcDbLine
 10
33712.03638066463
 20
29091.57099312465
 30
0.0
 11
33700.03638066463
 21
29091.57099312465
 31
0.0
  0
LINE
  5
8C4
330
1F
100
AcDbEntity
  8
外形線
100
AcDbLine
 10
33678.53638066463
 20
29078.57099312465
 30
0.0
 11
33678.53638066463
 21
29091.07099312464
 31
0.0
  0
LINE
  5
8C5
330
1F
100
AcDbEntity
  8
外形線
100
AcDbLine
 10
33700.53638066463
 20
29054.57099312465
 30
0.0
 11
33700.53638066463
 21
29047.07099312465
 31
0.0
  0
LINE
  5
8C6
330
1F
100
AcDbEntity
  8
外形線
100
AcDbLine
 10
33712.53638066463
 20
29078.57099312465
 30
0.0
 11
33712.53638066463
 21
29091.07099312464
 31
0.0
  0
LINE
  5
906
330
1F
100
AcDbEntity
  8
外形線
100
AcDbLine
 10
33859.33638066461
 20
29082.57099312465
 30
0.0
 11
33859.33638066461
 21
29078.57099312465
 31
0.0
  0
ARC
  5
907
330
1F
100
AcDbEntity
  8
外形線
100
AcDbCircle
 10
33860.33638066461
 20
29082.57099312465
 30
0.0
 40
1.0
100
AcDbArc
 50
90.0
 51
180.0
  0
LINE
  5
908
330
1F
100
AcDbEntity
  8
外形線
100
AcDbLine
 10
33860.33638066461
 20
29049.57099312465
 30
0.0
 11
33985.33638066461
 21
29049.57099312465
 31
0.0
  0
ARC
  5
909
330
1F
100
AcDbEntity
  8
外形線
100
AcDbCircle
 10
33860.33638066461
 20
29050.57099312465
 30
0.0
 40
1.0
100
AcDbArc
 50
180.0
 51
270.0
  0
LINE
  5
90A
330
1F
100
AcDbEntity
  8
外形線
100
AcDbLine
 10
33986.33638066461
 20
29050.57099312465
 30
0.0
 11
33986.33638066461
 21
29054.57099312465
 31
0.0
  0
ARC
  5
90B
330
1F
100
AcDbEntity
  8
外形線
100
AcDbCircle
 10
33985.33638066461
 20
29050.57099312465
 30
0.0
 40
1.0
100
AcDbArc
 50
270.0
 51
0.0
  0
LINE
  5
90C
330
1F
100
AcDbEntity
  8
外形線
100
AcDbLine
 10
33985.33638066461
 20
29083.57099312464
 30
0.0
 11
33860.33638066461
 21
29083.57099312464
 31
0.0
  0
ARC
  5
90D
330
1F
100
AcDbEntity
  8
外形線
100
AcDbCircle
 10
33985.33638066461
 20
29082.57099312465
 30
0.0
 40
1.0
100
AcDbArc
 50
0.0
 51
90.0
  0
LINE
  5
93A
330
1F
100
AcDbEntity
  8
外形線
100
AcDbLine
 10
33859.33638066461
 20
29054.57099312465
 30
0.0
 11
33859.33638066461
 21
29050.57099312465
 31
0.0
  0
LINE
  5
93B
330
1F
100
AcDbEntity
  8
外形線
100
AcDbLine
 10
33986.33638066461
 20
29078.57099312465
 30
0.0
 11
33986.33638066461
 21
29082.57099312465
 31
0.0
  0
LINE
  5
981
330
1F
100
AcDbEntity
  8
外形線
100
AcDbLine
 10
34583.14958834098
 20
28816.57099312464
 30
0.0
 11
34583.14958834098
 21
28792.57099312465
 31
0.0
  0
LINE
  5
982
102
{ACAD_REACTORS
330
CE9
102
}
330
1F
100
AcDbEntity
  8
外形線
100
AcDbLine
 10
34582.14958834098
 20
28791.57099312465
 30
0.0
 11
34550.14958834098
 21
28791.57099312465
 31
0.0
  0
ARC
  5
983
330
1F
100
AcDbEntity
  8
外形線
100
AcDbCircle
 10
34550.14958834098
 20
28792.57099312465
 30
0.0
 40
1.0
100
AcDbArc
 50
180.0
 51
270.0
  0
ARC
  5
984
330
1F
100
AcDbEntity
  8
外形線
100
AcDbCircle
 10
34582.14958834098
 20
28792.57099312465
 30
0.0
 40
1.0
100
AcDbArc
 50
270.0
 51
0.0
  0
LINE
  5
985
330
1F
100
AcDbEntity
  8
外形線
100
AcDbLine
 10
34549.14958834098
 20
28792.57099312465
 30
0.0
 11
34549.14958834098
 21
28816.57099312464
 31
0.0
  0
LINE
  5
986
330
1F
100
AcDbEntity
  8
外形線
100
AcDbLine
 10
34549.14958834098
 20
28816.57099312464
 30
0.0
 11
34583.14958834098
 21
28816.57099312464
 31
0.0
  0
ARC
  5
98D
330
1F
100
AcDbEntity
  8
外形線
100
AcDbCircle
 10
34565.00613799231
 20
28812.51156818276
 30
0.0
 40
6.479445445243836
100
AcDbArc
 50
322.5430267977119
 51
0.5254841836972259
  0
LINE
  5
98E
330
1F
100
AcDbEntity
  8
外形線
100
AcDbLine
 10
34570.14958834098
 20
28808.57099312465
 30
0.0
 11
34572.14958834098
 21
28808.57099312465
 31
0.0
  0
LINE
  5
98F
330
1F
100
AcDbEntity
  8
外形線
100
AcDbLine
 10
34572.14958834098
 20
28808.57099312465
 30
0.0
 11
34572.14958834098
 21
28812.57099312464
 31
0.0
  0
LINE
  5
990
330
1F
100
AcDbEntity
  8
外形線
100
AcDbLine
 10
34570.14958834098
 20
28812.57099312464
 30
0.0
 11
34570.14958834098
 21
28808.57099312465
 31
0.0
  0
ARC
  5
991
330
1F
100
AcDbEntity
  8
外形線
100
AcDbCircle
 10
34567.29303868966
 20
28812.51156818276
 30
0.0
 40
6.479445445243836
100
AcDbArc
 50
179.4745158163027
 51
217.4569732022545
  0
LINE
  5
992
330
1F
100
AcDbEntity
  8
外形線
100
AcDbLine
 10
34562.14958834098
 20
28808.57099312465
 30
0.0
 11
34560.14958834098
 21
28808.57099312465
 31
0.0
  0
LINE
  5
993
330
1F
100
AcDbEntity
  8
外形線
100
AcDbLine
 10
34560.14958834098
 20
28808.57099312465
 30
0.0
 11
34560.14958834098
 21
28812.57099312464
 31
0.0
  0
LINE
  5
994
330
1F
100
AcDbEntity
  8
外形線
100
AcDbLine
 10
34562.14958834098
 20
28812.57099312464
 30
0.0
 11
34562.14958834098
 21
28808.57099312465
 31
0.0
  0
LINE
  5
99A
330
1F
100
AcDbEntity
  8
外形線
100
AcDbLine
 10
34583.14958834098
 20
28796.57099312465
 30
0.0
 11
34586.64958834098
 21
28796.57099312465
 31
0.0
  0
XLINE
  5
9A0
330
1F
100
AcDbEntity
  8
オフセット
100
AcDbXline
 10
32915.44093491146
 20
28288.23237812785
 30
0.0
 11
-1.0
 21
0.0
 31
0.0
  0
XLINE
  5
9A1
330
1F
100
AcDbEntity
  8
オフセット
100
AcDbXline
 10
32915.44093491146
 20
28259.23237812785
 30
0.0
 11
-1.0
 21
0.0
 31
0.0
  0
XLINE
  5
9A2
330
1F
100
AcDbEntity
  8
オフセット
100
AcDbXline
 10
32915.44093491146
 20
28288.73237812786
 30
0.0
 11
-1.0
 21
0.0
 31
0.0
  0
XLINE
  5
9A3
330
1F
100
AcDbEntity
  8
オフセット
100
AcDbXline
 10
32915.44093491146
 20
28258.73237812785
 30
0.0
 11
-1.0
 21
0.0
 31
0.0
  0
XLINE
  5
9A6
330
1F
100
AcDbEntity
  8
オフセット
100
AcDbXline
 10
32915.44093491146
 20
28289.23237812785
 30
0.0
 11
-1.0
 21
0.0
 31
0.0
  0
XLINE
  5
9A7
330
1F
100
AcDbEntity
  8
オフセット
100
AcDbXline
 10
32915.44093491146
 20
28258.23237812786
 30
0.0
 11
-1.0
 21
0.0
 31
0.0
  0
XLINE
  5
9C5
330
1F
100
AcDbEntity
  8
オフセット
100
AcDbXline
 10
32930.94093491146
 20
27902.11527306976
 30
0.0
 11
0.0
 21
-1.0
 31
0.0
  0
LINE
  5
B1F
330
1F
100
AcDbEntity
  8
枠線
100
AcDbLine
 10
34528.24093491148
 20
28322.23237812787
 30
0.0
 11
34528.24093491148
 21
28712.23237812787
 31
0.0
  0
LINE
  5
B20
330
1F
100
AcDbEntity
  8
枠線
100
AcDbLine
 10
34528.24093491148
 20
28712.23237812787
 30
0.0
 11
34948.24093491148
 21
28712.23237812787
 31
0.0
  0
LINE
  5
B21
330
1F
100
AcDbEntity
  8
枠線
100
AcDbLine
 10
34528.24093491148
 20
28364.23237812787
 30
0.0
 11
34948.24093491148
 21
28364.23237812787
 31
0.0
  0
LINE
  5
B22
330
1F
100
AcDbEntity
  8
枠線
100
AcDbLine
 10
34528.24093491148
 20
28406.23237812787
 30
0.0
 11
34948.24093491148
 21
28406.23237812787
 31
0.0
  0
LINE
  5
B23
330
1F
100
AcDbEntity
  8
枠線
100
AcDbLine
 10
34528.24093491148
 20
28448.23237812787
 30
0.0
 11
34948.24093491148
 21
28448.23237812787
 31
0.0
  0
LINE
  5
B24
330
1F
100
AcDbEntity
  8
枠線
100
AcDbLine
 10
34528.24093491148
 20
28490.23237812787
 30
0.0
 11
34948.24093491148
 21
28490.23237812787
 31
0.0
  0
LINE
  5
B25
330
1F
100
AcDbEntity
  8
枠線
100
AcDbLine
 10
34528.24093491148
 20
28532.23237812787
 30
0.0
 11
34948.24093491148
 21
28532.23237812787
 31
0.0
  0
LINE
  5
B26
330
1F
100
AcDbEntity
  8
枠線
100
AcDbLine
 10
34528.24093491148
 20
28574.23237812787
 30
0.0
 11
34948.24093491148
 21
28574.23237812787
 31
0.0
  0
LINE
  5
B27
330
1F
100
AcDbEntity
  8
枠線
100
AcDbLine
 10
34528.24093491148
 20
28616.23237812787
 30
0.0
 11
34948.24093491148
 21
28616.23237812787
 31
0.0
  0
LINE
  5
B28
330
1F
100
AcDbEntity
  8
枠線
100
AcDbLine
 10
34528.24093491148
 20
28658.23237812787
 30
0.0
 11
34948.24093491148
 21
28658.23237812787
 31
0.0
  0
LINE
  5
B29
330
1F
100
AcDbEntity
  8
枠線
100
AcDbLine
 10
34630.24093491148
 20
28712.23237812787
 30
0.0
 11
34630.24093491148
 21
28322.23237812787
 31
0.0
  0
LINE
  5
B2A
330
1F
100
AcDbEntity
  8
枠線
100
AcDbLine
 10
34636.24093491147
 20
28712.23237812787
 30
0.0
 11
34636.24093491147
 21
28322.23237812787
 31
0.0
  0
LINE
  5
B2B
330
1F
100
AcDbEntity
  8
枠線
100
AcDbLine
 10
34696.24093491148
 20
28448.23237812787
 30
0.0
 11
34696.24093491148
 21
28406.23237812787
 31
0.0
  0
LINE
  5
B2C
330
1F
100
AcDbEntity
  8
枠線
100
AcDbLine
 10
34702.24093491148
 20
28448.23237812787
 30
0.0
 11
34702.24093491148
 21
28406.23237812787
 31
0.0
  0
LINE
  5
B2D
330
1F
100
AcDbEntity
  8
枠線
100
AcDbLine
 10
34822.24093491148
 20
28448.23237812787
 30
0.0
 11
34822.24093491148
 21
28406.23237812787
 31
0.0
  0
LINE
  5
B2E
330
1F
100
AcDbEntity
  8
枠線
100
AcDbLine
 10
34828.24093491148
 20
28448.23237812787
 30
0.0
 11
34828.24093491148
 21
28406.23237812787
 31
0.0
  0
LINE
  5
B2F
330
1F
100
AcDbEntity
  8
枠線
100
AcDbLine
 10
34888.24093491148
 20
28448.23237812787
 30
0.0
 11
34888.24093491148
 21
28406.23237812787
 31
0.0
  0
LINE
  5
B30
330
1F
100
AcDbEntity
  8
枠線
100
AcDbLine
 10
34762.24093491147
 20
28448.23237812787
 30
0.0
 11
34762.24093491147
 21
28406.23237812787
 31
0.0
  0
LINE
  5
B31
330
1F
100
AcDbEntity
  8
枠線
100
AcDbLine
 10
34468.24093491148
 20
29444.23237812787
 30
0.0
 11
34468.24093491148
 21
29204.23237812787
 31
0.0
  0
LINE
  5
B32
330
1F
100
AcDbEntity
  8
枠線
100
AcDbLine
 10
34528.24093491148
 20
29444.23237812787
 30
0.0
 11
34528.24093491148
 21
29204.23237812787
 31
0.0
  0
LINE
  5
B33
330
1F
100
AcDbEntity
  8
枠線
100
AcDbLine
 10
34534.24093491148
 20
29204.23237812787
 30
0.0
 11
34534.24093491148
 21
29444.23237812787
 31
0.0
  0
LINE
  5
B34
330
1F
100
AcDbEntity
  8
枠線
100
AcDbLine
 10
34468.24093491148
 20
29384.23237812787
 30
0.0
 11
34948.24093491148
 21
29384.23237812787
 31
0.0
  0
LINE
  5
B35
330
1F
100
AcDbEntity
  8
枠線
100
AcDbLine
 10
34468.24093491148
 20
29348.23237812787
 30
0.0
 11
34948.24093491148
 21
29348.23237812787
 31
0.0
  0
LINE
  5
B36
330
1F
100
AcDbEntity
  8
枠線
100
AcDbLine
 10
34468.24093491148
 20
29312.23237812787
 30
0.0
 11
34948.24093491148
 21
29312.23237812787
 31
0.0
  0
LINE
  5
B37
330
1F
100
AcDbEntity
  8
枠線
100
AcDbLine
 10
34468.24093491148
 20
29276.23237812787
 30
0.0
 11
34948.24093491148
 21
29276.23237812787
 31
0.0
  0
LINE
  5
B38
330
1F
100
AcDbEntity
  8
枠線
100
AcDbLine
 10
34468.24093491148
 20
29240.23237812787
 30
0.0
 11
34948.24093491148
 21
29240.23237812787
 31
0.0
  0
LINE
  5
B39
330
1F
100
AcDbEntity
  8
枠線
100
AcDbLine
 10
34468.24093491148
 20
29204.23237812787
 30
0.0
 11
34948.24093491148
 21
29204.23237812787
 31
0.0
  0
LINE
  5
B3A
330
1F
100
AcDbEntity
  8
枠線
100
AcDbLine
 10
34714.24093491147
 20
29444.23237812787
 30
0.0
 11
34714.24093491147
 21
29204.23237812787
 31
0.0
  0
LINE
  5
B3B
330
1F
100
AcDbEntity
  8
枠線
100
AcDbLine
 10
34831.24093491148
 20
29444.23237812787
 30
0.0
 11
34831.24093491148
 21
29204.23237812787
 31
0.0
  0
LINE
  5
B3C
330
1F
100
AcDbEntity
  8
外形線
100
AcDbLine
 10
33346.24093491147
 20
29462.23237812787
 30
0.0
 11
33346.24093491147
 21
28304.23237812787
 31
0.0
  0
LINE
  5
B3D
330
1F
100
AcDbEntity
  8
外形線
100
AcDbLine
 10
34966.24093491148
 20
29462.23237812787
 30
0.0
 11
33346.24093491147
 21
29462.23237812787
 31
0.0
  0
LINE
  5
B3E
330
1F
100
AcDbEntity
  8
枠線
100
AcDbLine
 10
33364.24093491148
 20
29444.23237812787
 30
0.0
 11
33364.24093491148
 21
28322.23237812787
 31
0.0
  0
LINE
  5
B3F
330
1F
100
AcDbEntity
  8
枠線
100
AcDbLine
 10
33364.24093491148
 20
28322.23237812787
 30
0.0
 11
34948.24093491148
 21
28322.23237812787
 31
0.0
  0
LINE
  5
B40
330
1F
100
AcDbEntity
  8
枠線
100
AcDbLine
 10
34948.24093491148
 20
28322.23237812787
 30
0.0
 11
34948.24093491148
 21
29444.23237812787
 31
0.0
  0
LINE
  5
B41
330
1F
100
AcDbEntity
  8
枠線
100
AcDbLine
 10
34948.24093491148
 20
29444.23237812787
 30
0.0
 11
33364.24093491148
 21
29444.23237812787
 31
0.0
  0
LINE
  5
B42
330
1F
100
AcDbEntity
  8
枠線
100
AcDbLine
 10
34462.24093491148
 20
29444.23237812787
 30
0.0
 11
34462.24093491148
 21
29204.23237812787
 31
0.0
  0
LINE
  5
B43
330
1F
100
AcDbEntity
  8
枠線
100
AcDbLine
 10
34468.24093491148
 20
29204.23237812787
 30
0.0
 11
34468.24093491148
 21
29444.23237812787
 31
0.0
  0
LINE
  5
B44
330
1F
100
AcDbEntity
  8
枠線
100
AcDbLine
 10
33982.24093491148
 20
29444.23237812787
 30
0.0
 11
33982.24093491148
 21
29204.23237812787
 31
0.0
  0
LINE
  5
B45
330
1F
100
AcDbEntity
  8
枠線
100
AcDbLine
 10
34042.24093491148
 20
29444.23237812787
 30
0.0
 11
34042.24093491148
 21
29204.23237812787
 31
0.0
  0
LINE
  5
B46
330
1F
100
AcDbEntity
  8
枠線
100
AcDbLine
 10
34048.24093491148
 20
29204.23237812787
 30
0.0
 11
34048.24093491148
 21
29444.23237812787
 31
0.0
  0
LINE
  5
B47
330
1F
100
AcDbEntity
  8
枠線
100
AcDbLine
 10
33982.24093491148
 20
29384.23237812787
 30
0.0
 11
34462.24093491148
 21
29384.23237812787
 31
0.0
  0
LINE
  5
B48
330
1F
100
AcDbEntity
  8
枠線
100
AcDbLine
 10
33982.24093491148
 20
29348.23237812787
 30
0.0
 11
34462.24093491148
 21
29348.23237812787
 31
0.0
  0
LINE
  5
B49
330
1F
100
AcDbEntity
  8
枠線
100
AcDbLine
 10
33982.24093491148
 20
29312.23237812787
 30
0.0
 11
34462.24093491148
 21
29312.23237812787
 31
0.0
  0
LINE
  5
B4A
330
1F
100
AcDbEntity
  8
枠線
100
AcDbLine
 10
33982.24093491148
 20
29276.23237812787
 30
0.0
 11
34462.24093491148
 21
29276.23237812787
 31
0.0
  0
LINE
  5
B4B
330
1F
100
AcDbEntity
  8
枠線
100
AcDbLine
 10
33982.24093491148
 20
29240.23237812787
 30
0.0
 11
34462.24093491148
 21
29240.23237812787
 31
0.0
  0
LINE
  5
B4C
330
1F
100
AcDbEntity
  8
枠線
100
AcDbLine
 10
33982.24093491148
 20
29204.23237812787
 30
0.0
 11
34462.24093491148
 21
29204.23237812787
 31
0.0
  0
LINE
  5
B4D
330
1F
100
AcDbEntity
  8
枠線
100
AcDbLine
 10
34228.24093491148
 20
29444.23237812787
 30
0.0
 11
34228.24093491148
 21
29204.23237812787
 31
0.0
  0
LINE
  5
B4E
330
1F
100
AcDbEntity
  8
枠線
100
AcDbLine
 10
34345.24093491148
 20
29444.23237812787
 30
0.0
 11
34345.24093491148
 21
29204.23237812787
 31
0.0
  0
LINE
  5
B4F
330
1F
100
AcDbEntity
  8
枠線
100
AcDbLine
 10
33982.24093491148
 20
29204.23237812787
 30
0.0
 11
33982.24093491148
 21
29444.23237812787
 31
0.0
  0
LINE
  5
B50
330
1F
100
AcDbEntity
  8
外形線
100
AcDbLine
 10
34966.24093491148
 20
29462.23237812787
 30
0.0
 11
34966.24093491148
 21
28304.23237812787
 31
0.0
  0
LINE
  5
B51
330
1F
100
AcDbEntity
  8
外形線
100
AcDbLine
 10
34966.24093491148
 20
28304.23237812787
 30
0.0
 11
33346.24093491147
 21
28304.23237812787
 31
0.0
  0
MTEXT
  5
B52
330
1F
100
AcDbEntity
  8
寸法線
100
AcDbMText
 10
34137.11638898822
 20
29414.1938412054
 30
0.0
 40
30.00000000000001
 41
174.8674808517826
 46
0.0
 71
     5
 72
     5
  1
{\fMS PGothic|b0|i0|c128|p50;部品名}
 73
     1
 44
1.0
1001
ACAD
1000
ACAD_MTEXT_COLUMN_INFO_BEGIN
1070
    75
1070
     2
1070
    79
1070
     0
1070
    76
1070
     1
1070
    78
1070
     0
1070
    48
1040
174.8674808517826
1070
    49
1040
12.5
1070
    50
1070
     1
1040
0.0
1000
ACAD_MTEXT_COLUMN_INFO_END
  0
MTEXT
  5
B53
330
1F
100
AcDbEntity
  8
寸法線
100
AcDbMText
 10
34285.61638898813
 20
29414.27906847816
 30
0.0
 40
30.00000000000001
 41
109.1764692682045
 46
0.0
 71
     5
 72
     5
  1
{\fMS PGothic|b0|i0|c128|p50;材質}
 73
     1
 44
1.0
1001
ACAD
1000
ACAD_MTEXT_COLUMN_INFO_BEGIN
1070
    75
1070
     2
1070
    79
1070
     0
1070
    76
1070
     1
1070
    78
1070
     0
1070
    48
1040
109.1764692682045
1070
    49
1040
12.5
1070
    50
1070
     1
1040
0.0
1000
ACAD_MTEXT_COLUMN_INFO_END
  0
MTEXT
  5
B54
330
1F
100
AcDbEntity
  8
寸法線
100
AcDbMText
 10
34402.61638898822
 20
29414.10861393269
 30
0.0
 40
30.00000000000001
 41
115.2368875816973
 46
0.0
 71
     5
 72
     5
  1
{\fMS PGothic|b0|i0|c128|p50;摘要}
 73
     1
 44
1.0
1001
ACAD
1000
ACAD_MTEXT_COLUMN_INFO_BEGIN
1070
    75
1070
     2
1070
    79
1070
     0
1070
    76
1070
     1
1070
    78
1070
     0
1070
    48
1040
115.2368875816973
1070
    49
1040
12.5
1070
    50
1070
     1
1040
0.0
1000
ACAD_MTEXT_COLUMN_INFO_END
  0
MTEXT
  5
B55
330
1F
100
AcDbEntity
  8
寸法線
100
AcDbMText
 10
34013.36548083485
 20
29413.02691770291
 30
0.0
 40
18.0
 41
10.0
 46
0.0
 71
     5
 72
     5
  1
{\fMS PGothic|b0|i0|c128|p50;部番}
 73
     1
 44
1.0
1001
ACAD
1000
ACAD_MTEXT_COLUMN_INFO_BEGIN
1070
    75
1070
     2
1070
    79
1070
     0
1070
    76
1070
     1
1070
    78
1070
     0
1070
    48
1040
10.0
1070
    49
1040
12.5
1070
    50
1070
     1
1040
0.0
1000
ACAD_MTEXT_COLUMN_INFO_END
  0
MTEXT
  5
B56
330
1F
100
AcDbEntity
  8
寸法線
100
AcDbMText
 10
34012.24093491148
 20
29366.24465360855
 30
0.0
 40
21.00000000000001
 41
10.0
 46
0.0
 71
     5
 72
     5
  1
{\fMS PGothic|b0|i0|c128|p50;①}
 73
     1
 44
1.0
1001
ACAD
1000
ACAD_MTEXT_COLUMN_INFO_BEGIN
1070
    75
1070
     2
1070
    79
1070
     0
1070
    76
1070
     1
1070
    78
1070
     0
1070
    48
1040
10.0
1070
    49
1040
12.5
1070
    50
1070
     1
1040
0.0
1000
ACAD_MTEXT_COLUMN_INFO_END
  0
MTEXT
  5
B57
330
1F
100
AcDbEntity
  8
寸法線
100
AcDbMText
 10
34012.24093491148
 20
29330.24465360855
 30
0.0
 40
21.00000000000001
 41
10.0
 46
0.0
 71
     5
 72
     5
  1
{\fMS PGothic|b0|i0|c128|p50;②}
 73
     1
 44
1.0
1001
ACAD
1000
ACAD_MTEXT_COLUMN_INFO_BEGIN
1070
    75
1070
     2
1070
    79
1070
     0
1070
    76
1070
     1
1070
    78
1070
     0
1070
    48
1040
10.0
1070
    49
1040
12.5
1070
    50
1070
     1
1040
0.0
1000
ACAD_MTEXT_COLUMN_INFO_END
  0
MTEXT
  5
B58
330
1F
100
AcDbEntity
  8
寸法線
100
AcDbMText
 10
34012.24093491148
 20
29294.24465360858
 30
0.0
 40
21.00000000000001
 41
10.0
 46
0.0
 71
     5
 72
     5
  1
{\fMS PGothic|b0|i0|c128|p50;③}
 73
     1
 44
1.0
1001
ACAD
1000
ACAD_MTEXT_COLUMN_INFO_BEGIN
1070
    75
1070
     2
1070
    79
1070
     0
1070
    76
1070
     1
1070
    78
1070
     0
1070
    48
1040
10.0
1070
    49
1040
12.5
1070
    50
1070
     1
1040
0.0
1000
ACAD_MTEXT_COLUMN_INFO_END
  0
MTEXT
  5
B59
330
1F
100
AcDbEntity
  8
寸法線
100
AcDbMText
 10
34012.24093491148
 20
29258.24465360855
 30
0.0
 40
21.00000000000001
 41
10.0
 46
0.0
 71
     5
 72
     5
  1
{\fMS PGothic|b0|i0|c128|p50;④}
 73
     1
 44
1.0
1001
ACAD
1000
ACAD_MTEXT_COLUMN_INFO_BEGIN
1070
    75
1070
     2
1070
    79
1070
     0
1070
    76
1070
     1
1070
    78
1070
     0
1070
    48
1040
10.0
1070
    49
1040
12.5
1070
    50
1070
     1
1040
0.0
1000
ACAD_MTEXT_COLUMN_INFO_END
  0
MTEXT
  5
B5A
330
1F
100
AcDbEntity
  8
寸法線
100
AcDbMText
 10
34012.24093491148
 20
29222.24465360855
 30
0.0
 40
21.00000000000001
 41
10.0
 46
0.0
 71
     5
 72
     5
  1
{\fMS PGothic|b0|i0|c128|p50;⑤}
 73
     1
 44
1.0
1001
ACAD
1000
ACAD_MTEXT_COLUMN_INFO_BEGIN
1070
    75
1070
     2
1070
    79
1070
     0
1070
    76
1070
     1
1070
    78
1070
     0
1070
    48
1040
10.0
1070
    49
1040
12.5
1070
    50
1070
     1
1040
0.0
1000
ACAD_MTEXT_COLUMN_INFO_END
  0
MTEXT
  5
B5B
330
1F
100
AcDbEntity
  8
寸法線
100
AcDbMText
 10
34623.11638898813
 20
29414.1938412054
 30
0.0
 40
30.00000000000001
 41
208.789682174116
 46
0.0
 71
     5
 72
     5
  1
{\fMS PGothic|b0|i0|c128|p50;部品名}
 73
     1
 44
1.0
1001
ACAD
1000
ACAD_MTEXT_COLUMN_INFO_BEGIN
1070
    75
1070
     2
1070
    79
1070
     0
1070
    76
1070
     1
1070
    78
1070
     0
1070
    48
1040
208.789682174116
1070
    49
1040
12.5
1070
    50
1070
     1
1040
0.0
1000
ACAD_MTEXT_COLUMN_INFO_END
  0
MTEXT
  5
B5C
330
1F
100
AcDbEntity
  8
寸法線
100
AcDbMText
 10
34771.61638898813
 20
29414.27906847816
 30
0.0
 40
30.00000000000001
 41
121.2416595124814
 46
0.0
 71
     5
 72
     5
  1
{\fMS PGothic|b0|i0|c128|p50;材質}
 73
     1
 44
1.0
1001
ACAD
1000
ACAD_MTEXT_COLUMN_INFO_BEGIN
1070
    75
1070
     2
1070
    79
1070
     0
1070
    76
1070
     1
1070
    78
1070
     0
1070
    48
1040
121.2416595124814
1070
    49
1040
12.5
1070
    50
1070
     1
1040
0.0
1000
ACAD_MTEXT_COLUMN_INFO_END
  0
MTEXT
  5
B5D
330
1F
100
AcDbEntity
  8
寸法線
100
AcDbMText
 10
34888.61638898813
 20
29414.10861393269
 30
0.0
 40
30.00000000000001
 41
124.8927565777121
 46
0.0
 71
     5
 72
     5
  1
{\fMS PGothic|b0|i0|c128|p50;摘要}
 73
     1
 44
1.0
1001
ACAD
1000
ACAD_MTEXT_COLUMN_INFO_BEGIN
1070
    75
1070
     2
1070
    79
1070
     0
1070
    76
1070
     1
1070
    78
1070
     0
1070
    48
1040
124.8927565777121
1070
    49
1040
12.5
1070
    50
1070
     1
1040
0.0
1000
ACAD_MTEXT_COLUMN_INFO_END
  0
MTEXT
  5
B5E
330
1F
100
AcDbEntity
  8
寸法線
100
AcDbMText
 10
34499.36548083491
 20
29413.02691770291
 30
0.0
 40
18.0
 41
10.0
 46
0.0
 71
     5
 72
     5
  1
{\fMS PGothic|b0|i0|c128|p50;部番}
 73
     1
 44
1.0
1001
ACAD
1000
ACAD_MTEXT_COLUMN_INFO_BEGIN
1070
    75
1070
     2
1070
    79
1070
     0
1070
    76
1070
     1
1070
    78
1070
     0
1070
    48
1040
10.0
1070
    49
1040
12.5
1070
    50
1070
     1
1040
0.0
1000
ACAD_MTEXT_COLUMN_INFO_END
  0
MTEXT
  5
B5F
330
1F
100
AcDbEntity
  8
寸法線
100
AcDbMText
 10
34498.24093491153
 20
29366.24465360855
 30
0.0
 40
21.00000000000001
 41
10.0
 46
0.0
 71
     5
 72
     5
  1
{\fMS PGothic|b0|i0|c128|p50;⑥}
 73
     1
 44
1.0
1001
ACAD
1000
ACAD_MTEXT_COLUMN_INFO_BEGIN
1070
    75
1070
     2
1070
    79
1070
     0
1070
    76
1070
     1
1070
    78
1070
     0
1070
    48
1040
10.0
1070
    49
1040
12.5
1070
    50
1070
     1
1040
0.0
1000
ACAD_MTEXT_COLUMN_INFO_END
  0
MTEXT
  5
B60
330
1F
100
AcDbEntity
  8
寸法線
100
AcDbMText
 10
34498.24093491153
 20
29330.24465360855
 30
0.0
 40
21.00000000000001
 41
10.0
 46
0.0
 71
     5
 72
     5
  1
{\fMS PGothic|b0|i0|c128|p50;⑦}
 73
     1
 44
1.0
1001
ACAD
1000
ACAD_MTEXT_COLUMN_INFO_BEGIN
1070
    75
1070
     2
1070
    79
1070
     0
1070
    76
1070
     1
1070
    78
1070
     0
1070
    48
1040
10.0
1070
    49
1040
12.5
1070
    50
1070
     1
1040
0.0
1000
ACAD_MTEXT_COLUMN_INFO_END
  0
MTEXT
  5
B61
330
1F
100
AcDbEntity
  8
寸法線
100
AcDbMText
 10
34498.24093491153
 20
29294.24465360858
 30
0.0
 40
21.00000000000001
 41
10.0
 46
0.0
 71
     5
 72
     5
  1
{\fMS PGothic|b0|i0|c128|p50;⑧}
 73
     1
 44
1.0
1001
ACAD
1000
ACAD_MTEXT_COLUMN_INFO_BEGIN
1070
    75
1070
     2
1070
    79
1070
     0
1070
    76
1070
     1
1070
    78
1070
     0
1070
    48
1040
10.0
1070
    49
1040
12.5
1070
    50
1070
     1
1040
0.0
1000
ACAD_MTEXT_COLUMN_INFO_END
  0
MTEXT
  5
B62
330
1F
100
AcDbEntity
  8
寸法線
100
AcDbMText
 10
34498.24093491153
 20
29258.24465360855
 30
0.0
 40
21.00000000000001
 41
10.0
 46
0.0
 71
     5
 72
     5
  1
{\fMS PGothic|b0|i0|c128|p50;⑨}
 73
     1
 44
1.0
1001
ACAD
1000
ACAD_MTEXT_COLUMN_INFO_BEGIN
1070
    75
1070
     2
1070
    79
1070
     0
1070
    76
1070
     1
1070
    78
1070
     0
1070
    48
1040
10.0
1070
    49
1040
12.5
1070
    50
1070
     1
1040
0.0
1000
ACAD_MTEXT_COLUMN_INFO_END
  0
MTEXT
  5
B63
330
1F
100
AcDbEntity
  8
寸法線
100
AcDbMText
 10
34498.24093491153
 20
29222.24465360855
 30
0.0
 40
21.00000000000001
 41
10.0
 46
0.0
 71
     5
 72
     5
  1
{\fMS PGothic|b0|i0|c128|p50;⑩}
 73
     1
 44
1.0
1001
ACAD
1000
ACAD_MTEXT_COLUMN_INFO_BEGIN
1070
    75
1070
     2
1070
    79
1070
     0
1070
    76
1070
     1
1070
    78
1070
     0
1070
    48
1040
10.0
1070
    49
1040
12.5
1070
    50
1070
     1
1040
0.0
1000
ACAD_MTEXT_COLUMN_INFO_END
  0
TEXT
  5
B64
330
1F
100
AcDbEntity
  8
寸法線
100
AcDbText
 10
34642.29498834434
 20
28689.92047589611
 30
0.0
 40
12.9
  1
広告灯内用放電灯器具（LEDランプ用）
100
AcDbText
  0
TEXT
  5
B65
330
1F
100
AcDbEntity
  8
寸法線
100
AcDbText
 10
34642.84125018251
 20
28670.80502638053
 30
0.0
 40
9.0
  1
AC100/200V　　50/60Hz
100
AcDbText
  0
MTEXT
  5
B66
330
1F
100
AcDbEntity
  8
寸法線
100
AcDbMText
 10
34579.24093491147
 20
28635.39930591076
 30
0.0
 40
21.00000000000001
 41
134.5371276319638
 46
0.0
 71
     5
 72
     5
  1
{\fMS PGothic|b0|i0|c128|p50;品名}
 73
     1
 44
1.0
1001
ACAD
1000
ACAD_MTEXT_COLUMN_INFO_BEGIN
1070
    75
1070
     2
1070
    79
1070
     0
1070
    76
1070
     1
1070
    78
1070
     0
1070
    48
1040
134.5371276319638
1070
    49
1040
12.5
1070
    50
1070
     1
1040
0.0
1000
ACAD_MTEXT_COLUMN_INFO_END
  0
MTEXT
  5
B67
330
1F
100
AcDbEntity
  8
寸法線
100
AcDbMText
 10
34579.24093491147
 20
28593.33964681988
 30
0.0
 40
21.00000000000001
 41
107.3977478795059
 46
0.0
 71
     5
 72
     5
  1
{\fMS PGothic|b0|i0|c128|p50;型番}
 73
     1
 44
1.0
1001
ACAD
1000
ACAD_MTEXT_COLUMN_INFO_BEGIN
1070
    75
1070
     2
1070
    79
1070
     0
1070
    76
1070
     1
1070
    78
1070
     0
1070
    48
1040
107.3977478795059
1070
    49
1040
12.5
1070
    50
1070
     1
1040
0.0
1000
ACAD_MTEXT_COLUMN_INFO_END
  0
MTEXT
  5
B68
330
1F
100
AcDbEntity
  8
寸法線
100
AcDbMText
 10
34579.24093491147
 20
28551.33964681988
 30
0.0
 40
21.00000000000001
 41
111.0985654956457
 46
0.0
 71
     5
 72
     5
  1
{\fMS PGothic|b0|i0|c128|p50;図番}
 73
     1
 44
1.0
1001
ACAD
1000
ACAD_MTEXT_COLUMN_INFO_BEGIN
1070
    75
1070
     2
1070
    79
1070
     0
1070
    76
1070
     1
1070
    78
1070
     0
1070
    48
1040
111.0985654956457
1070
    49
1040
12.5
1070
    50
1070
     1
1040
0.0
1000
ACAD_MTEXT_COLUMN_INFO_END
  0
MTEXT
  5
B69
330
1F
100
AcDbEntity
  8
寸法線
100
AcDbMText
 10
34579.24093491147
 20
28509.10101045623
 30
0.0
 40
21.00000000000001
 41
79.75
 46
0.0
 71
     5
 72
     5
  1
{\fMS PGothic|b0|i0|c128|p50;尺度}
 73
     1
 44
1.0
1001
ACAD
1000
ACAD_MTEXT_COLUMN_INFO_BEGIN
1070
    75
1070
     2
1070
    79
1070
     0
1070
    76
1070
     1
1070
    78
1070
     0
1070
    48
1040
79.75
1070
    49
1040
12.5
1070
    50
1070
     1
1040
0.0
1000
ACAD_MTEXT_COLUMN_INFO_END
  0
MTEXT
  5
B6A
330
1F
100
AcDbEntity
  8
寸法線
100
AcDbMText
 10
34579.24093491147
 20
28467.75726045623
 30
0.0
 40
21.00000000000001
 41
79.75
 46
0.0
 71
     5
 72
     5
  1
{\fMS PGothic|b0|i0|c128|p50;日付}
 73
     1
 44
1.0
1001
ACAD
1000
ACAD_MTEXT_COLUMN_INFO_BEGIN
1070
    75
1070
     2
1070
    79
1070
     0
1070
    76
1070
     1
1070
    78
1070
     0
1070
    48
1040
79.75
1070
    49
1040
12.5
1070
    50
1070
     1
1040
0.0
1000
ACAD_MTEXT_COLUMN_INFO_END
  0
MTEXT
  5
B6B
330
1F
100
AcDbEntity
  8
寸法線
100
AcDbMText
 10
34579.24093491147
 20
28425.27998772897
 30
0.0
 40
21.00000000000001
 41
79.75
 46
0.0
 71
     5
 72
     5
  1
{\fMS PGothic|b0|i0|c128|p50;設計}
 73
     1
 44
1.0
1001
ACAD
1000
ACAD_MTEXT_COLUMN_INFO_BEGIN
1070
    75
1070
     2
1070
    79
1070
     0
1070
    76
1070
     1
1070
    78
1070
     0
1070
    48
1040
79.75
1070
    49
1040
12.5
1070
    50
1070
     1
1040
0.0
1000
ACAD_MTEXT_COLUMN_INFO_END
  0
MTEXT
  5
B6C
330
1F
100
AcDbEntity
  8
寸法線
100
AcDbMText
 10
34732.24093491154
 20
28427.61862409259
 30
0.0
 40
16.8
 41
77.95127031754964
 46
0.0
 71
     5
 72
     5
  1
{\fMS PGothic|b0|i0|c128|p50;製図}
 73
     1
 44
1.0
1001
ACAD
1000
ACAD_MTEXT_COLUMN_INFO_BEGIN
1070
    75
1070
     2
1070
    79
1070
     0
1070
    76
1070
     1
1070
    78
1070
     0
1070
    48
1040
77.95127031754964
1070
    49
1040
12.5
1070
    50
1070
     1
1040
0.0
1000
ACAD_MTEXT_COLUMN_INFO_END
  0
MTEXT
  5
B6D
330
1F
100
AcDbEntity
  8
寸法線
100
AcDbMText
 10
34858.24093491153
 20
28428.2390786381
 30
0.0
 40
16.8
 41
64.78344696047134
 46
0.0
 71
     5
 72
     5
  1
{\fMS PGothic|b0|i0|c128|p50;承認}
 73
     1
 44
1.0
1001
ACAD
1000
ACAD_MTEXT_COLUMN_INFO_BEGIN
1070
    75
1070
     2
1070
    79
1070
     0
1070
    76
1070
     1
1070
    78
1070
     0
1070
    48
1040
64.78344696047134
1070
    49
1040
12.5
1070
    50
1070
     1
1040
0.0
1000
ACAD_MTEXT_COLUMN_INFO_END
  0
MTEXT
  5
B6E
330
1F
100
AcDbEntity
  8
寸法線
100
AcDbMText
 10
34792.24093491153
 20
28345.02908009996
 30
0.0
 40
21.00000000000001
 41
479.1527611076308
 46
0.0
 71
     5
 72
     5
  1
{\fMS PGothic|b0|i0|c128|p50;高村電機工業株式会社}
 73
     1
 44
1.0
1001
ACAD
1000
ACAD_MTEXT_COLUMN_INFO_BEGIN
1070
    75
1070
     2
1070
    79
1070
     0
1070
    76
1070
     1
1070
    78
1070
     0
1070
    48
1040
479.1527611076308
1070
    49
1040
12.5
1070
    50
1070
     1
1040
0.0
1000
ACAD_MTEXT_COLUMN_INFO_END
  0
MTEXT
  5
B6F
330
1F
100
AcDbEntity
  8
寸法線
100
AcDbMText
 10
34644.66432509464
 20
28656.2275760284
 30
0.0
 40
24.00000000000002
 41
379.4707622710557
 46
0.0
 71
     1
 72
     5
  1
{\fMS PGothic|b0|i0|c128|p50;ゼブライト・V　}32W
 73
     1
 44
1.0
1001
ACAD
1000
ACAD_MTEXT_COLUMN_INFO_BEGIN
1070
    75
1070
     2
1070
    79
1070
     0
1070
    76
1070
     1
1070
    78
1070
     0
1070
    48
1040
379.4707622710557
1070
    49
1040
12.5
1070
    50
1070
     1
1040
0.0
1000
ACAD_MTEXT_COLUMN_INFO_END
  0
MTEXT
  5
B70
330
1F
100
AcDbEntity
  8
寸法線
100
AcDbMText
 10
34645.6002752264
 20
28609.06489565321
 30
0.0
 40
24.00000000000002
 41
326.790400944592
 46
0.0
 71
     1
 72
     5
  1
CST{\fMS PGothic|b0|i0|c128|p50;‐}320KB-V
 73
     1
 44
1.0
1001
ACAD
1000
ACAD_MTEXT_COLUMN_INFO_BEGIN
1070
    75
1070
     2
1070
    79
1070
     0
1070
    76
1070
     1
1070
    78
1070
     0
1070
    48
1040
326.790400944592
1070
    49
1040
12.5
1070
    50
1070
     1
1040
0.0
1000
ACAD_MTEXT_COLUMN_INFO_END
  0
LINE
  5
B71
330
1F
100
AcDbEntity
  8
枠線
100
AcDbLine
 10
34789.24093491148
 20
28532.23237812787
 30
0.0
 11
34789.24093491148
 21
28490.23237812787
 31
0.0
  0
LINE
  5
B72
330
1F
100
AcDbEntity
  8
枠線
100
AcDbLine
 10
34795.24093491148
 20
28532.23237812787
 30
0.0
 11
34795.24093491148
 21
28490.23237812787
 31
0.0
  0
CIRCLE
  5
B73
330
1F
100
AcDbEntity
  8
枠線
100
AcDbCircle
 10
34840.24093491147
 20
28511.23237812787
 30
0.0
 40
12.0
  0
CIRCLE
  5
B74
330
1F
100
AcDbEntity
  8
枠線
100
AcDbCircle
 10
34840.24093491147
 20
28511.23237812787
 30
0.0
 40
6.0
  0
LINE
  5
B75
330
1F
100
AcDbEntity
  8
枠線
100
AcDbLine
 10
34885.24093491148
 20
28517.23237812787
 30
0.0
 11
34885.24093491148
 21
28505.23237812787
 31
0.0
  0
LINE
  5
B76
330
1F
100
AcDbEntity
  8
枠線
100
AcDbLine
 10
34885.24093491148
 20
28505.23237812787
 30
0.0
 11
34915.24093491148
 21
28499.23237812787
 31
0.0
  0
LINE
  5
B77
330
1F
100
AcDbEntity
  8
枠線
100
AcDbLine
 10
34915.24093491148
 20
28499.23237812787
 30
0.0
 11
34915.24093491148
 21
28523.23237812787
 31
0.0
  0
LINE
  5
B78
330
1F
100
AcDbEntity
  8
枠線
100
AcDbLine
 10
34915.24093491148
 20
28523.23237812787
 30
0.0
 11
34885.24093491148
 21
28517.23237812787
 31
0.0
  0
LINE
  5
B79
330
1F
100
AcDbEntity
  8
中心線
 48
0.5
100
AcDbLine
 10
34825.24093491148
 20
28511.23237812787
 30
0.0
 11
34918.24093491147
 21
28511.23237812787
 31
0.0
  0
LINE
  5
B7A
330
1F
100
AcDbEntity
  8
中心線
 48
0.5
100
AcDbLine
 10
34840.24093491147
 20
28526.23237812787
 30
0.0
 11
34840.24093491147
 21
28496.23237812787
 31
0.0
  0
MTEXT
  5
B7B
330
1F
100
AcDbEntity
  8
中心線
100
AcDbMText
 10
34712.93231111212
 20
28511.46389548492
 30
0.0
 40
24.00000000000002
 41
137.1373031534895
 46
0.0
 71
     5
 72
     5
  1
1  :  4
 73
     1
 44
1.0
1001
ACAD
1000
ACAD_MTEXT_COLUMN_INFO_BEGIN
1070
    75
1070
     2
1070
    79
1070
     0
1070
    76
1070
     1
1070
    78
1070
     0
1070
    48
1040
137.1373031534895
1070
    49
1040
12.5
1070
    50
1070
     1
1040
0.0
1000
ACAD_MTEXT_COLUMN_INFO_END
  0
MTEXT
  5
B7C
330
1F
100
AcDbEntity
  8
寸法線
100
AcDbMText
 10
34053.8154419997
 20
29377.17287490402
 30
0.0
 40
9.600000000000001
 41
151.6297294085016
 46
0.0
 71
     1
 72
     5
  1
{\fMS PGothic|b0|i0|c128|p50;器具本体}
 73
     1
 44
1.0
1001
ACAD
1000
ACAD_MTEXT_COLUMN_INFO_BEGIN
1070
    75
1070
     2
1070
    79
1070
     0
1070
    76
1070
     1
1070
    78
1070
     0
1070
    48
1040
151.6297294085016
1070
    49
1040
12.5
1070
    50
1070
     1
1040
0.0
1000
ACAD_MTEXT_COLUMN_INFO_END
  0
MTEXT
  5
B7D
330
1F
100
AcDbEntity
  8
寸法線
100
AcDbMText
 10
34234.698096507
 20
29381.69618849504
 30
0.0
 40
8.0
 41
163.0743348696414
 46
0.0
 71
     1
 72
     5
  1
{\fMS PGothic|b0|i0|c128|p50;鋼鈑　}0.6{\fMS PGothic|b0|i0|c128|p50;ｔ}\P{\fMS PGothic|b0|i0|c128|p50;（亜鉛メッキ板）}
 73
     1
 44
1.0
1001
ACAD
1000
ACAD_MTEXT_COLUMN_INFO_BEGIN
1070
    75
1070
     2
1070
    79
1070
     0
1070
    76
1070
     1
1070
    78
1070
     0
1070
    48
1040
163.0743348696414
1070
    49
1040
12.5
1070
    50
1070
     1
1040
0.0
1000
ACAD_MTEXT_COLUMN_INFO_END
  0
MTEXT
  5
B7E
330
1F
100
AcDbEntity
  8
寸法線
100
AcDbMText
 10
34348.57369779563
 20
29373.12563430944
 30
0.0
 40
8.0
 41
127.6574633589698
 46
0.0
 71
     1
 72
     5
  1
{\fMS PGothic|b0|i0|c128|p50;ホーミング加工}
 73
     1
 44
1.0
1001
ACAD
1000
ACAD_MTEXT_COLUMN_INFO_BEGIN
1070
    75
1070
     2
1070
    79
1070
     0
1070
    76
1070
     1
1070
    78
1070
     0
1070
    48
1040
127.6574633589698
1070
    49
1040
12.5
1070
    50
1070
     1
1040
0.0
1000
ACAD_MTEXT_COLUMN_INFO_END
  0
MTEXT
  5
B7F
330
1F
100
AcDbEntity
  8
寸法線
100
AcDbMText
 10
34053.80752779395
 20
29303.57512239933
 30
0.0
 40
9.600000000000001
 41
177.2417588968819
 46
0.0
 71
     1
 72
     5
  1
{\fMS PGothic|b0|i0|c128|p50;絶縁ブッシング}
 73
     1
 44
1.0
1001
ACAD
1000
ACAD_MTEXT_COLUMN_INFO_BEGIN
1070
    75
1070
     2
1070
    79
1070
     0
1070
    76
1070
     1
1070
    78
1070
     0
1070
    48
1040
177.2417588968819
1070
    49
1040
12.5
1070
    50
1070
     1
1040
0.0
1000
ACAD_MTEXT_COLUMN_INFO_END
  0
MTEXT
  5
B80
330
1F
100
AcDbEntity
  8
寸法線
100
AcDbMText
 10
34236.90006209636
 20
29308.52212094796
 30
0.0
 40
8.0
 41
112.0581813088574
 46
0.0
 71
     1
 72
     5
  1
P.P{\fMS PGothic|b0|i0|c128|p50;樹脂}
 73
     1
 44
1.0
1001
ACAD
1000
ACAD_MTEXT_COLUMN_INFO_BEGIN
1070
    75
1070
     2
1070
    79
1070
     0
1070
    76
1070
     1
1070
    78
1070
     0
1070
    48
1040
112.0581813088574
1070
    49
1040
12.5
1070
    50
1070
     1
1040
0.0
1000
ACAD_MTEXT_COLUMN_INFO_END
  0
MTEXT
  5
B81
330
1F
100
AcDbEntity
  8
寸法線
100
AcDbMText
 10
34051.95199683309
 20
29270.04860513708
 30
0.0
 40
9.600000000000001
 41
209.7639475286996
 46
0.0
 71
     1
 72
     5
  1
{\fMS PGothic|b0|i0|c128|p50;ランプソケット（固定側）}
 73
     1
 44
1.0
1001
ACAD
1000
ACAD_MTEXT_COLUMN_INFO_BEGIN
1070
    75
1070
     2
1070
    79
1070
     0
1070
    76
1070
     1
1070
    78
1070
     0
1070
    48
1040
209.7639475286996
1070
    49
1040
12.5
1070
    50
1070
     1
1040
0.0
1000
ACAD_MTEXT_COLUMN_INFO_END
  0
MTEXT
  5
B82
330
1F
100
AcDbEntity
  8
寸法線
100
AcDbMText
 10
34235.66305875464
 20
29272.52213748464
 30
0.0
 40
8.0
 41
114.358547341013
 46
0.0
 71
     1
 72
     5
  1
{\fMS PGothic|b0|i0|c128|p50;P.P樹脂\P黄銅}
 73
     1
 44
1.0
1001
ACAD
1000
ACAD_MTEXT_COLUMN_INFO_BEGIN
1070
    75
1070
     2
1070
    79
1070
     0
1070
    76
1070
     1
1070
    78
1070
     0
1070
    48
1040
114.358547341013
1070
    49
1040
12.5
1070
    50
1070
     1
1040
0.0
1000
ACAD_MTEXT_COLUMN_INFO_END
  0
MTEXT
  5
B83
330
1F
100
AcDbEntity
  8
寸法線
100
AcDbMText
 10
34053.80752779395
 20
29233.43025098923
 30
0.0
 40
9.600000000000001
 41
210.5417588968994
 46
0.0
 71
     1
 72
     5
  1
{\fMS PGothic|b0|i0|c128|p50;ランプソケット（スプリング側）}
 73
     1
 44
1.0
1001
ACAD
1000
ACAD_MTEXT_COLUMN_INFO_BEGIN
1070
    75
1070
     2
1070
    79
1070
     0
1070
    76
1070
     1
1070
    78
1070
     0
1070
    48
1040
210.5417588968994
1070
    49
1040
12.5
1070
    50
1070
     1
1040
0.0
1000
ACAD_MTEXT_COLUMN_INFO_END
  0
MTEXT
  5
B84
330
1F
100
AcDbEntity
  8
寸法線
100
AcDbMText
 10
34232.57049850398
 20
29237.14050816909
 30
0.0
 40
8.0
 41
140.8380455093865
 46
0.0
 71
     1
 72
     5
  1
P.P{\fMS PGothic|b0|i0|c128|p50;樹脂}\P{\fMS PGothic|b0|i0|c128|p50;黄銅}
 73
     1
 44
1.0
1001
ACAD
1000
ACAD_MTEXT_COLUMN_INFO_BEGIN
1070
    75
1070
     2
1070
    79
1070
     0
1070
    76
1070
     1
1070
    78
1070
     0
1070
    48
1040
140.8380455093865
1070
    49
1040
12.5
1070
    50
1070
     1
1040
0.0
1000
ACAD_MTEXT_COLUMN_INFO_END
  0
MTEXT
  5
B85
330
1F
100
AcDbEntity
  8
寸法線
100
AcDbMText
 10
34540.5040557496
 20
29377.34442588753
 30
0.0
 40
9.600000000000001
 41
181.3710989523388
 46
0.0
 71
     1
 72
     5
  1
{\fMS PGothic|b0|i0|c128|p50;専用電源装置}
 73
     1
 44
1.0
1001
ACAD
1000
ACAD_MTEXT_COLUMN_INFO_BEGIN
1070
    75
1070
     2
1070
    79
1070
     0
1070
    76
1070
     1
1070
    78
1070
     0
1070
    48
1040
181.3710989523388
1070
    49
1040
12.5
1070
    50
1070
     1
1040
0.0
1000
ACAD_MTEXT_COLUMN_INFO_END
  0
MTEXT
  5
B86
330
1F
100
AcDbEntity
  8
寸法線
100
AcDbMText
 10
34835.88935017924
 20
29377.38356808708
 30
0.0
 40
6.4
 41
162.8281777420561
 46
0.0
 71
     1
 72
     5
  1
{\fMS PGothic|b0|i0|c128|p50;レシップ製定電流電源装置}\PK68-026C110-206
 73
     1
 44
1.0
1001
ACAD
1000
ACAD_MTEXT_COLUMN_INFO_BEGIN
1070
    75
1070
     2
1070
    79
1070
     0
1070
    76
1070
     1
1070
    78
1070
     0
1070
    48
1040
162.8281777420561
1070
    49
1040
12.5
1070
    50
1070
     1
1040
0.0
1000
ACAD_MTEXT_COLUMN_INFO_END
  0
LINE
  5
B87
330
1F
100
AcDbEntity
  8
外形線
100
AcDbLine
 10
33316.24093491148
 20
29477.23237812787
 30
0.0
 11
33316.24093491148
 21
28289.23237812787
 31
0.0
  0
LINE
  5
B88
330
1F
100
AcDbEntity
  8
外形線
100
AcDbLine
 10
33316.24093491148
 20
28289.23237812787
 30
0.0
 11
34996.24093491148
 21
28289.23237812787
 31
0.0
  0
LINE
  5
B89
330
1F
100
AcDbEntity
  8
外形線
100
AcDbLine
 10
34996.24093491148
 20
28289.23237812787
 30
0.0
 11
34996.24093491148
 21
29477.23237812787
 31
0.0
  0
LINE
  5
B8A
330
1F
100
AcDbEntity
  8
外形線
100
AcDbLine
 10
34996.24093491148
 20
29477.23237812787
 30
0.0
 11
33316.24093491148
 21
29477.23237812787
 31
0.0
  0
XLINE
  5
C17
330
1F
100
AcDbEntity
  8
オフセット
100
AcDbXline
 10
32915.44093491146
 20
29033.35326060758
 30
0.0
 11
-1.0
 21
0.0
 31
0.0
  0
XLINE
  5
C18
330
1F
100
AcDbEntity
  8
オフセット
100
AcDbXline
 10
32915.44093491146
 20
29197.60326060758
 30
0.0
 11
-1.0
 21
0.0
 31
0.0
  0
LINE
  5
C20
102
{ACAD_REACTORS
330
CD1
102
}
330
1F
100
AcDbEntity
  8
中心線
100
AcDbLine
 10
33504.39367203215
 20
28852.32099312465
 30
0.0
 11
34593.14958834098
 21
28852.32099312465
 31
0.0
  0
XLINE
  5
C22
330
1F
100
AcDbEntity
  8
オフセット
100
AcDbXline
 10
32915.44093491146
 20
29049.60326060757
 30
0.0
 11
-1.0
 21
0.0
 31
0.0
  0
XLINE
  5
C23
330
1F
100
AcDbEntity
  8
オフセット
100
AcDbXline
 10
32915.44093491146
 20
29059.60326060758
 30
0.0
 11
-1.0
 21
0.0
 31
0.0
  0
XLINE
  5
C24
330
1F
100
AcDbEntity
  8
オフセット
100
AcDbXline
 10
32915.44093491146
 20
28972.60326060758
 30
0.0
 11
-1.0
 21
0.0
 31
0.0
  0
XLINE
  5
C25
330
1F
100
AcDbEntity
  8
オフセット
100
AcDbXline
 10
32915.44093491146
 20
28962.60326060758
 30
0.0
 11
-1.0
 21
0.0
 31
0.0
  0
LINE
  5
C26
102
{ACAD_REACTORS
330
C9F
330
132D
102
}
330
1F
100
AcDbEntity
  8
中心線
100
AcDbLine
 10
34566.14958834098
 20
28878.57099312465
 30
0.0
 11
34566.14958834098
 21
28781.57099312465
 31
0.0
  0
XLINE
  5
C27
330
1F
100
AcDbEntity
  8
オフセット
100
AcDbXline
 10
32915.44093491146
 20
29144.60326060757
 30
0.0
 11
-1.0
 21
0.0
 31
0.0
  0
CIRCLE
  5
C2F
330
1F
100
AcDbEntity
  8
○
100
AcDbCircle
 10
33490.70058453214
 20
29005.42427912693
 30
0.0
 40
15.0
  0
MTEXT
  5
C33
330
1F
100
AcDbEntity
  8
寸法線
100
AcDbMText
 10
33484.20775607042
 20
29015.16812961794
 30
0.0
 40
20.0
 41
35.534113038535
 46
0.0
 71
     1
 72
     5
  1
4
 73
     1
 44
1.0
1001
ACAD
1000
ACAD_MTEXT_COLUMN_INFO_BEGIN
1070
    75
1070
     2
1070
    79
1070
     0
1070
    76
1070
     1
1070
    78
1070
     0
1070
    48
1040
35.534113038535
1070
    49
1040
12.5
1070
    50
1070
     1
1040
0.0
1000
ACAD_MTEXT_COLUMN_INFO_END
  0
CIRCLE
  5
C34
330
1F
100
AcDbEntity
  8
○
100
AcDbCircle
 10
33531.53638066461
 20
29005.42427912693
 30
0.0
 40
15.0
  0
MTEXT
  5
C35
330
1F
100
AcDbEntity
  8
寸法線
100
AcDbMText
 10
33525.04355220289
 20
29015.16812961794
 30
0.0
 40
20.0
 41
35.534113038535
 46
0.0
 71
     1
 72
     5
  1
3
 73
     1
 44
1.0
1001
ACAD
1000
ACAD_MTEXT_COLUMN_INFO_BEGIN
1070
    75
1070
     2
1070
    79
1070
     0
1070
    76
1070
     1
1070
    78
1070
     0
1070
    48
1040
35.534113038535
1070
    49
1040
12.5
1070
    50
1070
     1
1040
0.0
1000
ACAD_MTEXT_COLUMN_INFO_END
  0
CIRCLE
  5
C36
330
1F
100
AcDbEntity
  8
○
100
AcDbCircle
 10
33588.2518147258
 20
29005.42427912693
 30
0.0
 40
15.0
  0
MTEXT
  5
C37
330
1F
100
AcDbEntity
  8
寸法線
100
AcDbMText
 10
33581.75898626408
 20
29015.16812961794
 30
0.0
 40
20.0
 41
35.534113038535
 46
0.0
 71
     1
 72
     5
  1
1
 73
     1
 44
1.0
1001
ACAD
1000
ACAD_MTEXT_COLUMN_INFO_BEGIN
1070
    75
1070
     2
1070
    79
1070
     0
1070
    76
1070
     1
1070
    78
1070
     0
1070
    48
1040
35.534113038535
1070
    49
1040
12.5
1070
    50
1070
     1
1040
0.0
1000
ACAD_MTEXT_COLUMN_INFO_END
  0
CIRCLE
  5
C38
330
1F
100
AcDbEntity
  8
○
100
AcDbCircle
 10
33634.1291888875
 20
29005.42427912693
 30
0.0
 40
15.0
  0
MTEXT
  5
C39
330
1F
100
AcDbEntity
  8
寸法線
100
AcDbMText
 10
33627.63636042578
 20
29015.16812961794
 30
0.0
 40
20.0
 41
35.534113038535
 46
0.0
 71
     1
 72
     5
  1
7
 73
     1
 44
1.0
1001
ACAD
1000
ACAD_MTEXT_COLUMN_INFO_BEGIN
1070
    75
1070
     2
1070
    79
1070
     0
1070
    76
1070
     1
1070
    78
1070
     0
1070
    48
1040
35.534113038535
1070
    49
1040
12.5
1070
    50
1070
     1
1040
0.0
1000
ACAD_MTEXT_COLUMN_INFO_END
  0
CIRCLE
  5
C3A
330
1F
100
AcDbEntity
  8
○
100
AcDbCircle
 10
33817.32469412313
 20
29005.42427912693
 30
0.0
 40
15.0
  0
MTEXT
  5
C3B
330
1F
100
AcDbEntity
  8
寸法線
100
AcDbMText
 10
33810.83186566141
 20
29015.16812961794
 30
0.0
 40
20.0
 41
35.534113038535
 46
0.0
 71
     1
 72
     5
  1
6
 73
     1
 44
1.0
1001
ACAD
1000
ACAD_MTEXT_COLUMN_INFO_BEGIN
1070
    75
1070
     2
1070
    79
1070
     0
1070
    76
1070
     1
1070
    78
1070
     0
1070
    48
1040
35.534113038535
1070
    49
1040
12.5
1070
    50
1070
     1
1040
0.0
1000
ACAD_MTEXT_COLUMN_INFO_END
  0
CIRCLE
  5
C3C
330
1F
100
AcDbEntity
  8
○
100
AcDbCircle
 10
34387.53638066461
 20
29005.42427912693
 30
0.0
 40
15.0
  0
MTEXT
  5
C3D
330
1F
100
AcDbEntity
  8
寸法線
100
AcDbMText
 10
34381.04355220289
 20
29015.16812961794
 30
0.0
 40
20.0
 41
35.534113038535
 46
0.0
 71
     1
 72
     5
  1
5
 73
     1
 44
1.0
1001
ACAD
1000
ACAD_MTEXT_COLUMN_INFO_BEGIN
1070
    75
1070
     2
1070
    79
1070
     0
1070
    76
1070
     1
1070
    78
1070
     0
1070
    48
1040
35.534113038535
1070
    49
1040
12.5
1070
    50
1070
     1
1040
0.0
1000
ACAD_MTEXT_COLUMN_INFO_END
  0
MTEXT
  5
C3E
330
1F
100
AcDbEntity
  8
寸法線
100
AcDbMText
 10
34539.8154419997
 20
29341.17287490402
 30
0.0
 40
9.600000000000001
 41
199.244644231323
 46
0.0
 71
     1
 72
     5
  1
{\fMS PGothic|b0|i0|c128|p50;電源用　アース付端子台}
 73
     1
 44
1.0
1001
ACAD
1000
ACAD_MTEXT_COLUMN_INFO_BEGIN
1070
    75
1070
     2
1070
    79
1070
     0
1070
    76
1070
     1
1070
    78
1070
     0
1070
    48
1040
199.244644231323
1070
    49
1040
12.5
1070
    50
1070
     1
1040
0.0
1000
ACAD_MTEXT_COLUMN_INFO_END
  0
XLINE
  5
C42
330
1F
100
AcDbEntity
  8
オフセット
100
AcDbXline
 10
32915.44093491146
 20
29149.60326060758
 30
0.0
 11
-1.0
 21
0.0
 31
0.0
  0
XLINE
  5
C43
330
1F
100
AcDbEntity
  8
オフセット
100
AcDbXline
 10
32915.44093491146
 20
29134.60326060758
 30
0.0
 11
-1.0
 21
0.0
 31
0.0
  0
XLINE
  5
C44
330
1F
100
AcDbEntity
  8
オフセット
100
AcDbXline
 10
32915.44093491146
 20
29154.60326060757
 30
0.0
 11
-1.0
 21
0.0
 31
0.0
  0
LINE
  5
C45
330
1F
100
AcDbEntity
  8
○
100
AcDbLine
 10
33599.4321546133
 20
29015.42427912694
 30
0.0
 11
33620.77300192378
 21
29061.58236557436
 31
0.0
  0
LINE
  5
C46
330
1F
100
AcDbEntity
  8
○
100
AcDbLine
 10
33591.28699997727
 20
28990.73456672372
 30
0.0
 11
33634.1291888875
 21
28820.91152475766
 31
0.0
  0
LINE
  5
C47
330
1F
100
AcDbEntity
  8
○
100
AcDbLine
 10
33645.53345903551
 20
29015.16812961794
 30
0.0
 11
33687.74675753185
 21
29050.51140518131
 31
0.0
  0
LINE
  5
C48
330
1F
100
AcDbEntity
  8
○
100
AcDbLine
 10
33642.60517942383
 20
28993.0485939165
 30
0.0
 11
33693.90065515738
 21
28809.04918181199
 31
0.0
  0
LINE
  5
C49
330
1F
100
AcDbEntity
  8
○
100
AcDbLine
 10
33828.50503401062
 20
29015.42427912694
 30
0.0
 11
33871.24180723341
 21
29052.18122282989
 31
0.0
  0
LINE
  5
C4A
330
1F
100
AcDbEntity
  8
○
100
AcDbLine
 10
33827.85833000594
 20
28994.74521010907
 30
0.0
 11
33896.64273813296
 21
28806.44373434384
 31
0.0
  0
LINE
  5
C4B
330
1F
100
AcDbEntity
  8
○
100
AcDbLine
 10
33535.34233181515
 20
29019.93340507717
 30
0.0
 11
33565.29161032572
 21
29063.29071391827
 31
0.0
  0
LINE
  5
C4C
330
1F
100
AcDbEntity
  8
○
100
AcDbLine
 10
33531.53638066461
 20
28990.42427912694
 30
0.0
 11
33568.56914620488
 21
28814.623042374
 31
0.0
  0
LINE
  5
C4D
330
1F
100
AcDbEntity
  8
○
100
AcDbLine
 10
33497.08667802774
 20
29018.9969652968
 30
0.0
 11
33523.84452136228
 21
29066.57099312464
 31
0.0
  0
LINE
  5
C4E
330
1F
100
AcDbEntity
  8
○
100
AcDbLine
 10
33494.70261516518
 20
28990.96800883297
 30
0.0
 11
33523.69860443166
 21
28860.55574792734
 31
0.0
  0
LINE
  5
C4F
330
1F
100
AcDbEntity
  8
○
100
AcDbLine
 10
34383.96333811033
 20
29019.99251055375
 30
0.0
 11
34367.00521240055
 21
29060.1634368711
 31
0.0
  0
LINE
  5
C50
330
1F
100
AcDbEntity
  8
○
100
AcDbLine
 10
34387.53638066461
 20
28990.42427912694
 30
0.0
 11
34367.94688043676
 21
28852.32099312465
 31
0.0
  0
DIMENSION
  5
C6E
102
{ACAD_XDICTIONARY
360
C7B
102
}
102
{ACAD_REACTORS
330
C85
102
}
330
1F
100
AcDbEntity
  8
寸法線
100
AcDbDimension
280
     0
  2
*D1
 10
34587.14958834097
 20
28935.53814345202
 30
0.0
 11
34564.64958834097
 21
28946.33367551204
 31
0.0
 70
    32
 71
     5
 42
45.0
 73
     0
 74
     0
 75
     0
  3
ISO-25
100
AcDbAlignedDimension
 13
34542.14958834097
 23
28816.07099312465
 33
0.0
 14
34587.14958834097
 24
28816.07099312465
 34
0.0
100
AcDbRotatedDimension
  0
DIMENSION
  5
C86
102
{ACAD_XDICTIONARY
360
C94
102
}
102
{ACAD_REACTORS
330
C9F
102
}
330
1F
100
AcDbEntity
  8
寸法線
100
AcDbDimension
280
     0
  2
*D2
 10
34542.14958834097
 20
28908.71222087823
 30
0.0
 11
34524.57029093306
 21
28919.37814857264
 31
0.0
 70
    32
 71
     5
 42
24.00000000000728
 73
     0
 74
     0
 75
     0
  3
ISO-25
100
AcDbAlignedDimension
 13
34566.14958834098
 23
28878.57099312465
 33
0.0
 14
34542.14958834097
 24
28878.57099312465
 34
0.0
100
AcDbRotatedDimension
  0
DIMENSION
  5
CBA
102
{ACAD_XDICTIONARY
360
CC7
102
}
102
{ACAD_REACTORS
330
CD1
102
}
330
1F
100
AcDbEntity
  8
寸法線
100
AcDbDimension
280
     0
  2
*D3
 10
34582.14958834097
 20
28881.15885429553
 30
0.0
 11
34566.14958834097
 21
28892.00213533236
 31
0.0
 70
    32
 71
     5
 42
31.99999999998545
 73
     0
 74
     0
 75
     0
  3
ISO-25
100
AcDbAlignedDimension
 13
34550.14958834098
 23
28852.32099312465
 33
0.0
 14
34582.14958834097
 24
28852.32099312465
 34
0.0
100
AcDbRotatedDimension
  0
DIMENSION
  5
CD2
102
{ACAD_XDICTIONARY
360
CDF
102
}
102
{ACAD_REACTORS
330
CE9
102
}
330
1F
100
AcDbEntity
  8
寸法線
100
AcDbDimension
280
     0
  2
*D4
 10
34494.12453256059
 20
28791.57099312465
 30
0.0
 11
34483.49953256058
 21
28830.07099312465
 31
0.0
 70
    32
 71
     5
 42
77.0
 73
     0
 74
     0
 75
     0
  3
ISO-25
100
AcDbAlignedDimension
 13
34566.14958834097
 23
28868.57099312464
 33
0.0
 14
34566.14958834098
 24
28791.57099312465
 34
0.0
 50
90.0
100
AcDbRotatedDimension
  0
TEXT
  5
D49
330
1F
100
AcDbEntity
  8
1
 62
     3
100
AcDbText
 10
33775.00261879165
 20
28624.60862867869
 30
0.0
 40
13.5
  1
１．左記の様にランプをセットしてください
 41
0.6666666666670002
  7
BIGFONT
100
AcDbText
  0
TEXT
  5
D4A
330
1F
100
AcDbEntity
  8
1
 62
     3
100
AcDbText
 10
33792.68132972915
 20
28604.57300042348
 30
0.0
 40
13.5
  1
器具側の電極はスプリングソケット側になっています。
 41
0.6666666666670002
  7
BIGFONT
100
AcDbText
  0
TEXT
  5
D4B
330
1F
100
AcDbEntity
  8
1
 62
     3
100
AcDbText
 10
33793.27019691665
 20
28585.71557854848
 30
0.0
 40
13.5
  1
ランプの電極はマーク（シール）側になっています。
 41
0.6666666666670002
  7
BIGFONT
100
AcDbText
  0
TEXT
  5
D4C
330
1F
100
AcDbEntity
  8
1
 62
     3
100
AcDbText
 10
33793.27019691665
 20
28567.44800042348
 30
0.0
 40
13.5
  1
セット方向はランプはマーク（シール）が正面方向を
 41
0.6666666666670002
  7
BIGFONT
100
AcDbText
  0
TEXT
  5
D4D
330
1F
100
AcDbEntity
  8
1
 62
     3
100
AcDbText
 10
33777.15626462497
 20
28519.8591006839
 30
0.0
 40
13.5
  1
２．精密部品を使用しておりますので衝撃等を与えますと
 41
0.6666666666670002
  7
BIGFONT
100
AcDbText
  0
TEXT
  5
D4E
330
1F
100
AcDbEntity
  8
1
 62
     3
100
AcDbText
 10
33796.01368649997
 20
28500.41229078806
 30
0.0
 40
13.5
  1
誤動作もしくは不点の恐れがあります。
 41
0.6666666666670002
  7
BIGFONT
100
AcDbText
  0
TEXT
  5
D4F
330
1F
100
AcDbEntity
  8
1
 62
     3
100
AcDbText
 10
33776.56739743747
 20
28473.89471266307
 30
0.0
 40
13.5
  1
３．この製品は定電流式２４Ｖ仕様です。
 41
0.6666666666670002
  7
BIGFONT
100
AcDbText
  0
TEXT
  5
D50
330
1F
100
AcDbEntity
  8
1
 62
     3
100
AcDbText
 10
33793.65626462497
 20
28453.85907626983
 30
0.0
 40
13.5
  1
必ず専用のランプと安定器のセットでご使用下さい。
 41
0.6666666666670002
  7
BIGFONT
100
AcDbText
  0
TEXT
  5
D51
330
1F
100
AcDbEntity
  8
1
 62
     3
100
AcDbText
 10
33794.09194170829
 20
28549.01902906931
 30
0.0
 40
13.5
  1
向く様にして下さい。
 41
0.6666666666670002
  7
BIGFONT
100
AcDbText
  0
TEXT
  5
D52
330
1F
100
AcDbEntity
  8
1
 62
     3
100
AcDbText
 10
33503.18152504164
 20
28618.95989820994
 30
0.0
 40
12.0
  1
取扱い説明及び注意事項
 41
0.6666666666670002
  7
BIGFONT
100
AcDbText
  0
LINE
  5
D53
330
1F
100
AcDbEntity
  8
1
  6
Continuous
 62
     3
100
AcDbLine
 10
33630.24345964872
 20
28576.34082441144
 30
0.0
 11
33630.24345964872
 21
28561.34082441144
 31
0.0
  0
LINE
  5
D54
330
1F
100
AcDbEntity
  8
1
  6
Continuous
 62
     3
100
AcDbLine
 10
33630.24345964872
 20
28561.34082441144
 30
0.0
 11
33483.31488822013
 21
28561.34082441144
 31
0.0
  0
LINE
  5
D55
330
1F
100
AcDbEntity
  8
1
  6
Continuous
 62
     3
100
AcDbLine
 10
33483.31488822013
 20
28561.34082441144
 30
0.0
 11
33480.24345964871
 21
28561.34082441144
 31
0.0
  0
LINE
  5
D56
330
1F
100
AcDbEntity
  8
1
  6
Continuous
 62
     3
100
AcDbLine
 10
33480.24345964871
 20
28561.34082441144
 30
0.0
 11
33480.24345964871
 21
28576.34082441144
 31
0.0
  0
LINE
  5
D57
330
1F
100
AcDbEntity
  8
1
  6
Continuous
 62
     3
100
AcDbLine
 10
33480.24345964871
 20
28576.34082441144
 30
0.0
 11
33630.24345964872
 21
28576.34082441144
 31
0.0
  0
LINE
  5
D58
330
1F
100
AcDbEntity
  8
1
  6
Continuous
 62
     3
100
AcDbLine
 10
33630.24345964872
 20
28576.34082441144
 30
0.0
 11
33634.74345964871
 21
28576.34082441144
 31
0.0
  0
LINE
  5
D59
330
1F
100
AcDbEntity
  8
1
  6
Continuous
 62
     3
100
AcDbLine
 10
33634.74345964871
 20
28576.34082441144
 30
0.0
 11
33634.74345964871
 21
28561.34082441144
 31
0.0
  0
LINE
  5
D5A
330
1F
100
AcDbEntity
  8
1
  6
Continuous
 62
     3
100
AcDbLine
 10
33634.74345964871
 20
28561.34082441144
 30
0.0
 11
33630.24345964872
 21
28561.34082441144
 31
0.0
  0
LINE
  5
D5B
330
1F
100
AcDbEntity
  8
1
  6
Continuous
 62
     3
100
AcDbLine
 10
33480.24345964871
 20
28576.34082441144
 30
0.0
 11
33475.74345964872
 21
28576.34082441144
 31
0.0
  0
LINE
  5
D5C
330
1F
100
AcDbEntity
  8
1
  6
Continuous
 62
     3
100
AcDbLine
 10
33475.74345964872
 20
28576.34082441144
 30
0.0
 11
33475.74345964872
 21
28561.34082441144
 31
0.0
  0
LINE
  5
D5D
330
1F
100
AcDbEntity
  8
1
  6
Continuous
 62
     3
100
AcDbLine
 10
33475.74345964872
 20
28561.34082441144
 30
0.0
 11
33480.24345964871
 21
28561.34082441144
 31
0.0
  0
LINE
  5
D5E
330
1F
100
AcDbEntity
  8
1
  6
Continuous
 62
     3
100
AcDbLine
 10
33475.74345964872
 20
28571.84082441144
 30
0.0
 11
33471.24345964871
 21
28571.84082441144
 31
0.0
  0
LINE
  5
D5F
330
1F
100
AcDbEntity
  8
1
  6
Continuous
 62
     3
100
AcDbLine
 10
33475.74345964872
 20
28565.84082441144
 30
0.0
 11
33471.24345964871
 21
28565.84082441144
 31
0.0
  0
LINE
  5
D60
330
1F
100
AcDbEntity
  8
1
  6
Continuous
 62
     3
100
AcDbLine
 10
33634.74345964871
 20
28571.84082441144
 30
0.0
 11
33639.24345964872
 21
28571.84082441144
 31
0.0
  0
LINE
  5
D61
330
1F
100
AcDbEntity
  8
1
  6
Continuous
 62
     3
100
AcDbLine
 10
33634.74345964871
 20
28565.84082441144
 30
0.0
 11
33639.24345964872
 21
28565.84082441144
 31
0.0
  0
LINE
  5
D62
330
1F
100
AcDbEntity
  8
1
  6
Continuous
 62
     3
100
AcDbLine
 10
33661.4220310773
 20
28571.84082441144
 30
0.0
 11
33698.92203107729
 21
28571.84082441144
 31
0.0
  0
LINE
  5
D63
330
1F
100
AcDbEntity
  8
1
  6
Continuous
 62
     3
100
AcDbLine
 10
33698.92203107729
 20
28571.84082441144
 30
0.0
 11
33698.92203107729
 21
28517.05511012573
 31
0.0
  0
LINE
  5
D64
330
1F
100
AcDbEntity
  8
1
  6
Continuous
 62
     3
100
AcDbLine
 10
33698.92203107729
 20
28517.05511012573
 30
0.0
 11
33590.56488822014
 21
28517.05511012573
 31
0.0
  0
LINE
  5
D65
330
1F
100
AcDbEntity
  8
1
  6
Continuous
 62
     3
100
AcDbLine
 10
33661.4220310773
 20
28565.84082441144
 30
0.0
 11
33683.9220310773
 21
28565.84082441144
 31
0.0
  0
LINE
  5
D66
330
1F
100
AcDbEntity
  8
1
  6
Continuous
 62
     3
100
AcDbLine
 10
33683.9220310773
 20
28565.84082441144
 30
0.0
 11
33683.9220310773
 21
28523.05511012573
 31
0.0
  0
LINE
  5
D67
330
1F
100
AcDbEntity
  8
1
  6
Continuous
 62
     3
100
AcDbLine
 10
33683.9220310773
 20
28523.05511012573
 30
0.0
 11
33590.56488822014
 21
28523.05511012573
 31
0.0
  0
LINE
  5
D68
330
1F
100
AcDbEntity
  8
1
  6
Continuous
 62
     3
100
AcDbLine
 10
33590.56488822014
 20
28527.55511012573
 30
0.0
 11
33590.56488822014
 21
28512.55511012573
 31
0.0
  0
LINE
  5
D69
330
1F
100
AcDbEntity
  8
1
  6
Continuous
 62
     3
100
AcDbLine
 10
33590.56488822014
 20
28512.55511012573
 30
0.0
 11
33530.56488822014
 21
28512.55511012573
 31
0.0
  0
LINE
  5
D6A
330
1F
100
AcDbEntity
  8
1
  6
Continuous
 62
     3
100
AcDbLine
 10
33530.56488822014
 20
28512.55511012573
 30
0.0
 11
33530.56488822014
 21
28527.55511012573
 31
0.0
  0
LINE
  5
D6B
330
1F
100
AcDbEntity
  8
1
  6
Continuous
 62
     3
100
AcDbLine
 10
33530.56488822014
 20
28527.55511012573
 30
0.0
 11
33590.56488822014
 21
28527.55511012573
 31
0.0
  0
LINE
  5
D6C
330
1F
100
AcDbEntity
  8
1
  6
Continuous
 62
     3
100
AcDbLine
 10
33533.33869774395
 20
28512.55511012573
 30
0.0
 11
33533.33869774395
 21
28497.55511012573
 31
0.0
  0
LINE
  5
D6D
330
1F
100
AcDbEntity
  8
1
  6
Continuous
 62
     3
100
AcDbLine
 10
33533.33869774395
 20
28497.55511012573
 30
0.0
 11
33485.69584060111
 21
28497.55511012573
 31
0.0
  0
TEXT
  5
D6E
330
1F
100
AcDbEntity
  8
1
 62
     3
100
AcDbText
 10
33605.4558414479
 20
28525.40786370473
 30
0.0
 40
7.466666666666665
  1
赤
 41
0.6666666666670002
  7
BIGFONT
100
AcDbText
  0
TEXT
  5
D6F
330
1F
100
AcDbEntity
  8
1
 62
     3
100
AcDbText
 10
33607.43115069269
 20
28503.67945387401
 30
0.0
 40
7.466666666666665
  1
白
 41
0.6666666666670002
  7
BIGFONT
100
AcDbText
  0
TEXT
  5
D70
330
1F
100
AcDbEntity
  8
1
 62
     3
100
AcDbText
 10
33663.72745603122
 20
28553.06216057974
 30
0.0
 40
7.466666666666665
  1
赤
 41
0.6666666666670002
  7
BIGFONT
100
AcDbText
  0
TEXT
  5
D71
330
1F
100
AcDbEntity
  8
1
 62
     3
100
AcDbText
 10
33663.72745603122
 20
28575.77820875682
 30
0.0
 40
7.466666666666665
  1
白
 41
0.6666666666670002
  7
BIGFONT
100
AcDbText
  0
LINE
  5
D72
330
1F
100
AcDbEntity
  8
1
  6
Continuous
 62
     3
100
AcDbLine
 10
33625.74345964872
 20
28571.84082441144
 30
0.0
 11
33625.74345964872
 21
28565.84082441144
 31
0.0
  0
LINE
  5
D73
330
1F
100
AcDbEntity
  8
1
  6
Continuous
 62
     3
100
AcDbLine
 10
33625.74345964872
 20
28565.84082441144
 30
0.0
 11
33610.74345964872
 21
28565.84082441144
 31
0.0
  0
LINE
  5
D74
330
1F
100
AcDbEntity
  8
1
  6
Continuous
 62
     3
100
AcDbLine
 10
33610.74345964872
 20
28565.84082441144
 30
0.0
 11
33610.74345964872
 21
28571.84082441144
 31
0.0
  0
LINE
  5
D75
330
1F
100
AcDbEntity
  8
1
  6
Continuous
 62
     3
100
AcDbLine
 10
33610.74345964872
 20
28571.84082441144
 30
0.0
 11
33625.74345964872
 21
28571.84082441144
 31
0.0
  0
TEXT
  5
D76
330
1F
100
AcDbEntity
  8
1
 62
     3
100
AcDbText
 10
33612.95771319268
 20
28566.05509677765
 30
0.0
 40
5.107133992513066
  1
マーク
 41
0.692308381786
  7
BIGFONT
100
AcDbText
  0
TEXT
  5
D77
330
1F
100
AcDbEntity
  8
1
 62
     3
100
AcDbText
 10
33498.00522295831
 20
28525.19800042348
 30
0.0
 40
7.466666666666665
  1
白
 41
0.6666666666670002
  7
BIGFONT
100
AcDbText
  0
TEXT
  5
D78
330
1F
100
AcDbEntity
  8
1
 62
     3
100
AcDbText
 10
33498.00522295831
 20
28506.86464267608
 30
0.0
 40
7.466666666666665
  1
黒
 41
0.6666666666670002
  7
BIGFONT
100
AcDbText
  0
TEXT
  5
D79
330
1F
100
AcDbEntity
  8
1
 62
     3
100
AcDbText
 10
33513.65886809825
 20
28498.5240935974
 30
0.0
 40
7.466666666666665
  1
アース
 41
0.6666666666670002
  7
BIGFONT
100
AcDbText
  0
TEXT
  5
D7A
330
1F
100
AcDbEntity
  8
1
 62
     3
100
AcDbText
 10
33518.43398272392
 20
28486.95986565786
 30
0.0
 40
7.466666666666665
  1
緑
 41
0.6666666666670002
  7
BIGFONT
100
AcDbText
  0
LINE
  5
D7B
330
1F
100
AcDbEntity
  8
1
  6
Continuous
 62
     3
100
AcDbLine
 10
33661.4220310773
 20
28576.34082441144
 30
0.0
 11
33661.4220310773
 21
28561.34082441144
 31
0.0
  0
LINE
  5
D7C
330
1F
100
AcDbEntity
  8
1
  6
Continuous
 62
     3
100
AcDbLine
 10
33661.4220310773
 20
28561.34082441144
 30
0.0
 11
33644.4220310773
 21
28561.34082441144
 31
0.0
  0
LINE
  5
D7D
330
1F
100
AcDbEntity
  8
1
  6
Continuous
 62
     3
100
AcDbLine
 10
33644.4220310773
 20
28561.34082441144
 30
0.0
 11
33644.4220310773
 21
28576.34082441144
 31
0.0
  0
LINE
  5
D7E
330
1F
100
AcDbEntity
  8
1
  6
Continuous
 62
     3
100
AcDbLine
 10
33644.4220310773
 20
28576.34082441144
 30
0.0
 11
33661.4220310773
 21
28576.34082441144
 31
0.0
  0
LINE
  5
D7F
330
1F
100
AcDbEntity
  8
1
  6
Continuous
 62
     3
100
AcDbLine
 10
33449.24640247564
 20
28561.34082441144
 30
0.0
 11
33449.24640247564
 21
28576.34082441144
 31
0.0
  0
TEXT
  5
D80
330
1F
100
AcDbEntity
  8
1
 62
     3
100
AcDbText
 10
33571.38645668226
 20
28583.86466709015
 30
0.0
 40
9.0
  1
防沫ソケット配線接続側
 41
0.6666666666670002
  7
BIGFONT
100
AcDbText
  0
LINE
  5
D81
330
1F
100
AcDbEntity
  8
1
  6
Continuous
 62
     3
100
AcDbLine
 10
33655.38631679159
 20
28576.34082441144
 30
0.0
 11
33651.86067576593
 21
28582.29320536382
 31
0.0
  0
LINE
  5
D82
330
1F
100
AcDbEntity
  8
1
  6
Continuous
 62
     3
100
AcDbLine
 10
33449.24640247564
 20
28571.84082441144
 30
0.0
 11
33438.2106881899
 21
28571.84082441144
 31
0.0
  0
LINE
  5
D83
330
1F
100
AcDbEntity
  8
1
  6
Continuous
 62
     3
100
AcDbLine
 10
33449.24640247564
 20
28565.84082441144
 30
0.0
 11
33438.2106881899
 21
28565.84082441144
 31
0.0
  0
LINE
  5
D84
330
1F
100
AcDbEntity
  8
1
  6
Continuous
 62
     3
100
AcDbLine
 10
33441.74640247564
 20
28575.09082441144
 30
0.0
 11
33435.85354533276
 21
28569.59082441144
 31
0.0
  0
LINE
  5
D85
330
1F
100
AcDbEntity
  8
1
  6
Continuous
 62
     3
100
AcDbLine
 10
33436.24640247564
 20
28575.4836815543
 30
0.0
 11
33441.74640247564
 21
28569.19796726859
 31
0.0
  0
LINE
  5
D86
330
1F
100
AcDbEntity
  8
1
  6
Continuous
 62
     3
100
AcDbLine
 10
33441.35354533277
 20
28568.41225298288
 30
0.0
 11
33435.85354533276
 21
28562.12653869715
 31
0.0
  0
LINE
  5
D87
330
1F
100
AcDbEntity
  8
1
  6
Continuous
 62
     3
100
AcDbLine
 10
33436.63925961847
 20
28568.01939584002
 30
0.0
 11
33440.17497390419
 21
28562.91225298288
 31
0.0
  0
TEXT
  5
D88
330
1F
100
AcDbEntity
  8
1
 62
     3
100
AcDbText
 10
33671.6286930104
 20
28552.07449781931
 30
0.0
 40
7.466666666666665
  1
＋
 41
0.6666666666670002
  7
BIGFONT
100
AcDbText
  0
TEXT
  5
D89
330
1F
100
AcDbEntity
  8
1
 62
     3
100
AcDbText
 10
33670.64103024997
 20
28575.77820875682
 30
0.0
 40
7.466666666666665
  1
－
 41
0.6666666666670002
  7
BIGFONT
100
AcDbText
  0
TEXT
  5
D8A
330
1F
100
AcDbEntity
  8
1
 62
     3
100
AcDbText
 10
33614.34470863538
 20
28502.69179111359
 30
0.0
 40
7.466666666666665
  1
－
 41
0.6666666666670002
  7
BIGFONT
100
AcDbText
  0
TEXT
  5
D8B
330
1F
100
AcDbEntity
  8
1
 62
     3
100
AcDbText
 10
33613.35707842704
 20
28525.40786370473
 30
0.0
 40
7.466666666666665
  1
＋
 41
0.6666666666670002
  7
BIGFONT
100
AcDbText
  0
TEXT
  5
D8C
330
1F
100
AcDbEntity
  8
1
 62
     3
100
AcDbText
 10
33523.43398272392
 20
28562.91219313182
 30
0.0
 40
12.0
  1
ＬＥＤ　ランプ
 41
0.6666666666670002
  7
BIGFONT
100
AcDbText
  0
TEXT
  5
D8D
330
1F
100
AcDbEntity
  8
1
 62
     3
100
AcDbText
 10
33538.75475065239
 20
28515.19440443158
 30
0.0
 40
9.600000000000001
  1
ＬＥＤ用電源
 41
0.6666666666670002
  7
BIGFONT
100
AcDbText
  0
LINE
  5
D8E
330
1F
100
AcDbEntity
  8
1
  6
Continuous
 62
     3
100
AcDbLine
 10
33530.56488822014
 20
28523.05511012573
 30
0.0
 11
33496.14822155348
 21
28523.10272917335
 31
0.0
  0
LINE
  5
D8F
330
1F
100
AcDbEntity
  8
1
  6
Continuous
 62
     3
100
AcDbLine
 10
33530.56488822014
 20
28517.05511012573
 30
0.0
 11
33497.19584060111
 21
28517.05511012573
 31
0.0
  0
TEXT
  5
D90
330
1F
100
AcDbEntity
  8
1
 62
     3
100
AcDbText
 10
33474.38649737235
 20
28513.67423740265
 30
0.0
 40
12.0
  1
電源
 41
0.6666666666670002
  7
BIGFONT
100
AcDbText
  0
LINE
  5
D91
330
1F
100
AcDbEntity
  8
1
  6
Continuous
 62
     3
100
AcDbLine
 10
33659.75017010164
 20
28573.98640177546
 30
0.0
 11
33654.41683676833
 21
28573.98640177546
 31
0.0
  0
LINE
  5
D92
330
1F
100
AcDbEntity
  8
1
  6
Continuous
 62
     3
100
AcDbLine
 10
33654.41683676833
 20
28573.98640177546
 30
0.0
 11
33654.41683676833
 21
28563.60164808974
 31
0.0
  0
LINE
  5
D93
330
1F
100
AcDbEntity
  8
1
  6
Continuous
 62
     3
100
AcDbLine
 10
33654.41683676833
 20
28563.60164808974
 30
0.0
 11
33659.75017010164
 21
28563.60164808974
 31
0.0
  0
LINE
  5
D94
330
1F
100
AcDbEntity
  8
1
  6
Continuous
 62
     3
100
AcDbLine
 10
33659.75017010164
 20
28573.98640177546
 30
0.0
 11
33659.75017010164
 21
28563.60164808974
 31
0.0
  0
LINE
  5
D95
330
1F
100
AcDbEntity
  8
1
  6
Continuous
 62
     3
100
AcDbLine
 10
33449.24640247564
 20
28561.34082441144
 30
0.0
 11
33449.24640247564
 21
28576.34082441144
 31
0.0
  0
LINE
  5
D96
330
1F
100
AcDbEntity
  8
1
  6
Continuous
 62
     3
100
AcDbLine
 10
33449.24640247564
 20
28576.34082441144
 30
0.0
 11
33466.24640247564
 21
28576.34082441144
 31
0.0
  0
LINE
  5
D97
330
1F
100
AcDbEntity
  8
1
  6
Continuous
 62
     3
100
AcDbLine
 10
33466.24640247564
 20
28576.34082441144
 30
0.0
 11
33466.24640247564
 21
28561.34082441144
 31
0.0
  0
LINE
  5
D98
330
1F
100
AcDbEntity
  8
1
  6
Continuous
 62
     3
100
AcDbLine
 10
33466.24640247564
 20
28561.34082441144
 30
0.0
 11
33449.24640247564
 21
28561.34082441144
 31
0.0
  0
LINE
  5
D99
330
1F
100
AcDbEntity
  8
1
  6
Continuous
 62
     3
100
AcDbLine
 10
33450.91826345126
 20
28563.69524704742
 30
0.0
 11
33456.2515967846
 21
28563.69524704742
 31
0.0
  0
LINE
  5
D9A
330
1F
100
AcDbEntity
  8
1
  6
Continuous
 62
     3
100
AcDbLine
 10
33456.2515967846
 20
28563.69524704742
 30
0.0
 11
33456.2515967846
 21
28574.08000073314
 31
0.0
  0
LINE
  5
D9B
330
1F
100
AcDbEntity
  8
1
  6
Continuous
 62
     3
100
AcDbLine
 10
33456.2515967846
 20
28574.08000073314
 30
0.0
 11
33450.91826345126
 21
28574.08000073314
 31
0.0
  0
LINE
  5
D9C
330
1F
100
AcDbEntity
  8
1
  6
Continuous
 62
     3
100
AcDbLine
 10
33450.91826345126
 20
28563.69524704742
 30
0.0
 11
33450.91826345126
 21
28574.08000073314
 31
0.0
  0
XLINE
  5
1123
330
1F
100
AcDbEntity
  8
オフセット
100
AcDbXline
 10
32915.44093491146
 20
27677.44632341185
 30
0.0
 11
-1.0
 21
0.0
 31
0.0
  0
XLINE
  5
1125
330
1F
100
AcDbEntity
  8
オフセット
100
AcDbXline
 10
32915.44093491146
 20
27806.29960941414
 30
0.0
 11
-1.0
 21
0.0
 31
0.0
  0
XLINE
  5
1126
330
1F
100
AcDbEntity
  8
オフセット
100
AcDbXline
 10
32915.44093491146
 20
27713.19632341184
 30
0.0
 11
-1.0
 21
0.0
 31
0.0
  0
LINE
  5
11C6
330
1F
100
AcDbEntity
  8
外形線
100
AcDbLine
 10
33678.53638066463
 20
28797.07099312465
 30
0.0
 11
33678.53638066463
 21
28816.07099312465
 31
0.0
  0
LINE
  5
11C7
330
1F
100
AcDbEntity
  8
外形線
100
AcDbLine
 10
33679.03638066463
 20
28816.57099312464
 30
0.0
 11
33700.53638066463
 21
28816.57099312464
 31
0.0
  0
ARC
  5
11C8
330
1F
100
AcDbEntity
  8
外形線
100
AcDbCircle
 10
33679.03638066463
 20
28816.07099312465
 30
0.0
 40
0.5
100
AcDbArc
 50
90.0
 51
180.0
  0
LINE
  5
11C9
330
1F
100
AcDbEntity
  8
外形線
100
AcDbLine
 10
33700.53638066463
 20
28807.57099312464
 30
0.0
 11
33700.53638066463
 21
28797.07099312465
 31
0.0
  0
ARC
  5
11CA
330
1F
100
AcDbEntity
  8
外形線
100
AcDbCircle
 10
33700.03638066463
 20
28797.07099312465
 30
0.0
 40
0.5
100
AcDbArc
 50
270.0
 51
0.0
  0
LINE
  5
11CB
330
1F
100
AcDbEntity
  8
外形線
100
AcDbLine
 10
33700.03638066463
 20
28796.57099312465
 30
0.0
 11
33679.03638066463
 21
28796.57099312465
 31
0.0
  0
ARC
  5
11CC
330
1F
100
AcDbEntity
  8
外形線
100
AcDbCircle
 10
33679.03638066463
 20
28797.07099312465
 30
0.0
 40
0.5
100
AcDbArc
 50
180.0
 51
270.0
  0
LINE
  5
11CD
330
1F
100
AcDbEntity
  8
外形線
100
AcDbLine
 10
33700.53638066463
 20
28816.57099312464
 30
0.0
 11
33712.03638066463
 21
28816.57099312464
 31
0.0
  0
LINE
  5
11CE
330
1F
100
AcDbEntity
  8
外形線
100
AcDbLine
 10
33712.53638066463
 20
28816.07099312465
 30
0.0
 11
33712.53638066463
 21
28808.07099312465
 31
0.0
  0
ARC
  5
11CF
330
1F
100
AcDbEntity
  8
外形線
100
AcDbCircle
 10
33712.03638066463
 20
28816.07099312465
 30
0.0
 40
0.5
100
AcDbArc
 50
0.0
 51
90.0
  0
ARC
  5
11D0
330
1F
100
AcDbEntity
  8
外形線
100
AcDbCircle
 10
33712.03638066463
 20
28808.07099312465
 30
0.0
 40
0.5
100
AcDbArc
 50
270.0
 51
0.0
  0
LINE
  5
11D1
330
1F
100
AcDbEntity
  8
外形線
100
AcDbLine
 10
33712.53638066463
 20
28807.57099312464
 30
0.0
 11
33700.53638066463
 21
28807.57099312464
 31
0.0
  0
LINE
  5
11D2
330
1F
100
AcDbEntity
  8
外形線
100
AcDbLine
 10
33701.03638066463
 20
28807.57099312464
 30
0.0
 11
33701.03638066463
 21
28806.07099312465
 31
0.0
  0
LINE
  5
11D3
330
1F
100
AcDbEntity
  8
外形線
100
AcDbLine
 10
33701.53638066463
 20
28805.57099312465
 30
0.0
 11
33712.03638066463
 21
28805.57099312465
 31
0.0
  0
ARC
  5
11D4
330
1F
100
AcDbEntity
  8
外形線
100
AcDbCircle
 10
33701.53638066463
 20
28806.07099312465
 30
0.0
 40
0.5
100
AcDbArc
 50
180.0
 51
270.0
  0
LINE
  5
11D5
330
1F
100
AcDbEntity
  8
外形線
100
AcDbLine
 10
33712.53638066463
 20
28806.07099312465
 30
0.0
 11
33712.53638066463
 21
28807.57099312464
 31
0.0
  0
ARC
  5
11D6
330
1F
100
AcDbEntity
  8
外形線
100
AcDbCircle
 10
33712.03638066463
 20
28806.07099312465
 30
0.0
 40
0.5
100
AcDbArc
 50
270.0
 51
0.0
  0
LINE
  5
11D7
330
1F
100
AcDbEntity
  8
外形線
100
AcDbLine
 10
33859.33638066461
 20
28792.57099312465
 30
0.0
 11
33859.33638066461
 21
28816.57099312464
 31
0.0
  0
LINE
  5
11D8
330
1F
100
AcDbEntity
  8
外形線
100
AcDbLine
 10
33859.33638066461
 20
28816.57099312464
 30
0.0
 11
33986.33638066461
 21
28816.57099312464
 31
0.0
  0
LINE
  5
11D9
330
1F
100
AcDbEntity
  8
外形線
100
AcDbLine
 10
33986.33638066461
 20
28816.57099312464
 30
0.0
 11
33986.33638066461
 21
28792.57099312465
 31
0.0
  0
ARC
  5
11DA
330
1F
100
AcDbEntity
  8
外形線
100
AcDbCircle
 10
33985.33638066461
 20
28792.57099312465
 30
0.0
 40
1.0
100
AcDbArc
 50
270.0
 51
0.0
  0
LINE
  5
11DB
102
{ACAD_REACTORS
330
1864
102
}
330
1F
100
AcDbEntity
  8
外形線
100
AcDbLine
 10
33985.33638066461
 20
28791.57099312465
 30
0.0
 11
33860.33638066461
 21
28791.57099312465
 31
0.0
  0
ARC
  5
11DC
330
1F
100
AcDbEntity
  8
外形線
100
AcDbCircle
 10
33860.33638066461
 20
28792.57099312465
 30
0.0
 40
1.0
100
AcDbArc
 50
180.0
 51
270.0
  0
LINE
  5
11DD
330
1F
100
AcDbEntity
  8
外形線
100
AcDbLine
 10
33859.33638066461
 20
28808.57099312465
 30
0.0
 11
33855.73638066461
 21
28814.57099312465
 31
0.0
  0
LINE
  5
11DE
330
1F
100
AcDbEntity
  8
外形線
100
AcDbLine
 10
33855.73638066461
 20
28814.57099312465
 30
0.0
 11
33847.83638066461
 21
28814.57099312465
 31
0.0
  0
LINE
  5
11DF
330
1F
100
AcDbEntity
  8
外形線
100
AcDbLine
 10
33847.33638066461
 20
28815.07099312464
 30
0.0
 11
33847.33638066461
 21
28816.57099312464
 31
0.0
  0
ARC
  5
11E0
330
1F
100
AcDbEntity
  8
外形線
100
AcDbCircle
 10
33847.83638066461
 20
28815.07099312464
 30
0.0
 40
0.5
100
AcDbArc
 50
180.0
 51
270.0
  0
LINE
  5
11E1
330
1F
100
AcDbEntity
  8
外形線
100
AcDbLine
 10
33847.33638066461
 20
28816.57099312464
 30
0.0
 11
33859.33638066461
 21
28816.57099312464
 31
0.0
  0
LINE
  5
11E2
330
1F
100
AcDbEntity
  8
外形線
100
AcDbLine
 10
33986.33638066461
 20
28808.57099312465
 30
0.0
 11
33989.93638066461
 21
28814.57099312465
 31
0.0
  0
LINE
  5
11E3
330
1F
100
AcDbEntity
  8
外形線
100
AcDbLine
 10
33989.93638066461
 20
28814.57099312465
 30
0.0
 11
33997.83638066461
 21
28814.57099312465
 31
0.0
  0
LINE
  5
11E4
330
1F
100
AcDbEntity
  8
外形線
100
AcDbLine
 10
33998.33638066461
 20
28815.07099312464
 30
0.0
 11
33998.33638066461
 21
28816.57099312464
 31
0.0
  0
ARC
  5
11E5
330
1F
100
AcDbEntity
  8
外形線
100
AcDbCircle
 10
33997.83638066461
 20
28815.07099312464
 30
0.0
 40
0.5
100
AcDbArc
 50
270.0
 51
0.0
  0
LINE
  5
11E6
330
1F
100
AcDbEntity
  8
外形線
100
AcDbLine
 10
33998.33638066461
 20
28816.57099312464
 30
0.0
 11
33986.33638066461
 21
28816.57099312464
 31
0.0
  0
LINE
  5
11F0
330
1F
100
AcDbEntity
  8
点線
100
AcDbLine
 10
33541.74752628261
 20
28837.21542031565
 30
0.0
 11
33542.53638066461
 21
28836.82099312465
 31
0.0
  0
ARC
  5
11F1
330
1F
100
AcDbEntity
  8
点線
100
AcDbCircle
 10
33541.30031268711
 20
28836.32099312465
 30
0.0
 40
1.0
100
AcDbArc
 50
63.43494882293075
 51
90.0
  0
LINE
  5
11F2
330
1F
100
AcDbEntity
  8
点線
100
AcDbLine
 10
33542.53638066461
 20
28836.82099312465
 30
0.0
 11
33542.53638066461
 21
28867.82099312465
 31
0.0
  0
LINE
  5
11F3
330
1F
100
AcDbEntity
  8
点線
100
AcDbLine
 10
33542.53638066461
 20
28867.82099312465
 30
0.0
 11
33541.74752628261
 21
28867.42656593364
 31
0.0
  0
ARC
  5
11F4
330
1F
100
AcDbEntity
  8
点線
100
AcDbCircle
 10
33541.30031268711
 20
28868.32099312464
 30
0.0
 40
1.0
100
AcDbArc
 50
270.0
 51
296.5650511770692
  0
LINE
  5
11F5
330
1F
100
AcDbEntity
  8
点線
100
AcDbLine
 10
33541.30031268711
 20
28867.32099312465
 30
0.0
 11
33532.53638066461
 21
28867.32099312465
 31
0.0
  0
LINE
  5
11F6
330
1F
100
AcDbEntity
  8
点線
100
AcDbLine
 10
33531.53638066461
 20
28866.32099312464
 30
0.0
 11
33531.53638066461
 21
28838.32099312465
 31
0.0
  0
ARC
  5
11F7
330
1F
100
AcDbEntity
  8
点線
100
AcDbCircle
 10
33532.53638066461
 20
28866.32099312464
 30
0.0
 40
1.0
100
AcDbArc
 50
90.0
 51
180.0
  0
LINE
  5
11F8
330
1F
100
AcDbEntity
  8
点線
100
AcDbLine
 10
33532.53638066461
 20
28837.32099312465
 30
0.0
 11
33541.30031268711
 21
28837.32099312465
 31
0.0
  0
ARC
  5
11F9
330
1F
100
AcDbEntity
  8
点線
100
AcDbCircle
 10
33532.53638066461
 20
28838.32099312465
 30
0.0
 40
1.0
100
AcDbArc
 50
180.0
 51
270.0
  0
LINE
  5
11FA
330
1F
100
AcDbEntity
  8
点線
100
AcDbLine
 10
34351.31210967712
 20
28837.21542031565
 30
0.0
 11
34350.52325529512
 21
28836.82099312465
 31
0.0
  0
ARC
  5
11FB
330
1F
100
AcDbEntity
  8
点線
100
AcDbCircle
 10
34351.75932327262
 20
28836.32099312465
 30
0.0
 40
1.0
100
AcDbArc
 50
90.0
 51
116.5650511770983
  0
LINE
  5
11FC
330
1F
100
AcDbEntity
  8
点線
100
AcDbLine
 10
34350.52325529512
 20
28836.82099312465
 30
0.0
 11
34350.52325529512
 21
28867.82099312465
 31
0.0
  0
LINE
  5
11FD
330
1F
100
AcDbEntity
  8
点線
100
AcDbLine
 10
34350.52325529512
 20
28867.82099312465
 30
0.0
 11
34351.31210967712
 21
28867.42656593364
 31
0.0
  0
ARC
  5
11FE
330
1F
100
AcDbEntity
  8
点線
100
AcDbCircle
 10
34351.75932327262
 20
28868.32099312464
 30
0.0
 40
1.0
100
AcDbArc
 50
243.4349488229016
 51
270.0
  0
LINE
  5
11FF
330
1F
100
AcDbEntity
  8
点線
100
AcDbLine
 10
34351.75932327262
 20
28867.32099312465
 30
0.0
 11
34360.52325529512
 21
28867.32099312465
 31
0.0
  0
LINE
  5
1200
330
1F
100
AcDbEntity
  8
点線
100
AcDbLine
 10
34361.52325529512
 20
28866.32099312464
 30
0.0
 11
34361.52325529512
 21
28838.32099312465
 31
0.0
  0
ARC
  5
1201
330
1F
100
AcDbEntity
  8
点線
100
AcDbCircle
 10
34360.52325529512
 20
28866.32099312464
 30
0.0
 40
1.0
100
AcDbArc
 50
0.0
 51
90.0
  0
LINE
  5
1202
330
1F
100
AcDbEntity
  8
点線
100
AcDbLine
 10
34360.52325529512
 20
28837.32099312465
 30
0.0
 11
34351.75932327262
 21
28837.32099312465
 31
0.0
  0
ARC
  5
1203
330
1F
100
AcDbEntity
  8
点線
100
AcDbCircle
 10
34360.52325529512
 20
28838.32099312465
 30
0.0
 40
1.0
100
AcDbArc
 50
270.0
 51
0.0
  0
LINE
  5
1204
330
1F
100
AcDbEntity
  8
点線
100
AcDbLine
 10
33542.53638066461
 20
28866.82099312465
 30
0.0
 11
33946.53638066461
 21
28866.82099312465
 31
0.0
  0
LINE
  5
1205
330
1F
100
AcDbEntity
  8
点線
100
AcDbLine
 10
34350.52325529512
 20
28837.82099312464
 30
0.0
 11
33946.53638066461
 21
28837.82099312464
 31
0.0
  0
LINE
  5
120A
330
1F
100
AcDbEntity
  8
点線
100
AcDbLine
 10
33946.53638066461
 20
28866.82099312465
 30
0.0
 11
34350.52325529512
 21
28866.82099312465
 31
0.0
  0
LINE
  5
120B
330
1F
100
AcDbEntity
  8
点線
100
AcDbLine
 10
33946.53638066461
 20
28837.82099312464
 30
0.0
 11
33542.53638066461
 21
28837.82099312464
 31
0.0
  0
XLINE
  5
1230
330
1F
100
AcDbEntity
  8
オフセット
100
AcDbXline
 10
32915.44093491146
 20
27877.44632341185
 30
0.0
 11
-1.0
 21
0.0
 31
0.0
  0
XLINE
  5
129A
330
1F
100
AcDbEntity
  8
オフセット
100
AcDbXline
 10
32915.44093491146
 20
27897.44632341184
 30
0.0
 11
-1.0
 21
0.0
 31
0.0
  0
XLINE
  5
129B
330
1F
100
AcDbEntity
  8
オフセット
100
AcDbXline
 10
32915.44093491146
 20
27657.44632341184
 30
0.0
 11
-1.0
 21
0.0
 31
0.0
  0
DIMENSION
  5
1314
102
{ACAD_XDICTIONARY
360
1322
102
}
102
{ACAD_REACTORS
330
132D
102
}
330
1F
100
AcDbEntity
  8
寸法線
100
AcDbDimension
280
     0
  2
*D5
 10
34587.14958834097
 20
28908.71222087823
 30
0.0
 11
34602.83939052378
 21
28919.37814857264
 31
0.0
 70
    32
 71
     5
 42
20.99999999999273
 73
     0
 74
     0
 75
     0
  3
ISO-25
100
AcDbAlignedDimension
 13
34566.14958834098
 23
28878.57099312465
 33
0.0
 14
34587.14958834097
 24
28852.32099312465
 34
0.0
100
AcDbRotatedDimension
  0
CIRCLE
  5
13AF
330
1F
100
AcDbEntity
  8
○
100
AcDbCircle
 10
34448.66775344991
 20
29005.42427912693
 30
0.0
 40
15.0
  0
MTEXT
  5
13B0
330
1F
100
AcDbEntity
  8
寸法線
100
AcDbMText
 10
34442.17492498819
 20
29015.16812961794
 30
0.0
 40
20.0
 41
35.534113038535
 46
0.0
 71
     1
 72
     5
  1
2
 73
     1
 44
1.0
1001
ACAD
1000
ACAD_MTEXT_COLUMN_INFO_BEGIN
1070
    75
1070
     2
1070
    79
1070
     0
1070
    76
1070
     1
1070
    78
1070
     0
1070
    48
1040
35.534113038535
1070
    49
1040
12.5
1070
    50
1070
     1
1040
0.0
1000
ACAD_MTEXT_COLUMN_INFO_END
  0
LINE
  5
13B1
330
1F
100
AcDbEntity
  8
○
100
AcDbLine
 10
34439.8859765039
 20
29017.5848874041
 30
0.0
 11
34388.00800881816
 21
29062.81583350582
 31
0.0
  0
LINE
  5
13B2
330
1F
100
AcDbEntity
  8
○
100
AcDbLine
 10
34439.14966609142
 20
28994.28362962466
 30
0.0
 11
34385.03299586956
 21
28838.87147744082
 31
0.0
  0
MTEXT
  5
13B3
330
1F
100
AcDbEntity
  8
寸法線
100
AcDbMText
 10
34053.8154419997
 20
29341.17287490402
 30
0.0
 40
9.600000000000001
 41
206.0602204717434
 46
0.0
 71
     1
 72
     5
  1
{\fMS PGothic|b0|i0|c128|p50;ランプソケット取付金具}
 73
     1
 44
1.0
1001
ACAD
1000
ACAD_MTEXT_COLUMN_INFO_BEGIN
1070
    75
1070
     2
1070
    79
1070
     0
1070
    76
1070
     1
1070
    78
1070
     0
1070
    48
1040
206.0602204717434
1070
    49
1040
12.5
1070
    50
1070
     1
1040
0.0
1000
ACAD_MTEXT_COLUMN_INFO_END
  0
MTEXT
  5
13B4
330
1F
100
AcDbEntity
  8
寸法線
100
AcDbMText
 10
34234.698096507
 20
29345.69618849504
 30
0.0
 40
8.0
 41
163.0743348696414
 46
0.0
 71
     1
 72
     5
  1
{\fMS PGothic|b0|i0|c128|p50;鋼鈑　}1{\fMS PGothic|b0|i0|c128|p50;ｔ}\P{\fMS PGothic|b0|i0|c128|p50;（亜鉛メッキ板）}
 73
     1
 44
1.0
1001
ACAD
1000
ACAD_MTEXT_COLUMN_INFO_BEGIN
1070
    75
1070
     2
1070
    79
1070
     0
1070
    76
1070
     1
1070
    78
1070
     0
1070
    48
1040
163.0743348696414
1070
    49
1040
12.5
1070
    50
1070
     1
1040
0.0
1000
ACAD_MTEXT_COLUMN_INFO_END
  0
LINE
  5
15B9
330
1F
100
AcDbEntity
  8
外形線
100
AcDbLine
 10
33516.53638066461
 20
28826.57099312464
 30
0.0
 11
33516.53638066461
 21
28816.57099312464
 31
0.0
  0
LINE
  5
15BA
330
1F
100
AcDbEntity
  8
外形線
100
AcDbLine
 10
33516.53638066461
 20
28816.57099312464
 30
0.0
 11
34387.53638066461
 21
28816.57099312464
 31
0.0
  0
LINE
  5
15BB
102
{ACAD_REACTORS
330
184A
330
1864
102
}
330
1F
100
AcDbEntity
  8
外形線
100
AcDbLine
 10
34387.53638066461
 20
28816.57099312464
 30
0.0
 11
34387.53638066461
 21
28826.57099312464
 31
0.0
  0
LINE
  5
15BC
330
1F
100
AcDbEntity
  8
外形線
100
AcDbLine
 10
34387.53638066461
 20
28826.57099312464
 30
0.0
 11
33516.53638066461
 21
28826.57099312464
 31
0.0
  0
LINE
  5
15BD
330
1F
100
AcDbEntity
  8
外形線
100
AcDbLine
 10
33516.53638066461
 20
28823.57099312465
 30
0.0
 11
33515.85309909161
 21
28824.93755627065
 31
0.0
  0
ARC
  5
15BE
330
1F
100
AcDbEntity
  8
外形線
100
AcDbCircle
 10
33518.53638066461
 20
28826.27919705715
 30
0.0
 40
3.0
100
AcDbArc
 50
180.0
 51
206.5650511770802
  0
LINE
  5
15BF
330
1F
100
AcDbEntity
  8
外形線
100
AcDbLine
 10
33515.53638066461
 20
28826.27919705715
 30
0.0
 11
33515.53638066461
 21
28830.36388634345
 31
0.0
  0
ARC
  5
15C0
330
1F
100
AcDbEntity
  8
外形線
100
AcDbCircle
 10
33516.03638066461
 20
28830.36388634345
 30
0.0
 40
0.5
100
AcDbArc
 50
135.000000000008
 51
180.0
  0
LINE
  5
15C1
330
1F
100
AcDbEntity
  8
外形線
100
AcDbLine
 10
33515.68282727401
 20
28830.71743973405
 30
0.0
 11
33516.3899340552
 21
28831.42454651524
 31
0.0
  0
ARC
  5
15C2
330
1F
100
AcDbEntity
  8
外形線
100
AcDbCircle
 10
33516.03638066461
 20
28831.77809990584
 30
0.0
 40
0.5
100
AcDbArc
 50
315.000000000008
 51
0.0
  0
LINE
  5
15C3
330
1F
100
AcDbEntity
  8
外形線
100
AcDbLine
 10
33516.53638066461
 20
28831.77809990584
 30
0.0
 11
33516.53638066461
 21
28868.57099312464
 31
0.0
  0
LINE
  5
15C4
330
1F
100
AcDbEntity
  8
外形線
100
AcDbLine
 10
33517.5363806646
 20
28848.57099312465
 30
0.0
 11
33519.81228258515
 21
28848.11581274054
 31
0.0
  0
LINE
  5
15C5
330
1F
100
AcDbEntity
  8
外形線
100
AcDbLine
 10
33517.5363806646
 20
28848.57099312465
 30
0.0
 11
33517.5363806646
 21
28868.57099312464
 31
0.0
  0
LINE
  5
15C6
330
1F
100
AcDbEntity
  8
外形線
100
AcDbLine
 10
33517.5363806646
 20
28868.57099312464
 30
0.0
 11
33516.53638066461
 21
28868.57099312464
 31
0.0
  0
ELLIPSE
  5
15C7
330
1F
100
AcDbEntity
  8
外形線
100
AcDbEllipse
 10
33519.89352352175
 20
28846.07099312465
 30
0.0
 11
-2.35714285713766
 21
1.5
 31
0.0
210
0.0
220
0.0
230
1.0
 40
0.6753514169109462
 41
3.682438273673346
 42
4.822127997503216
  0
ARC
  5
15C8
330
1F
100
AcDbEntity
  8
外形線
100
AcDbCircle
 10
33519.22393417966
 20
28845.17407071336
 30
0.0
 40
3.0
100
AcDbArc
 50
61.78442072581511
 51
78.69006752528486
  0
LINE
  5
15C9
330
1F
100
AcDbEntity
  8
外形線
100
AcDbLine
 10
33517.5363806646
 20
28868.07099312465
 30
0.0
 11
33518.03638066461
 21
28868.07099312465
 31
0.0
  0
LINE
  5
15CA
330
1F
100
AcDbEntity
  8
外形線
100
AcDbLine
 10
33518.03638066461
 20
28868.07099312465
 30
0.0
 11
33518.03638066461
 21
28848.47099312464
 31
0.0
  0
LINE
  5
15CB
330
1F
100
AcDbEntity
  8
外形線
100
AcDbLine
 10
33518.03638066461
 20
28868.07099312465
 30
0.0
 11
33530.03638066461
 21
28868.07099312465
 31
0.0
  0
LINE
  5
15CC
330
1F
100
AcDbEntity
  8
外形線
100
AcDbLine
 10
33531.0363806646
 20
28867.07099312465
 30
0.0
 11
33531.0363806646
 21
28837.57099312465
 31
0.0
  0
ARC
  5
15CD
330
1F
100
AcDbEntity
  8
外形線
100
AcDbCircle
 10
33530.03638066461
 20
28867.07099312465
 30
0.0
 40
1.0
100
AcDbArc
 50
0.0
 51
90.0
  0
ARC
  5
15CE
330
1F
100
AcDbEntity
  8
外形線
100
AcDbCircle
 10
33530.03638066461
 20
28837.57099312465
 30
0.0
 40
1.0
100
AcDbArc
 50
270.0
 51
0.0
  0
LINE
  5
15CF
330
1F
100
AcDbEntity
  8
外形線
100
AcDbLine
 10
33530.03638066461
 20
28836.57099312465
 30
0.0
 11
33522.43580815418
 21
28836.57099312465
 31
0.0
  0
LINE
  5
15D0
330
1F
100
AcDbEntity
  8
外形線
100
AcDbLine
 10
33522.43580815418
 20
28845.60468997943
 30
0.0
 11
33522.43580815418
 21
28836.57099312465
 31
0.0
  0
LINE
  5
15D1
330
1F
100
AcDbEntity
  8
外形線
100
AcDbLine
 10
33522.43580815418
 20
28836.57099312465
 30
0.0
 11
33522.43580815417
 21
28831.60986501274
 31
0.0
  0
ARC
  5
15D2
330
1F
100
AcDbEntity
  8
外形線
100
AcDbCircle
 10
33512.98839680287
 20
28833.02894359719
 30
0.0
 40
9.559246875214904
100
AcDbArc
 50
323.1356689796071
 51
350.9878324004475
  0
ARC
  5
15D3
330
1F
100
AcDbEntity
  8
外形線
100
AcDbCircle
 10
33521.0363806646
 20
28826.99417734541
 30
0.0
 40
0.5
100
AcDbArc
 50
143.1356689792651
 51
180.0000000008337
  0
ARC
  5
15D4
330
1F
100
AcDbEntity
  8
外形線
100
AcDbCircle
 10
33521.93580815418
 20
28831.60986501274
 30
0.0
 40
0.5
100
AcDbArc
 50
350.9878324008564
 51
0.0
  0
LINE
  5
15D5
330
1F
100
AcDbEntity
  8
外形線
100
AcDbLine
 10
33520.53638066461
 20
28826.57099312464
 30
0.0
 11
33520.53638066461
 21
28826.9941773454
 31
0.0
  0
LINE
  5
15D6
330
1F
100
AcDbEntity
  8
外形線
100
AcDbLine
 10
34387.53638066461
 20
28823.57099312465
 30
0.0
 11
34388.21966223761
 21
28824.93755627065
 31
0.0
  0
ARC
  5
15D7
330
1F
100
AcDbEntity
  8
外形線
100
AcDbCircle
 10
34385.53638066461
 20
28826.27919705715
 30
0.0
 40
3.0
100
AcDbArc
 50
333.4349488229198
 51
0.0
  0
LINE
  5
15D8
330
1F
100
AcDbEntity
  8
外形線
100
AcDbLine
 10
34388.53638066461
 20
28826.27919705715
 30
0.0
 11
34388.53638066461
 21
28830.36388634345
 31
0.0
  0
ARC
  5
15D9
330
1F
100
AcDbEntity
  8
外形線
100
AcDbCircle
 10
34388.03638066461
 20
28830.36388634345
 30
0.0
 40
0.5
100
AcDbArc
 50
0.0
 51
44.99999999954977
  0
LINE
  5
15DA
330
1F
100
AcDbEntity
  8
外形線
100
AcDbLine
 10
34388.3899340552
 20
28830.71743973405
 30
0.0
 11
34387.68282727401
 21
28831.42454651524
 31
0.0
  0
ARC
  5
15DB
330
1F
100
AcDbEntity
  8
外形線
100
AcDbCircle
 10
34388.03638066461
 20
28831.77809990584
 30
0.0
 40
0.5
100
AcDbArc
 50
180.0
 51
224.9999999995498
  0
LINE
  5
15DC
330
1F
100
AcDbEntity
  8
外形線
100
AcDbLine
 10
34387.53638066461
 20
28831.77809990584
 30
0.0
 11
34387.53638066461
 21
28868.57099312464
 31
0.0
  0
LINE
  5
15DD
330
1F
100
AcDbEntity
  8
外形線
100
AcDbLine
 10
34386.5363806646
 20
28848.57099312465
 30
0.0
 11
34384.26047874406
 21
28848.11581274054
 31
0.0
  0
LINE
  5
15DE
330
1F
100
AcDbEntity
  8
外形線
100
AcDbLine
 10
34386.5363806646
 20
28848.57099312465
 30
0.0
 11
34386.5363806646
 21
28868.57099312464
 31
0.0
  0
LINE
  5
15DF
102
{ACAD_REACTORS
330
184A
102
}
330
1F
100
AcDbEntity
  8
外形線
100
AcDbLine
 10
34386.5363806646
 20
28868.57099312464
 30
0.0
 11
34387.53638066461
 21
28868.57099312464
 31
0.0
  0
ELLIPSE
  5
15E0
330
1F
100
AcDbEntity
  8
外形線
100
AcDbEllipse
 10
34384.17923780747
 20
28846.07099312465
 30
0.0
 11
2.35714285713766
 21
1.5
 31
0.0
210
0.0
220
0.0
230
-1.0
 40
0.6753514169109462
 41
3.682438273673346
 42
4.822127997503216
  0
ARC
  5
15E1
330
1F
100
AcDbEntity
  8
外形線
100
AcDbCircle
 10
34384.84882714955
 20
28845.17407071336
 30
0.0
 40
3.0
100
AcDbArc
 50
101.3099324747151
 51
118.2155792741848
  0
LINE
  5
15E2
330
1F
100
AcDbEntity
  8
外形線
100
AcDbLine
 10
34386.5363806646
 20
28868.07099312465
 30
0.0
 11
34386.03638066461
 21
28868.07099312465
 31
0.0
  0
LINE
  5
15E3
330
1F
100
AcDbEntity
  8
外形線
100
AcDbLine
 10
34386.03638066461
 20
28868.07099312465
 30
0.0
 11
34386.03638066461
 21
28848.47099312464
 31
0.0
  0
LINE
  5
15E4
330
1F
100
AcDbEntity
  8
外形線
100
AcDbLine
 10
34386.03638066461
 20
28868.07099312465
 30
0.0
 11
34372.03638066461
 21
28868.07099312465
 31
0.0
  0
LINE
  5
15E5
330
1F
100
AcDbEntity
  8
外形線
100
AcDbLine
 10
34371.03638066461
 20
28867.07099312465
 30
0.0
 11
34371.03638066461
 21
28837.57099312465
 31
0.0
  0
ARC
  5
15E6
330
1F
100
AcDbEntity
  8
外形線
100
AcDbCircle
 10
34372.03638066461
 20
28867.07099312465
 30
0.0
 40
1.0
100
AcDbArc
 50
90.0
 51
180.0
  0
ARC
  5
15E7
330
1F
100
AcDbEntity
  8
外形線
100
AcDbCircle
 10
34372.03638066461
 20
28837.57099312465
 30
0.0
 40
1.0
100
AcDbArc
 50
180.0
 51
270.0
  0
LINE
  5
15E8
330
1F
100
AcDbEntity
  8
外形線
100
AcDbLine
 10
34372.03638066461
 20
28836.57099312465
 30
0.0
 11
34381.63695317502
 21
28836.57099312465
 31
0.0
  0
LINE
  5
15E9
330
1F
100
AcDbEntity
  8
外形線
100
AcDbLine
 10
34381.63695317503
 20
28845.60468997943
 30
0.0
 11
34381.63695317503
 21
28836.57099312465
 31
0.0
  0
LINE
  5
15EA
330
1F
100
AcDbEntity
  8
外形線
100
AcDbLine
 10
34381.63695317503
 20
28836.57099312465
 30
0.0
 11
34381.63695317504
 21
28831.60986501274
 31
0.0
  0
ARC
  5
15EB
330
1F
100
AcDbEntity
  8
外形線
100
AcDbCircle
 10
34391.08436452634
 20
28833.02894359719
 30
0.0
 40
9.559246875214904
100
AcDbArc
 50
189.0121675995525
 51
216.8643310199858
  0
ARC
  5
15EC
330
1F
100
AcDbEntity
  8
外形線
100
AcDbCircle
 10
34383.03638066461
 20
28826.99417734541
 30
0.0
 40
0.5
100
AcDbArc
 50
359.9999999991662
 51
36.86433102115731
  0
ARC
  5
15ED
330
1F
100
AcDbEntity
  8
外形線
100
AcDbCircle
 10
34382.13695317503
 20
28831.60986501274
 30
0.0
 40
0.5
100
AcDbArc
 50
180.0
 51
189.0121675991434
  0
LINE
  5
15EE
330
1F
100
AcDbEntity
  8
外形線
100
AcDbLine
 10
34383.53638066461
 20
28826.57099312464
 30
0.0
 11
34383.53638066461
 21
28826.9941773454
 31
0.0
  0
LINE
  5
15EF
330
1F
100
AcDbEntity
  8
外形線
100
AcDbLine
 10
34371.03638066461
 20
28863.62099312465
 30
0.0
 11
34362.53638066461
 21
28863.62099312465
 31
0.0
  0
ARC
  5
15F0
330
1F
100
AcDbEntity
  8
外形線
100
AcDbCircle
 10
34362.53638066461
 20
28863.12099312465
 30
0.0
 40
0.5
100
AcDbArc
 50
90.0
 51
180.0
  0
LINE
  5
15F1
330
1F
100
AcDbEntity
  8
外形線
100
AcDbLine
 10
34362.03638066461
 20
28863.12099312465
 30
0.0
 11
34362.03638066461
 21
28841.52099312464
 31
0.0
  0
LINE
  5
15F2
330
1F
100
AcDbEntity
  8
外形線
100
AcDbLine
 10
34362.53638066461
 20
28841.02099312464
 30
0.0
 11
34371.03638066461
 21
28841.02099312464
 31
0.0
  0
ARC
  5
15F3
330
1F
100
AcDbEntity
  8
外形線
100
AcDbCircle
 10
34362.53638066461
 20
28841.52099312464
 30
0.0
 40
0.5
100
AcDbArc
 50
180.0
 51
270.0
  0
LINE
  5
15F4
330
1F
100
AcDbEntity
  8
外形線
100
AcDbLine
 10
33554.03638066461
 20
28816.57099312464
 30
0.0
 11
33554.03638066461
 21
28813.07099312465
 31
0.0
  0
LINE
  5
15F5
330
1F
100
AcDbEntity
  8
外形線
100
AcDbLine
 10
33554.53638066461
 20
28812.57099312465
 30
0.0
 11
33573.53638066461
 21
28812.57099312465
 31
0.0
  0
ARC
  5
15F6
330
1F
100
AcDbEntity
  8
外形線
100
AcDbCircle
 10
33554.53638066461
 20
28813.07099312465
 30
0.0
 40
0.5
100
AcDbArc
 50
180.0
 51
270.0
  0
LINE
  5
15F7
330
1F
100
AcDbEntity
  8
外形線
100
AcDbLine
 10
33574.03638066461
 20
28813.07099312465
 30
0.0
 11
33574.03638066461
 21
28816.57099312464
 31
0.0
  0
ARC
  5
15F8
330
1F
100
AcDbEntity
  8
外形線
100
AcDbCircle
 10
33573.53638066461
 20
28813.07099312465
 30
0.0
 40
0.5
100
AcDbArc
 50
270.0
 51
0.0
  0
LINE
  5
15F9
330
1F
100
AcDbEntity
  8
外形線
100
AcDbLine
 10
33574.03638066461
 20
28814.57099312465
 30
0.0
 11
33574.53638066461
 21
28814.57099312465
 31
0.0
  0
ARC
  5
15FA
330
1F
100
AcDbEntity
  8
外形線
100
AcDbCircle
 10
33575.0056042582
 20
28816.54696363265
 30
0.0
 40
2.030918567864959
100
AcDbArc
 50
256.6416865202857
 51
0.6779299878933172
  0
ARC
  5
15FB
330
1F
100
AcDbEntity
  8
外形線
100
AcDbCircle
 10
33575.04599690062
 20
28816.52784326052
 30
0.0
 40
1.617898346868975
100
AcDbArc
 50
251.6399975157815
 51
1.371947721248656
  0
LINE
  5
15FC
330
1F
100
AcDbEntity
  8
外形線
100
AcDbLine
 10
33574.53638066461
 20
28816.57099312464
 30
0.0
 11
33574.53638066461
 21
28814.99230219862
 31
0.0
  0
LINE
  5
15FD
330
1F
100
AcDbEntity
  8
外形線
100
AcDbLine
 10
34350.03638066461
 20
28816.57099312464
 30
0.0
 11
34350.03638066461
 21
28813.07099312465
 31
0.0
  0
LINE
  5
15FE
330
1F
100
AcDbEntity
  8
外形線
100
AcDbLine
 10
34349.53638066461
 20
28812.57099312465
 30
0.0
 11
34330.53638066461
 21
28812.57099312465
 31
0.0
  0
ARC
  5
15FF
330
1F
100
AcDbEntity
  8
外形線
100
AcDbCircle
 10
34349.53638066461
 20
28813.07099312465
 30
0.0
 40
0.5
100
AcDbArc
 50
270.0
 51
0.0
  0
LINE
  5
1600
330
1F
100
AcDbEntity
  8
外形線
100
AcDbLine
 10
34330.03638066461
 20
28813.07099312465
 30
0.0
 11
34330.03638066461
 21
28816.57099312464
 31
0.0
  0
ARC
  5
1601
330
1F
100
AcDbEntity
  8
外形線
100
AcDbCircle
 10
34330.53638066461
 20
28813.07099312465
 30
0.0
 40
0.5
100
AcDbArc
 50
180.0
 51
270.0
  0
LINE
  5
1602
330
1F
100
AcDbEntity
  8
外形線
100
AcDbLine
 10
34330.03638066461
 20
28814.57099312465
 30
0.0
 11
34329.53638066461
 21
28814.57099312465
 31
0.0
  0
ARC
  5
1603
330
1F
100
AcDbEntity
  8
外形線
100
AcDbCircle
 10
34329.06715707101
 20
28816.54696363265
 30
0.0
 40
2.030918567864959
100
AcDbArc
 50
179.3220700121067
 51
283.3583134801267
  0
ARC
  5
1604
330
1F
100
AcDbEntity
  8
外形線
100
AcDbCircle
 10
34329.02676442859
 20
28816.52784326052
 30
0.0
 40
1.617898346868975
100
AcDbArc
 50
178.6280522787514
 51
288.3600024838189
  0
LINE
  5
1605
330
1F
100
AcDbEntity
  8
外形線
100
AcDbLine
 10
34329.53638066461
 20
28816.57099312464
 30
0.0
 11
34329.53638066461
 21
28814.99230219862
 31
0.0
  0
LINE
  5
1606
330
1F
100
AcDbEntity
  8
外形線
100
AcDbLine
 10
34387.53638066461
 20
29054.57099312465
 30
0.0
 11
34387.53638066461
 21
29078.57099312465
 31
0.0
  0
LINE
  5
1607
330
1F
100
AcDbEntity
  8
外形線
100
AcDbLine
 10
34371.03638066461
 20
29078.57099312465
 30
0.0
 11
34362.53638066461
 21
29078.57099312465
 31
0.0
  0
ARC
  5
1608
330
1F
100
AcDbEntity
  8
外形線
100
AcDbCircle
 10
34362.53638066461
 20
29078.07099312464
 30
0.0
 40
0.5
100
AcDbArc
 50
90.0
 51
180.0
  0
LINE
  5
1609
330
1F
100
AcDbEntity
  8
外形線
100
AcDbLine
 10
33516.53638066461
 20
29078.57099312465
 30
0.0
 11
33516.53638066461
 21
29054.57099312465
 31
0.0
  0
LINE
  5
160A
330
1F
100
AcDbEntity
  8
外形線
100
AcDbLine
 10
34362.53638066461
 20
29054.57099312465
 30
0.0
 11
34371.03638066461
 21
29054.57099312465
 31
0.0
  0
LINE
  5
160B
330
1F
100
AcDbEntity
  8
外形線
100
AcDbLine
 10
34362.03638066461
 20
29077.57099312465
 30
0.0
 11
33531.03638066461
 21
29077.57099312465
 31
0.0
  0
LINE
  5
160C
330
1F
100
AcDbEntity
  8
外形線
100
AcDbLine
 10
33531.03638066461
 20
29055.57099312465
 30
0.0
 11
34362.03638066461
 21
29055.57099312465
 31
0.0
  0
LINE
  5
160D
330
1F
100
AcDbEntity
  8
外形線
100
AcDbLine
 10
33516.53638066461
 20
29075.57099312464
 30
0.0
 11
33515.53932199589
 21
29069.75481368773
 31
0.0
  0
ARC
  5
160E
330
1F
100
AcDbEntity
  8
外形線
100
AcDbCircle
 10
33515.78592047685
 20
29069.7137139409
 30
0.0
 40
0.25
100
AcDbArc
 50
170.537677792045
 51
176.5230231830233
  0
ARC
  5
160F
330
1F
100
AcDbEntity
  8
外形線
100
AcDbCircle
 10
33515.78592047685
 20
29069.7137139409
 30
0.0
 40
0.25
100
AcDbArc
 50
183.4769768169767
 51
243.4349488229264
  0
LINE
  5
1610
102
{ACAD_REACTORS
330
1832
102
}
330
1F
100
AcDbEntity
  8
外形線
100
AcDbLine
 10
33515.53638066461
 20
29069.72887580434
 30
0.0
 11
33515.53638066461
 21
29063.41311044496
 31
0.0
  0
LINE
  5
1611
330
1F
100
AcDbEntity
  8
外形線
100
AcDbLine
 10
33515.67411707798
 20
29069.49010714315
 30
0.0
 11
33516.53638066461
 21
29069.07099312465
 31
0.0
  0
LINE
  5
1612
330
1F
100
AcDbEntity
  8
外形線
100
AcDbLine
 10
33516.53638066461
 20
29057.57099312465
 30
0.0
 11
33515.53932199589
 21
29063.38717256157
 31
0.0
  0
ARC
  5
1613
330
1F
100
AcDbEntity
  8
外形線
100
AcDbCircle
 10
33515.78592047685
 20
29063.4282723084
 30
0.0
 40
0.25
100
AcDbArc
 50
183.4769768169767
 51
189.4623222084304
  0
ARC
  5
1614
330
1F
100
AcDbEntity
  8
外形線
100
AcDbCircle
 10
33515.78592047685
 20
29063.4282723084
 30
0.0
 40
0.25
100
AcDbArc
 50
116.5650511770736
 51
176.5230231830233
  0
LINE
  5
1615
330
1F
100
AcDbEntity
  8
外形線
100
AcDbLine
 10
33515.67411707798
 20
29063.65187910615
 30
0.0
 11
33516.53638066461
 21
29064.07099312465
 31
0.0
  0
LINE
  5
1616
330
1F
100
AcDbEntity
  8
外形線
100
AcDbLine
 10
33516.53638066461
 20
29078.57099312465
 30
0.0
 11
33516.53638066461
 21
29082.57099312465
 31
0.0
  0
LINE
  5
1617
330
1F
100
AcDbEntity
  8
外形線
100
AcDbLine
 10
33516.53638066461
 20
29082.57099312465
 30
0.0
 11
33517.5363806646
 21
29082.57099312465
 31
0.0
  0
LINE
  5
1618
330
1F
100
AcDbEntity
  8
外形線
100
AcDbLine
 10
33517.5363806646
 20
29082.57099312465
 30
0.0
 11
33517.5363806646
 21
29050.57099312465
 31
0.0
  0
LINE
  5
1619
330
1F
100
AcDbEntity
  8
外形線
100
AcDbLine
 10
33517.5363806646
 20
29050.57099312465
 30
0.0
 11
33516.53638066461
 21
29050.57099312465
 31
0.0
  0
LINE
  5
161A
330
1F
100
AcDbEntity
  8
外形線
100
AcDbLine
 10
33516.53638066461
 20
29050.57099312465
 30
0.0
 11
33516.53638066461
 21
29057.57099312465
 31
0.0
  0
LINE
  5
161B
330
1F
100
AcDbEntity
  8
外形線
100
AcDbLine
 10
33517.5363806646
 20
29050.57099312465
 30
0.0
 11
33518.03638066461
 21
29050.57099312465
 31
0.0
  0
LINE
  5
161C
330
1F
100
AcDbEntity
  8
外形線
100
AcDbLine
 10
33518.03638066461
 20
29050.57099312465
 30
0.0
 11
33518.03638066461
 21
29082.57099312465
 31
0.0
  0
LINE
  5
161D
330
1F
100
AcDbEntity
  8
外形線
100
AcDbLine
 10
33518.03638066461
 20
29082.57099312465
 30
0.0
 11
33517.5363806646
 21
29082.57099312465
 31
0.0
  0
LINE
  5
161E
330
1F
100
AcDbEntity
  8
外形線
100
AcDbLine
 10
33518.03638066461
 20
29050.57099312465
 30
0.0
 11
33530.03638066461
 21
29050.57099312465
 31
0.0
  0
LINE
  5
161F
330
1F
100
AcDbEntity
  8
外形線
100
AcDbLine
 10
33531.0363806646
 20
29051.57099312465
 30
0.0
 11
33531.0363806646
 21
29081.57099312465
 31
0.0
  0
ARC
  5
1620
330
1F
100
AcDbEntity
  8
外形線
100
AcDbCircle
 10
33530.03638066461
 20
29051.57099312465
 30
0.0
 40
1.0
100
AcDbArc
 50
270.0
 51
0.0
  0
LINE
  5
1621
330
1F
100
AcDbEntity
  8
外形線
100
AcDbLine
 10
33530.03638066461
 20
29082.57099312465
 30
0.0
 11
33518.03638066461
 21
29082.57099312465
 31
0.0
  0
ARC
  5
1622
330
1F
100
AcDbEntity
  8
外形線
100
AcDbCircle
 10
33530.03638066461
 20
29081.57099312465
 30
0.0
 40
1.0
100
AcDbArc
 50
0.0
 51
90.0
  0
LINE
  5
1623
330
1F
100
AcDbEntity
  8
外形線
100
AcDbLine
 10
34387.53638066461
 20
29078.57099312465
 30
0.0
 11
34387.53638066461
 21
29054.57099312465
 31
0.0
  0
LINE
  5
1624
330
1F
100
AcDbEntity
  8
外形線
100
AcDbLine
 10
34387.53638066461
 20
29075.57099312464
 30
0.0
 11
34388.53343933332
 21
29069.75481368773
 31
0.0
  0
ARC
  5
1625
330
1F
100
AcDbEntity
  8
外形線
100
AcDbCircle
 10
34388.28684085236
 20
29069.7137139409
 30
0.0
 40
0.25
100
AcDbArc
 50
3.476976816976664
 51
9.462322207954807
  0
ARC
  5
1626
330
1F
100
AcDbEntity
  8
外形線
100
AcDbCircle
 10
34388.28684085236
 20
29069.7137139409
 30
0.0
 40
0.25
100
AcDbArc
 50
296.5650511770736
 51
356.5230231830233
  0
LINE
  5
1627
102
{ACAD_REACTORS
330
1832
102
}
330
1F
100
AcDbEntity
  8
外形線
100
AcDbLine
 10
34388.53638066461
 20
29069.72887580434
 30
0.0
 11
34388.53638066461
 21
29063.41311044496
 31
0.0
  0
LINE
  5
1628
330
1F
100
AcDbEntity
  8
外形線
100
AcDbLine
 10
34388.39864425123
 20
29069.49010714315
 30
0.0
 11
34387.53638066461
 21
29069.07099312465
 31
0.0
  0
LINE
  5
1629
330
1F
100
AcDbEntity
  8
外形線
100
AcDbLine
 10
34387.53638066461
 20
29057.57099312465
 30
0.0
 11
34388.53343933332
 21
29063.38717256157
 31
0.0
  0
ARC
  5
162A
330
1F
100
AcDbEntity
  8
外形線
100
AcDbCircle
 10
34388.28684085236
 20
29063.4282723084
 30
0.0
 40
0.25
100
AcDbArc
 50
350.5376777915697
 51
356.5230231830233
  0
ARC
  5
162B
330
1F
100
AcDbEntity
  8
外形線
100
AcDbCircle
 10
34388.28684085236
 20
29063.4282723084
 30
0.0
 40
0.25
100
AcDbArc
 50
3.476976816976664
 51
63.43494882292638
  0
LINE
  5
162C
330
1F
100
AcDbEntity
  8
外形線
100
AcDbLine
 10
34388.39864425123
 20
29063.65187910615
 30
0.0
 11
34387.53638066461
 21
29064.07099312465
 31
0.0
  0
LINE
  5
162D
330
1F
100
AcDbEntity
  8
外形線
100
AcDbLine
 10
34387.53638066461
 20
29078.57099312465
 30
0.0
 11
34387.53638066461
 21
29082.57099312465
 31
0.0
  0
LINE
  5
162E
330
1F
100
AcDbEntity
  8
外形線
100
AcDbLine
 10
34387.53638066461
 20
29082.57099312465
 30
0.0
 11
34386.5363806646
 21
29082.57099312465
 31
0.0
  0
LINE
  5
162F
330
1F
100
AcDbEntity
  8
外形線
100
AcDbLine
 10
34386.5363806646
 20
29082.57099312465
 30
0.0
 11
34386.5363806646
 21
29050.57099312465
 31
0.0
  0
LINE
  5
1630
330
1F
100
AcDbEntity
  8
外形線
100
AcDbLine
 10
34386.5363806646
 20
29050.57099312465
 30
0.0
 11
34387.53638066461
 21
29050.57099312465
 31
0.0
  0
LINE
  5
1631
330
1F
100
AcDbEntity
  8
外形線
100
AcDbLine
 10
34387.53638066461
 20
29050.57099312465
 30
0.0
 11
34387.53638066461
 21
29057.57099312465
 31
0.0
  0
LINE
  5
1632
330
1F
100
AcDbEntity
  8
外形線
100
AcDbLine
 10
34386.5363806646
 20
29050.57099312465
 30
0.0
 11
34386.03638066461
 21
29050.57099312465
 31
0.0
  0
LINE
  5
1633
330
1F
100
AcDbEntity
  8
外形線
100
AcDbLine
 10
34386.03638066461
 20
29050.57099312465
 30
0.0
 11
34386.03638066461
 21
29082.57099312465
 31
0.0
  0
LINE
  5
1634
330
1F
100
AcDbEntity
  8
外形線
100
AcDbLine
 10
34386.03638066461
 20
29082.57099312465
 30
0.0
 11
34386.5363806646
 21
29082.57099312465
 31
0.0
  0
LINE
  5
1635
330
1F
100
AcDbEntity
  8
外形線
100
AcDbLine
 10
34386.03638066461
 20
29082.57099312465
 30
0.0
 11
34372.03638066461
 21
29082.57099312465
 31
0.0
  0
LINE
  5
1636
330
1F
100
AcDbEntity
  8
外形線
100
AcDbLine
 10
34371.03638066461
 20
29081.57099312465
 30
0.0
 11
34371.03638066461
 21
29051.57099312465
 31
0.0
  0
ARC
  5
1637
330
1F
100
AcDbEntity
  8
外形線
100
AcDbCircle
 10
34372.03638066461
 20
29081.57099312465
 30
0.0
 40
1.0
100
AcDbArc
 50
90.0
 51
180.0
  0
ARC
  5
1638
330
1F
100
AcDbEntity
  8
外形線
100
AcDbCircle
 10
34372.03638066461
 20
29051.57099312465
 30
0.0
 40
1.0
100
AcDbArc
 50
180.0
 51
270.0
  0
LINE
  5
1639
330
1F
100
AcDbEntity
  8
外形線
100
AcDbLine
 10
34372.03638066461
 20
29050.57099312465
 30
0.0
 11
34386.03638066461
 21
29050.57099312465
 31
0.0
  0
LINE
  5
163A
330
1F
100
AcDbEntity
  8
外形線
100
AcDbLine
 10
34362.03638066461
 20
29078.07099312464
 30
0.0
 11
34362.03638066461
 21
29069.82099312465
 31
0.0
  0
ARC
  5
163B
330
1F
100
AcDbEntity
  8
外形線
100
AcDbCircle
 10
34362.53638066461
 20
29069.82099312465
 30
0.0
 40
0.5
100
AcDbArc
 50
180.0
 51
270.0
  0
ARC
  5
163C
330
1F
100
AcDbEntity
  8
外形線
100
AcDbCircle
 10
34362.53638066461
 20
29055.07099312464
 30
0.0
 40
0.5
100
AcDbArc
 50
180.0
 51
270.0
  0
LINE
  5
163D
330
1F
100
AcDbEntity
  8
外形線
100
AcDbLine
 10
34363.5363806646
 20
29078.57099312465
 30
0.0
 11
33531.03638066461
 21
29078.57099312465
 31
0.0
  0
LINE
  5
163E
330
1F
100
AcDbEntity
  8
外形線
100
AcDbLine
 10
33531.03638066461
 20
29054.57099312465
 30
0.0
 11
34363.5363806646
 21
29054.57099312465
 31
0.0
  0
LINE
  5
163F
330
1F
100
AcDbEntity
  8
外形線
100
AcDbLine
 10
34371.03638066461
 20
29069.32099312465
 30
0.0
 11
34362.53638066461
 21
29069.32099312465
 31
0.0
  0
LINE
  5
1640
330
1F
100
AcDbEntity
  8
外形線
100
AcDbLine
 10
34371.03638066461
 20
29063.82099312465
 30
0.0
 11
34362.53638066461
 21
29063.82099312465
 31
0.0
  0
LINE
  5
1641
330
1F
100
AcDbEntity
  8
外形線
100
AcDbLine
 10
34363.5363806646
 20
29069.32099312465
 30
0.0
 11
34363.5363806646
 21
29063.82099312465
 31
0.0
  0
LINE
  5
1642
330
1F
100
AcDbEntity
  8
外形線
100
AcDbLine
 10
34362.03638066461
 20
29063.32099312465
 30
0.0
 11
34362.03638066461
 21
29055.07099312464
 31
0.0
  0
ARC
  5
1643
330
1F
100
AcDbEntity
  8
外形線
100
AcDbCircle
 10
34362.53638066461
 20
29063.32099312465
 30
0.0
 40
0.5
100
AcDbArc
 50
90.0
 51
180.0
  0
ARC
  5
1644
330
1F
100
AcDbEntity
  8
孔
100
AcDbCircle
 10
33583.53638066461
 20
29066.57099312464
 30
0.0
 40
5.0
100
AcDbArc
 50
270.0
 51
90.0
  0
ARC
  5
1645
330
1F
100
AcDbEntity
  8
孔
100
AcDbCircle
 10
33539.53638066461
 20
29066.57099312464
 30
0.0
 40
5.0
100
AcDbArc
 50
90.0
 51
143.1301023543253
  0
ARC
  5
1646
330
1F
100
AcDbEntity
  8
孔
100
AcDbCircle
 10
33539.53638066461
 20
29066.57099312464
 30
0.0
 40
5.0
100
AcDbArc
 50
216.8698976456747
 51
270.0
  0
LINE
  5
1647
330
1F
100
AcDbEntity
  8
孔
100
AcDbLine
 10
33531.0363806646
 20
29069.57099312465
 30
0.0
 11
33535.53638066461
 21
29069.57099312465
 31
0.0
  0
LINE
  5
1648
330
1F
100
AcDbEntity
  8
孔
100
AcDbLine
 10
33531.0363806646
 20
29063.57099312465
 30
0.0
 11
33535.53638066461
 21
29063.57099312465
 31
0.0
  0
LINE
  5
1649
330
1F
100
AcDbEntity
  8
孔
100
AcDbLine
 10
33539.53638066461
 20
29071.57099312465
 30
0.0
 11
33554.03638066461
 21
29071.57099312465
 31
0.0
  0
LINE
  5
164A
330
1F
100
AcDbEntity
  8
孔
100
AcDbLine
 10
33574.03638066461
 20
29071.57099312465
 30
0.0
 11
33583.53638066461
 21
29071.57099312465
 31
0.0
  0
LINE
  5
164B
330
1F
100
AcDbEntity
  8
孔
100
AcDbLine
 10
33539.53638066461
 20
29061.57099312465
 30
0.0
 11
33554.03638066461
 21
29061.57099312465
 31
0.0
  0
LINE
  5
164C
330
1F
100
AcDbEntity
  8
孔
100
AcDbLine
 10
33574.03638066461
 20
29061.57099312465
 30
0.0
 11
33583.53638066461
 21
29061.57099312465
 31
0.0
  0
LINE
  5
164D
330
1F
100
AcDbEntity
  8
外形線
100
AcDbLine
 10
33554.03638066461
 20
29070.57099312465
 30
0.0
 11
33554.03638066461
 21
29062.57099312465
 31
0.0
  0
LINE
  5
164E
330
1F
100
AcDbEntity
  8
外形線
100
AcDbLine
 10
33557.5363806646
 20
29059.07099312464
 30
0.0
 11
33566.53638066461
 21
29059.07099312464
 31
0.0
  0
ARC
  5
164F
330
1F
100
AcDbEntity
  8
外形線
100
AcDbCircle
 10
33570.53638066461
 20
29062.57099312465
 30
0.0
 40
3.5
100
AcDbArc
 50
270.0
 51
0.0
  0
ARC
  5
1650
330
1F
100
AcDbEntity
  8
外形線
100
AcDbCircle
 10
33557.5363806646
 20
29062.57099312465
 30
0.0
 40
3.5
100
AcDbArc
 50
180.0
 51
270.0
  0
LINE
  5
1651
330
1F
100
AcDbEntity
  8
外形線
100
AcDbLine
 10
33574.03638066461
 20
29062.57099312465
 30
0.0
 11
33574.03638066461
 21
29070.57099312465
 31
0.0
  0
ARC
  5
1652
330
1F
100
AcDbEntity
  8
外形線
100
AcDbCircle
 10
33570.53638066461
 20
29070.57099312465
 30
0.0
 40
3.5
100
AcDbArc
 50
0.0
 51
90.0
  0
LINE
  5
1653
330
1F
100
AcDbEntity
  8
外形線
100
AcDbLine
 10
33566.53638066461
 20
29074.07099312464
 30
0.0
 11
33557.5363806646
 21
29074.07099312464
 31
0.0
  0
ARC
  5
1654
330
1F
100
AcDbEntity
  8
外形線
100
AcDbCircle
 10
33557.5363806646
 20
29070.57099312465
 30
0.0
 40
3.5
100
AcDbArc
 50
90.0
 51
180.0
  0
LINE
  5
1655
330
1F
100
AcDbEntity
  8
外形線
100
AcDbLine
 10
33554.03638066461
 20
29070.57099312465
 30
0.0
 11
33556.03638066461
 21
29070.57099312465
 31
0.0
  0
LINE
  5
1656
330
1F
100
AcDbEntity
  8
外形線
100
AcDbLine
 10
33556.03638066461
 20
29070.57099312465
 30
0.0
 11
33556.03638066461
 21
29062.57099312465
 31
0.0
  0
LINE
  5
1657
330
1F
100
AcDbEntity
  8
外形線
100
AcDbLine
 10
33556.03638066461
 20
29062.57099312465
 30
0.0
 11
33554.03638066461
 21
29062.57099312465
 31
0.0
  0
LINE
  5
1658
330
1F
100
AcDbEntity
  8
外形線
100
AcDbLine
 10
33566.53638066461
 20
29060.07099312465
 30
0.0
 11
33566.53638066461
 21
29057.57099312465
 31
0.0
  0
LINE
  5
1659
330
1F
100
AcDbEntity
  8
外形線
100
AcDbLine
 10
33566.53638066461
 20
29057.57099312465
 30
0.0
 11
33570.53638066461
 21
29057.57099312465
 31
0.0
  0
LINE
  5
165A
330
1F
100
AcDbEntity
  8
外形線
100
AcDbLine
 10
33570.53638066461
 20
29057.57099312465
 30
0.0
 11
33570.53638066461
 21
29060.07099312465
 31
0.0
  0
LINE
  5
165B
330
1F
100
AcDbEntity
  8
外形線
100
AcDbLine
 10
33570.53638066461
 20
29060.07099312465
 30
0.0
 11
33566.53638066461
 21
29060.07099312465
 31
0.0
  0
LINE
  5
165C
330
1F
100
AcDbEntity
  8
外形線
100
AcDbLine
 10
33566.53638066461
 20
29073.07099312465
 30
0.0
 11
33566.53638066461
 21
29075.57099312464
 31
0.0
  0
LINE
  5
165D
330
1F
100
AcDbEntity
  8
外形線
100
AcDbLine
 10
33566.53638066461
 20
29075.57099312464
 30
0.0
 11
33570.53638066461
 21
29075.57099312464
 31
0.0
  0
LINE
  5
165E
330
1F
100
AcDbEntity
  8
外形線
100
AcDbLine
 10
33570.53638066461
 20
29075.57099312464
 30
0.0
 11
33570.53638066461
 21
29073.07099312465
 31
0.0
  0
LINE
  5
165F
330
1F
100
AcDbEntity
  8
外形線
100
AcDbLine
 10
33570.53638066461
 20
29073.07099312465
 30
0.0
 11
33566.53638066461
 21
29073.07099312465
 31
0.0
  0
LINE
  5
1660
330
1F
100
AcDbEntity
  8
外形線
100
AcDbLine
 10
33574.03638066461
 20
29069.57099312465
 30
0.0
 11
33577.03638066461
 21
29069.57099312465
 31
0.0
  0
LINE
  5
1661
330
1F
100
AcDbEntity
  8
外形線
100
AcDbLine
 10
33577.03638066461
 20
29069.57099312465
 30
0.0
 11
33577.03638066461
 21
29063.57099312465
 31
0.0
  0
LINE
  5
1662
330
1F
100
AcDbEntity
  8
外形線
100
AcDbLine
 10
33577.03638066461
 20
29063.57099312465
 30
0.0
 11
33574.03638066461
 21
29063.57099312465
 31
0.0
  0
LINE
  5
1663
330
1F
100
AcDbEntity
  8
外形線
100
AcDbLine
 10
33570.03638066461
 20
29068.57099312464
 30
0.0
 11
33559.03638066461
 21
29068.57099312464
 31
0.0
  0
LINE
  5
1664
330
1F
100
AcDbEntity
  8
外形線
100
AcDbLine
 10
33559.03638066461
 20
29068.57099312464
 30
0.0
 11
33559.03638066461
 21
29064.57099312465
 31
0.0
  0
LINE
  5
1665
330
1F
100
AcDbEntity
  8
外形線
100
AcDbLine
 10
33559.03638066461
 20
29064.57099312465
 30
0.0
 11
33570.03638066461
 21
29064.57099312465
 31
0.0
  0
ARC
  5
1666
330
1F
100
AcDbEntity
  8
外形線
100
AcDbCircle
 10
33570.03638066461
 20
29066.57099312464
 30
0.0
 40
2.0
100
AcDbArc
 50
270.0
 51
90.0
  0
LINE
  5
1667
330
1F
100
AcDbEntity
  8
外形線
100
AcDbLine
 10
33554.03638066461
 20
29063.32099312465
 30
0.0
 11
33555.03638066461
 21
29063.32099312465
 31
0.0
  0
LINE
  5
1668
330
1F
100
AcDbEntity
  8
外形線
100
AcDbLine
 10
33555.03638066461
 20
29063.32099312465
 30
0.0
 11
33555.03638066461
 21
29069.82099312465
 31
0.0
  0
LINE
  5
1669
330
1F
100
AcDbEntity
  8
外形線
100
AcDbLine
 10
33555.03638066461
 20
29069.82099312465
 30
0.0
 11
33554.03638066461
 21
29069.82099312465
 31
0.0
  0
LINE
  5
166A
330
1F
100
AcDbEntity
  8
外形線
100
AcDbLine
 10
33531.0363806646
 20
29076.07099312464
 30
0.0
 11
33599.5363806646
 21
29076.07099312464
 31
0.0
  0
LINE
  5
166B
330
1F
100
AcDbEntity
  8
外形線
100
AcDbLine
 10
33599.5363806646
 20
29076.07099312464
 30
0.0
 11
33599.5363806646
 21
29068.87358674789
 31
0.0
  0
LINE
  5
166C
330
1F
100
AcDbEntity
  8
外形線
100
AcDbLine
 10
33599.5363806646
 20
29064.2683995014
 30
0.0
 11
33599.5363806646
 21
29057.07099312465
 31
0.0
  0
LINE
  5
166D
330
1F
100
AcDbEntity
  8
外形線
100
AcDbLine
 10
33599.5363806646
 20
29057.07099312465
 30
0.0
 11
33531.0363806646
 21
29057.07099312464
 31
0.0
  0
LINE
  5
166E
330
1F
100
AcDbEntity
  8
外形線
100
AcDbLine
 10
33531.03638066461
 20
29058.07099312465
 30
0.0
 11
33566.53638066461
 21
29058.07099312465
 31
0.0
  0
LINE
  5
166F
330
1F
100
AcDbEntity
  8
外形線
100
AcDbLine
 10
33570.53638066461
 20
29058.07099312465
 30
0.0
 11
33599.5363806646
 21
29058.07099312465
 31
0.0
  0
LINE
  5
1670
330
1F
100
AcDbEntity
  8
外形線
100
AcDbLine
 10
33599.5363806646
 20
29075.07099312465
 30
0.0
 11
33570.53638066461
 21
29075.07099312465
 31
0.0
  0
LINE
  5
1671
330
1F
100
AcDbEntity
  8
外形線
100
AcDbLine
 10
33531.03638066461
 20
29075.07099312465
 30
0.0
 11
33566.53638066461
 21
29075.07099312465
 31
0.0
  0
LINE
  5
1672
330
1F
100
AcDbEntity
  8
外形線
100
AcDbLine
 10
33595.53638066461
 20
29070.07099312465
 30
0.0
 11
33591.53638066461
 21
29070.07099312465
 31
0.0
  0
LINE
  5
1673
330
1F
100
AcDbEntity
  8
外形線
100
AcDbLine
 10
33591.53638066461
 20
29070.07099312465
 30
0.0
 11
33591.53638066461
 21
29063.07099312465
 31
0.0
  0
LINE
  5
1674
330
1F
100
AcDbEntity
  8
外形線
100
AcDbLine
 10
33591.53638066461
 20
29063.07099312465
 30
0.0
 11
33595.53638066461
 21
29063.07099312465
 31
0.0
  0
LINE
  5
1675
330
1F
100
AcDbEntity
  8
外形線
100
AcDbLine
 10
33595.03638066461
 20
29063.07099312465
 30
0.0
 11
33595.03638066461
 21
29070.07099312465
 31
0.0
  0
LINE
  5
1676
330
1F
100
AcDbEntity
  8
外形線
100
AcDbLine
 10
33595.03638066461
 20
29070.07099312465
 30
0.0
 11
33602.63760891563
 21
29067.945229127
 31
0.0
  0
LINE
  5
1677
330
1F
100
AcDbEntity
  8
外形線
100
AcDbLine
 10
33602.63760891563
 20
29065.1967571223
 30
0.0
 11
33595.03638066461
 21
29063.07099312465
 31
0.0
  0
ARC
  5
1678
330
1F
100
AcDbEntity
  8
外形線
100
AcDbCircle
 10
33602.03638066461
 20
29066.57099312464
 30
0.0
 40
1.5
100
AcDbArc
 50
293.6293777308545
 51
66.3706222691455
  0
LINE
  5
1679
330
1F
100
AcDbEntity
  8
外形線
100
AcDbLine
 10
33595.53638066461
 20
29070.07099312465
 30
0.0
 11
33595.53638066461
 21
29069.93116282832
 31
0.0
  0
LINE
  5
167A
330
1F
100
AcDbEntity
  8
外形線
100
AcDbLine
 10
33595.53638066461
 20
29063.07099312465
 30
0.0
 11
33595.53638066461
 21
29063.21082342097
 31
0.0
  0
LINE
  5
167B
330
1F
100
AcDbEntity
  8
孔
100
AcDbLine
 10
34287.5363806646
 20
29071.07099312465
 30
0.0
 11
34286.51218552976
 21
29062.93791988297
 31
0.0
  0
LINE
  5
167C
330
1F
100
AcDbEntity
  8
孔
100
AcDbLine
 10
34283.56057579946
 20
29062.93791988297
 30
0.0
 11
34282.53638066461
 21
29071.07099312465
 31
0.0
  0
ARC
  5
167D
330
1F
100
AcDbEntity
  8
孔
100
AcDbCircle
 10
34285.03638066461
 20
29063.20624804027
 30
0.0
 40
1.5
100
AcDbArc
 50
190.3048464689414
 51
349.6951535310584
  0
LINE
  5
167E
330
1F
100
AcDbEntity
  8
孔
100
AcDbLine
 10
34287.5363806646
 20
29071.07099312465
 30
0.0
 11
34282.53638066461
 21
29071.07099312465
 31
0.0
  0
LINE
  5
167F
330
1F
100
AcDbEntity
  8
孔
100
AcDbLine
 10
34287.5363806646
 20
29071.07099312465
 30
0.0
 11
34287.5363806646
 21
29071.57099312465
 31
0.0
  0
LINE
  5
1680
330
1F
100
AcDbEntity
  8
孔
100
AcDbLine
 10
34287.5363806646
 20
29071.57099312465
 30
0.0
 11
34282.53638066461
 21
29071.57099312465
 31
0.0
  0
LINE
  5
1681
330
1F
100
AcDbEntity
  8
孔
100
AcDbLine
 10
34282.53638066461
 20
29071.57099312465
 30
0.0
 11
34282.53638066461
 21
29071.07099312465
 31
0.0
  0
CIRCLE
  5
1682
330
1F
100
AcDbEntity
  8
孔
100
AcDbCircle
 10
34275.03638066461
 20
29066.57099312464
 30
0.0
 40
2.1
  0
CIRCLE
  5
1683
330
1F
100
AcDbEntity
  8
孔
100
AcDbCircle
 10
34247.03638066461
 20
29066.57099312464
 30
0.0
 40
2.1
  0
LINE
  5
1684
330
1F
100
AcDbEntity
  8
孔
100
AcDbLine
 10
34268.03638066461
 20
29063.07099312465
 30
0.0
 11
34268.03638066461
 21
29070.07099312465
 31
0.0
  0
LINE
  5
1685
330
1F
100
AcDbEntity
  8
孔
100
AcDbLine
 10
34268.03638066461
 20
29070.07099312465
 30
0.0
 11
34254.03638066461
 21
29070.07099312465
 31
0.0
  0
LINE
  5
1686
330
1F
100
AcDbEntity
  8
孔
100
AcDbLine
 10
34254.03638066461
 20
29070.07099312465
 30
0.0
 11
34254.03638066461
 21
29063.07099312465
 31
0.0
  0
LINE
  5
1687
330
1F
100
AcDbEntity
  8
孔
100
AcDbLine
 10
34254.03638066461
 20
29063.07099312465
 30
0.0
 11
34268.03638066461
 21
29063.07099312465
 31
0.0
  0
LINE
  5
1688
330
1F
100
AcDbEntity
  8
孔
100
AcDbLine
 10
34238.03638066461
 20
29071.07099312465
 30
0.0
 11
34237.01218552976
 21
29062.93791988297
 31
0.0
  0
LINE
  5
1689
330
1F
100
AcDbEntity
  8
孔
100
AcDbLine
 10
34234.06057579946
 20
29062.93791988297
 30
0.0
 11
34233.03638066461
 21
29071.07099312465
 31
0.0
  0
ARC
  5
168A
330
1F
100
AcDbEntity
  8
孔
100
AcDbCircle
 10
34235.53638066461
 20
29063.20624804027
 30
0.0
 40
1.5
100
AcDbArc
 50
190.3048464689414
 51
349.6951535310584
  0
LINE
  5
168B
330
1F
100
AcDbEntity
  8
孔
100
AcDbLine
 10
34238.03638066461
 20
29071.07099312465
 30
0.0
 11
34233.03638066461
 21
29071.07099312465
 31
0.0
  0
LINE
  5
168C
330
1F
100
AcDbEntity
  8
孔
100
AcDbLine
 10
34238.03638066461
 20
29071.07099312465
 30
0.0
 11
34238.03638066461
 21
29071.57099312465
 31
0.0
  0
LINE
  5
168D
330
1F
100
AcDbEntity
  8
孔
100
AcDbLine
 10
34238.03638066461
 20
29071.57099312465
 30
0.0
 11
34233.03638066461
 21
29071.57099312465
 31
0.0
  0
LINE
  5
168E
330
1F
100
AcDbEntity
  8
孔
100
AcDbLine
 10
34233.03638066461
 20
29071.57099312465
 30
0.0
 11
34233.03638066461
 21
29071.07099312465
 31
0.0
  0
LINE
  5
168F
330
1F
100
AcDbEntity
  8
孔
100
AcDbLine
 10
33654.53638066461
 20
29071.07099312465
 30
0.0
 11
33653.51218552976
 21
29062.93791988297
 31
0.0
  0
LINE
  5
1690
330
1F
100
AcDbEntity
  8
孔
100
AcDbLine
 10
33650.56057579946
 20
29062.93791988297
 30
0.0
 11
33649.53638066461
 21
29071.07099312465
 31
0.0
  0
ARC
  5
1691
330
1F
100
AcDbEntity
  8
孔
100
AcDbCircle
 10
33652.03638066461
 20
29063.20624804027
 30
0.0
 40
1.5
100
AcDbArc
 50
190.3048464689414
 51
349.6951535310584
  0
LINE
  5
1692
330
1F
100
AcDbEntity
  8
孔
100
AcDbLine
 10
33654.53638066461
 20
29071.07099312465
 30
0.0
 11
33649.53638066461
 21
29071.07099312465
 31
0.0
  0
LINE
  5
1693
330
1F
100
AcDbEntity
  8
孔
100
AcDbLine
 10
33654.53638066461
 20
29071.07099312465
 30
0.0
 11
33654.53638066461
 21
29071.57099312465
 31
0.0
  0
LINE
  5
1694
330
1F
100
AcDbEntity
  8
孔
100
AcDbLine
 10
33654.53638066461
 20
29071.57099312465
 30
0.0
 11
33649.53638066461
 21
29071.57099312465
 31
0.0
  0
LINE
  5
1695
330
1F
100
AcDbEntity
  8
孔
100
AcDbLine
 10
33649.53638066461
 20
29071.57099312465
 30
0.0
 11
33649.53638066461
 21
29071.07099312465
 31
0.0
  0
CIRCLE
  5
1696
330
1F
100
AcDbEntity
  8
孔
100
AcDbCircle
 10
34216.03638066461
 20
29066.57099312464
 30
0.0
 40
4.0
  0
CIRCLE
  5
1697
330
1F
100
AcDbEntity
  8
孔
100
AcDbCircle
 10
34216.03638066461
 20
29066.57099312464
 30
0.0
 40
5.0
  0
LINE
  5
1698
330
1F
100
AcDbEntity
  8
孔
100
AcDbLine
 10
34198.93638066457
 20
29064.47099312464
 30
0.0
 11
34189.13638066457
 21
29064.47099312464
 31
0.0
  0
LINE
  5
1699
330
1F
100
AcDbEntity
  8
孔
100
AcDbLine
 10
34198.93638066457
 20
29068.67099312463
 30
0.0
 11
34189.13638066457
 21
29068.67099312463
 31
0.0
  0
ARC
  5
169A
330
1F
100
AcDbEntity
  8
孔
100
AcDbCircle
 10
34198.93638066459
 20
29066.57099312464
 30
0.0
 40
2.100000000013096
100
AcDbArc
 50
269.9999999991662
 51
90.0
  0
ARC
  5
169B
330
1F
100
AcDbEntity
  8
孔
100
AcDbCircle
 10
34189.13638066456
 20
29066.57099312463
 30
0.0
 40
2.099999999998544
100
AcDbArc
 50
90.0
 51
270.0
  0
CIRCLE
  5
169C
330
1F
100
AcDbEntity
  8
孔
100
AcDbCircle
 10
34024.03638066461
 20
29066.57099312464
 30
0.0
 40
4.0
  0
CIRCLE
  5
169D
330
1F
100
AcDbEntity
  8
孔
100
AcDbCircle
 10
34024.03638066461
 20
29066.57099312464
 30
0.0
 40
5.0
  0
CIRCLE
  5
169E
330
1F
100
AcDbEntity
  8
孔
100
AcDbCircle
 10
33689.53638066463
 20
29062.57099312465
 30
0.0
 40
2.1
  0
CIRCLE
  5
169F
330
1F
100
AcDbEntity
  8
孔
100
AcDbCircle
 10
33689.53638066463
 20
29071.57099312465
 30
0.0
 40
1.5
  0
LINE
  5
16A0
330
1F
100
AcDbEntity
  8
孔
100
AcDbLine
 10
33671.43638066461
 20
29064.47099312465
 30
0.0
 11
33661.6363806646
 21
29064.47099312465
 31
0.0
  0
LINE
  5
16A1
330
1F
100
AcDbEntity
  8
孔
100
AcDbLine
 10
33671.43638066461
 20
29068.67099312465
 30
0.0
 11
33661.6363806646
 21
29068.67099312465
 31
0.0
  0
ARC
  5
16A2
330
1F
100
AcDbEntity
  8
孔
100
AcDbCircle
 10
33671.43638066462
 20
29066.57099312464
 30
0.0
 40
2.099999999998544
100
AcDbArc
 50
269.9999999991662
 51
90.0
  0
ARC
  5
16A3
330
1F
100
AcDbEntity
  8
孔
100
AcDbCircle
 10
33661.6363806646
 20
29066.57099312466
 30
0.0
 40
2.100000000013096
100
AcDbArc
 50
90.0
 51
270.0
  0
LINE
  5
16A4
330
1F
100
AcDbEntity
  8
孔
100
AcDbLine
 10
33634.03638066461
 20
29063.07099312465
 30
0.0
 11
33628.0363806646
 21
29063.07099312465
 31
0.0
  0
LINE
  5
16A5
330
1F
100
AcDbEntity
  8
孔
100
AcDbLine
 10
33634.03638066461
 20
29070.07099312465
 30
0.0
 11
33628.0363806646
 21
29070.07099312465
 31
0.0
  0
ARC
  5
16A6
330
1F
100
AcDbEntity
  8
孔
100
AcDbCircle
 10
33628.03638066459
 20
29066.57099312464
 30
0.0
 40
3.5
100
AcDbArc
 50
89.99999999916623
 51
270.0
  0
ARC
  5
16A7
330
1F
100
AcDbEntity
  8
孔
100
AcDbCircle
 10
33634.03638066459
 20
29066.57099312464
 30
0.0
 40
3.5
100
AcDbArc
 50
270.0
 51
89.99999999916623
  0
CIRCLE
  5
16A8
330
1F
100
AcDbEntity
  8
孔
100
AcDbCircle
 10
33614.53638066461
 20
29066.57099312464
 30
0.0
 40
2.75
  0
ARC
  5
16A9
330
1F
100
AcDbEntity
  8
孔
100
AcDbCircle
 10
34320.53638066461
 20
29066.57099312464
 30
0.0
 40
5.0
100
AcDbArc
 50
90.0
 51
270.0
  0
LINE
  5
16AA
330
1F
100
AcDbEntity
  8
孔
100
AcDbLine
 10
34362.03638066461
 20
29071.57099312464
 30
0.0
 11
34350.03638066461
 21
29071.57099312465
 31
0.0
  0
LINE
  5
16AB
330
1F
100
AcDbEntity
  8
孔
100
AcDbLine
 10
34330.03638066461
 20
29071.57099312465
 30
0.0
 11
34320.53638066461
 21
29071.57099312465
 31
0.0
  0
LINE
  5
16AC
330
1F
100
AcDbEntity
  8
孔
100
AcDbLine
 10
34362.03638066461
 20
29061.57099312464
 30
0.0
 11
34350.03638066461
 21
29061.57099312465
 31
0.0
  0
LINE
  5
16AD
330
1F
100
AcDbEntity
  8
孔
100
AcDbLine
 10
34330.03638066461
 20
29061.57099312465
 30
0.0
 11
34320.53638066461
 21
29061.57099312465
 31
0.0
  0
LINE
  5
16AE
330
1F
100
AcDbEntity
  8
外形線
100
AcDbLine
 10
34350.03638066461
 20
29070.57099312465
 30
0.0
 11
34350.03638066461
 21
29062.57099312465
 31
0.0
  0
LINE
  5
16AF
330
1F
100
AcDbEntity
  8
外形線
100
AcDbLine
 10
34346.5363806646
 20
29059.07099312464
 30
0.0
 11
34337.53638066461
 21
29059.07099312464
 31
0.0
  0
ARC
  5
16B0
330
1F
100
AcDbEntity
  8
外形線
100
AcDbCircle
 10
34333.53638066461
 20
29062.57099312465
 30
0.0
 40
3.5
100
AcDbArc
 50
180.0
 51
270.0
  0
ARC
  5
16B1
330
1F
100
AcDbEntity
  8
外形線
100
AcDbCircle
 10
34346.5363806646
 20
29062.57099312465
 30
0.0
 40
3.5
100
AcDbArc
 50
270.0
 51
0.0
  0
LINE
  5
16B2
330
1F
100
AcDbEntity
  8
外形線
100
AcDbLine
 10
34330.03638066461
 20
29062.57099312465
 30
0.0
 11
34330.03638066461
 21
29070.57099312465
 31
0.0
  0
ARC
  5
16B3
330
1F
100
AcDbEntity
  8
外形線
100
AcDbCircle
 10
34333.53638066461
 20
29070.57099312465
 30
0.0
 40
3.5
100
AcDbArc
 50
90.0
 51
180.0
  0
LINE
  5
16B4
330
1F
100
AcDbEntity
  8
外形線
100
AcDbLine
 10
34337.53638066461
 20
29074.07099312464
 30
0.0
 11
34346.5363806646
 21
29074.07099312464
 31
0.0
  0
ARC
  5
16B5
330
1F
100
AcDbEntity
  8
外形線
100
AcDbCircle
 10
34346.5363806646
 20
29070.57099312465
 30
0.0
 40
3.5
100
AcDbArc
 50
0.0
 51
90.0
  0
LINE
  5
16B6
330
1F
100
AcDbEntity
  8
外形線
100
AcDbLine
 10
34350.03638066461
 20
29070.57099312465
 30
0.0
 11
34348.03638066461
 21
29070.57099312465
 31
0.0
  0
LINE
  5
16B7
330
1F
100
AcDbEntity
  8
外形線
100
AcDbLine
 10
34348.03638066461
 20
29070.57099312465
 30
0.0
 11
34348.03638066461
 21
29062.57099312465
 31
0.0
  0
LINE
  5
16B8
330
1F
100
AcDbEntity
  8
外形線
100
AcDbLine
 10
34348.03638066461
 20
29062.57099312465
 30
0.0
 11
34350.03638066461
 21
29062.57099312465
 31
0.0
  0
LINE
  5
16B9
330
1F
100
AcDbEntity
  8
外形線
100
AcDbLine
 10
34337.53638066461
 20
29060.07099312465
 30
0.0
 11
34337.53638066461
 21
29057.57099312465
 31
0.0
  0
LINE
  5
16BA
330
1F
100
AcDbEntity
  8
外形線
100
AcDbLine
 10
34337.53638066461
 20
29057.57099312465
 30
0.0
 11
34333.53638066461
 21
29057.57099312465
 31
0.0
  0
LINE
  5
16BB
330
1F
100
AcDbEntity
  8
外形線
100
AcDbLine
 10
34333.53638066461
 20
29057.57099312465
 30
0.0
 11
34333.53638066461
 21
29060.07099312465
 31
0.0
  0
LINE
  5
16BC
330
1F
100
AcDbEntity
  8
外形線
100
AcDbLine
 10
34333.53638066461
 20
29060.07099312465
 30
0.0
 11
34337.53638066461
 21
29060.07099312465
 31
0.0
  0
LINE
  5
16BD
330
1F
100
AcDbEntity
  8
外形線
100
AcDbLine
 10
34337.53638066461
 20
29073.07099312465
 30
0.0
 11
34337.53638066461
 21
29075.57099312464
 31
0.0
  0
LINE
  5
16BE
330
1F
100
AcDbEntity
  8
外形線
100
AcDbLine
 10
34337.53638066461
 20
29075.57099312464
 30
0.0
 11
34333.53638066461
 21
29075.57099312464
 31
0.0
  0
LINE
  5
16BF
330
1F
100
AcDbEntity
  8
外形線
100
AcDbLine
 10
34333.53638066461
 20
29075.57099312464
 30
0.0
 11
34333.53638066461
 21
29073.07099312465
 31
0.0
  0
LINE
  5
16C0
330
1F
100
AcDbEntity
  8
外形線
100
AcDbLine
 10
34333.53638066461
 20
29073.07099312465
 30
0.0
 11
34337.53638066461
 21
29073.07099312465
 31
0.0
  0
LINE
  5
16C1
330
1F
100
AcDbEntity
  8
外形線
100
AcDbLine
 10
34330.03638066461
 20
29069.57099312465
 30
0.0
 11
34327.03638066461
 21
29069.57099312465
 31
0.0
  0
LINE
  5
16C2
330
1F
100
AcDbEntity
  8
外形線
100
AcDbLine
 10
34327.03638066461
 20
29069.57099312465
 30
0.0
 11
34327.03638066461
 21
29063.57099312465
 31
0.0
  0
LINE
  5
16C3
330
1F
100
AcDbEntity
  8
外形線
100
AcDbLine
 10
34327.03638066461
 20
29063.57099312465
 30
0.0
 11
34330.03638066461
 21
29063.57099312465
 31
0.0
  0
LINE
  5
16C4
330
1F
100
AcDbEntity
  8
外形線
100
AcDbLine
 10
34334.03638066461
 20
29068.57099312464
 30
0.0
 11
34345.03638066461
 21
29068.57099312464
 31
0.0
  0
LINE
  5
16C5
330
1F
100
AcDbEntity
  8
外形線
100
AcDbLine
 10
34345.03638066461
 20
29068.57099312464
 30
0.0
 11
34345.03638066461
 21
29064.57099312465
 31
0.0
  0
LINE
  5
16C6
330
1F
100
AcDbEntity
  8
外形線
100
AcDbLine
 10
34345.03638066461
 20
29064.57099312465
 30
0.0
 11
34334.03638066461
 21
29064.57099312465
 31
0.0
  0
ARC
  5
16C7
330
1F
100
AcDbEntity
  8
外形線
100
AcDbCircle
 10
34334.03638066461
 20
29066.57099312464
 30
0.0
 40
2.0
100
AcDbArc
 50
90.0
 51
270.0
  0
LINE
  5
16C8
330
1F
100
AcDbEntity
  8
外形線
100
AcDbLine
 10
34350.03638066461
 20
29063.32099312465
 30
0.0
 11
34349.03638066461
 21
29063.32099312465
 31
0.0
  0
LINE
  5
16C9
330
1F
100
AcDbEntity
  8
外形線
100
AcDbLine
 10
34349.03638066461
 20
29063.32099312465
 30
0.0
 11
34349.03638066461
 21
29069.82099312465
 31
0.0
  0
LINE
  5
16CA
330
1F
100
AcDbEntity
  8
外形線
100
AcDbLine
 10
34349.03638066461
 20
29069.82099312465
 30
0.0
 11
34350.03638066461
 21
29069.82099312465
 31
0.0
  0
LINE
  5
16CB
330
1F
100
AcDbEntity
  8
外形線
100
AcDbLine
 10
34362.03638066461
 20
29076.07099312464
 30
0.0
 11
34304.5363806646
 21
29076.07099312464
 31
0.0
  0
LINE
  5
16CC
330
1F
100
AcDbEntity
  8
外形線
100
AcDbLine
 10
34304.5363806646
 20
29076.07099312464
 30
0.0
 11
34304.5363806646
 21
29068.87358674789
 31
0.0
  0
LINE
  5
16CD
330
1F
100
AcDbEntity
  8
外形線
100
AcDbLine
 10
34304.5363806646
 20
29064.2683995014
 30
0.0
 11
34304.5363806646
 21
29057.07099312465
 31
0.0
  0
LINE
  5
16CE
330
1F
100
AcDbEntity
  8
外形線
100
AcDbLine
 10
34304.5363806646
 20
29057.07099312465
 30
0.0
 11
34362.03638066461
 21
29057.07099312465
 31
0.0
  0
LINE
  5
16CF
330
1F
100
AcDbEntity
  8
外形線
100
AcDbLine
 10
34362.03638066461
 20
29058.07099312465
 30
0.0
 11
34337.53638066461
 21
29058.07099312465
 31
0.0
  0
LINE
  5
16D0
330
1F
100
AcDbEntity
  8
外形線
100
AcDbLine
 10
34333.53638066461
 20
29058.07099312465
 30
0.0
 11
34304.5363806646
 21
29058.07099312465
 31
0.0
  0
LINE
  5
16D1
330
1F
100
AcDbEntity
  8
外形線
100
AcDbLine
 10
34304.5363806646
 20
29075.07099312465
 30
0.0
 11
34333.53638066461
 21
29075.07099312465
 31
0.0
  0
LINE
  5
16D2
330
1F
100
AcDbEntity
  8
外形線
100
AcDbLine
 10
34362.03638066461
 20
29075.07099312465
 30
0.0
 11
34337.53638066461
 21
29075.07099312465
 31
0.0
  0
LINE
  5
16D3
330
1F
100
AcDbEntity
  8
外形線
100
AcDbLine
 10
34308.53638066461
 20
29070.07099312465
 30
0.0
 11
34312.53638066461
 21
29070.07099312465
 31
0.0
  0
LINE
  5
16D4
330
1F
100
AcDbEntity
  8
外形線
100
AcDbLine
 10
34312.53638066461
 20
29070.07099312465
 30
0.0
 11
34312.53638066461
 21
29063.07099312465
 31
0.0
  0
LINE
  5
16D5
330
1F
100
AcDbEntity
  8
外形線
100
AcDbLine
 10
34312.53638066461
 20
29063.07099312465
 30
0.0
 11
34308.53638066461
 21
29063.07099312465
 31
0.0
  0
LINE
  5
16D6
330
1F
100
AcDbEntity
  8
外形線
100
AcDbLine
 10
34309.03638066461
 20
29063.07099312465
 30
0.0
 11
34309.03638066461
 21
29070.07099312465
 31
0.0
  0
LINE
  5
16D7
330
1F
100
AcDbEntity
  8
外形線
100
AcDbLine
 10
34309.03638066461
 20
29070.07099312465
 30
0.0
 11
34301.43515241358
 21
29067.945229127
 31
0.0
  0
LINE
  5
16D8
330
1F
100
AcDbEntity
  8
外形線
100
AcDbLine
 10
34301.43515241358
 20
29065.1967571223
 30
0.0
 11
34309.03638066461
 21
29063.07099312465
 31
0.0
  0
ARC
  5
16D9
330
1F
100
AcDbEntity
  8
外形線
100
AcDbCircle
 10
34302.03638066461
 20
29066.57099312464
 30
0.0
 40
1.5
100
AcDbArc
 50
113.6293777308545
 51
246.3706222691455
  0
LINE
  5
16DA
330
1F
100
AcDbEntity
  8
外形線
100
AcDbLine
 10
34308.53638066461
 20
29070.07099312465
 30
0.0
 11
34308.53638066461
 21
29069.93116282832
 31
0.0
  0
LINE
  5
16DB
330
1F
100
AcDbEntity
  8
外形線
100
AcDbLine
 10
34308.53638066461
 20
29063.07099312465
 30
0.0
 11
34308.53638066461
 21
29063.21082342097
 31
0.0
  0
CIRCLE
  5
16DC
330
1F
100
AcDbEntity
  8
孔
100
AcDbCircle
 10
34170.03638066461
 20
29066.57099312464
 30
0.0
 40
2.1
  0
CIRCLE
  5
16DD
330
1F
100
AcDbEntity
  8
孔
100
AcDbCircle
 10
34113.03638066461
 20
29066.57099312464
 30
0.0
 40
2.1
  0
CIRCLE
  5
16DE
330
1F
100
AcDbEntity
  8
孔
100
AcDbCircle
 10
34100.03638066461
 20
29066.57099312464
 30
0.0
 40
2.1
  0
CIRCLE
  5
16DF
330
1F
100
AcDbEntity
  8
孔
100
AcDbCircle
 10
34085.03638066461
 20
29066.57099312464
 30
0.0
 40
2.1
  0
CIRCLE
  5
16E0
330
1F
100
AcDbEntity
  8
孔
100
AcDbCircle
 10
34055.0363806646
 20
29066.57099312464
 30
0.0
 40
2.1
  0
CIRCLE
  5
16E1
330
1F
100
AcDbEntity
  8
孔
100
AcDbCircle
 10
34040.03638066461
 20
29066.57099312464
 30
0.0
 40
2.1
  0
CIRCLE
  5
16E2
330
1F
100
AcDbEntity
  8
孔
100
AcDbCircle
 10
33994.0363806646
 20
29066.57099312464
 30
0.0
 40
2.1
  0
CIRCLE
  5
16E3
330
1F
100
AcDbEntity
  8
孔
100
AcDbCircle
 10
33982.03638066461
 20
29066.57099312464
 30
0.0
 40
2.1
  0
CIRCLE
  5
16E4
330
1F
100
AcDbEntity
  8
孔
100
AcDbCircle
 10
33968.03638066461
 20
29066.57099312464
 30
0.0
 40
2.1
  0
CIRCLE
  5
16E5
330
1F
100
AcDbEntity
  8
孔
100
AcDbCircle
 10
33932.03638066461
 20
29066.57099312464
 30
0.0
 40
2.1
  0
CIRCLE
  5
16E6
330
1F
100
AcDbEntity
  8
孔
100
AcDbCircle
 10
33863.03638066461
 20
29066.57099312464
 30
0.0
 40
2.1
  0
CIRCLE
  5
16E7
330
1F
100
AcDbEntity
  8
孔
100
AcDbCircle
 10
33853.0363806646
 20
29066.57099312464
 30
0.0
 40
2.1
  0
CIRCLE
  5
16E8
330
1F
100
AcDbEntity
  8
孔
100
AcDbCircle
 10
33838.03638066461
 20
29066.57099312464
 30
0.0
 40
2.1
  0
CIRCLE
  5
16E9
330
1F
100
AcDbEntity
  8
孔
100
AcDbCircle
 10
33778.03638066461
 20
29066.57099312464
 30
0.0
 40
2.1
  0
LINE
  5
16EA
330
1F
100
AcDbEntity
  8
孔
100
AcDbLine
 10
34182.03638066461
 20
29071.07099312465
 30
0.0
 11
34181.01218552976
 21
29062.93791988297
 31
0.0
  0
LINE
  5
16EB
330
1F
100
AcDbEntity
  8
孔
100
AcDbLine
 10
34178.06057579946
 20
29062.93791988297
 30
0.0
 11
34177.03638066461
 21
29071.07099312465
 31
0.0
  0
ARC
  5
16EC
330
1F
100
AcDbEntity
  8
孔
100
AcDbCircle
 10
34179.53638066461
 20
29063.20624804027
 30
0.0
 40
1.5
100
AcDbArc
 50
190.3048464689414
 51
349.6951535310584
  0
LINE
  5
16ED
330
1F
100
AcDbEntity
  8
孔
100
AcDbLine
 10
34182.03638066461
 20
29071.07099312465
 30
0.0
 11
34177.03638066461
 21
29071.07099312465
 31
0.0
  0
LINE
  5
16EE
330
1F
100
AcDbEntity
  8
孔
100
AcDbLine
 10
34182.03638066461
 20
29071.07099312465
 30
0.0
 11
34182.03638066461
 21
29071.57099312465
 31
0.0
  0
LINE
  5
16EF
330
1F
100
AcDbEntity
  8
孔
100
AcDbLine
 10
34182.03638066461
 20
29071.57099312465
 30
0.0
 11
34177.03638066461
 21
29071.57099312465
 31
0.0
  0
LINE
  5
16F0
330
1F
100
AcDbEntity
  8
孔
100
AcDbLine
 10
34177.03638066461
 20
29071.57099312465
 30
0.0
 11
34177.03638066461
 21
29071.07099312465
 31
0.0
  0
LINE
  5
16F1
330
1F
100
AcDbEntity
  8
孔
100
AcDbLine
 10
34050.03638066461
 20
29071.07099312465
 30
0.0
 11
34049.01218552975
 21
29062.93791988297
 31
0.0
  0
LINE
  5
16F2
330
1F
100
AcDbEntity
  8
孔
100
AcDbLine
 10
34046.06057579946
 20
29062.93791988297
 30
0.0
 11
34045.03638066461
 21
29071.07099312465
 31
0.0
  0
ARC
  5
16F3
330
1F
100
AcDbEntity
  8
孔
100
AcDbCircle
 10
34047.53638066461
 20
29063.20624804027
 30
0.0
 40
1.5
100
AcDbArc
 50
190.3048464689414
 51
349.6951535310584
  0
LINE
  5
16F4
330
1F
100
AcDbEntity
  8
孔
100
AcDbLine
 10
34050.03638066461
 20
29071.07099312465
 30
0.0
 11
34045.03638066461
 21
29071.07099312465
 31
0.0
  0
LINE
  5
16F5
330
1F
100
AcDbEntity
  8
孔
100
AcDbLine
 10
34050.03638066461
 20
29071.07099312465
 30
0.0
 11
34050.03638066461
 21
29071.57099312465
 31
0.0
  0
LINE
  5
16F6
330
1F
100
AcDbEntity
  8
孔
100
AcDbLine
 10
34050.03638066461
 20
29071.57099312465
 30
0.0
 11
34045.03638066461
 21
29071.57099312465
 31
0.0
  0
LINE
  5
16F7
330
1F
100
AcDbEntity
  8
孔
100
AcDbLine
 10
34045.03638066461
 20
29071.57099312465
 30
0.0
 11
34045.03638066461
 21
29071.07099312465
 31
0.0
  0
LINE
  5
16F8
330
1F
100
AcDbEntity
  8
孔
100
AcDbLine
 10
34009.03638066461
 20
29071.07099312465
 30
0.0
 11
34008.01218552976
 21
29062.93791988297
 31
0.0
  0
LINE
  5
16F9
330
1F
100
AcDbEntity
  8
孔
100
AcDbLine
 10
34005.06057579946
 20
29062.93791988297
 30
0.0
 11
34004.03638066461
 21
29071.07099312465
 31
0.0
  0
ARC
  5
16FA
330
1F
100
AcDbEntity
  8
孔
100
AcDbCircle
 10
34006.53638066461
 20
29063.20624804027
 30
0.0
 40
1.5
100
AcDbArc
 50
190.3048464689414
 51
349.6951535310584
  0
LINE
  5
16FB
330
1F
100
AcDbEntity
  8
孔
100
AcDbLine
 10
34009.03638066461
 20
29071.07099312465
 30
0.0
 11
34004.03638066461
 21
29071.07099312465
 31
0.0
  0
LINE
  5
16FC
330
1F
100
AcDbEntity
  8
孔
100
AcDbLine
 10
34009.03638066461
 20
29071.07099312465
 30
0.0
 11
34009.03638066461
 21
29071.57099312465
 31
0.0
  0
LINE
  5
16FD
330
1F
100
AcDbEntity
  8
孔
100
AcDbLine
 10
34009.03638066461
 20
29071.57099312465
 30
0.0
 11
34004.03638066461
 21
29071.57099312465
 31
0.0
  0
LINE
  5
16FE
330
1F
100
AcDbEntity
  8
孔
100
AcDbLine
 10
34004.03638066461
 20
29071.57099312465
 30
0.0
 11
34004.03638066461
 21
29071.07099312465
 31
0.0
  0
LINE
  5
16FF
330
1F
100
AcDbEntity
  8
孔
100
AcDbLine
 10
33913.03638066461
 20
29071.07099312465
 30
0.0
 11
33912.01218552976
 21
29062.93791988297
 31
0.0
  0
LINE
  5
1700
330
1F
100
AcDbEntity
  8
孔
100
AcDbLine
 10
33909.06057579946
 20
29062.93791988297
 30
0.0
 11
33908.03638066461
 21
29071.07099312465
 31
0.0
  0
ARC
  5
1701
330
1F
100
AcDbEntity
  8
孔
100
AcDbCircle
 10
33910.53638066461
 20
29063.20624804027
 30
0.0
 40
1.5
100
AcDbArc
 50
190.3048464689414
 51
349.6951535310584
  0
LINE
  5
1702
330
1F
100
AcDbEntity
  8
孔
100
AcDbLine
 10
33913.03638066461
 20
29071.07099312465
 30
0.0
 11
33908.03638066461
 21
29071.07099312465
 31
0.0
  0
LINE
  5
1703
330
1F
100
AcDbEntity
  8
孔
100
AcDbLine
 10
33913.03638066461
 20
29071.07099312465
 30
0.0
 11
33913.03638066461
 21
29071.57099312465
 31
0.0
  0
LINE
  5
1704
330
1F
100
AcDbEntity
  8
孔
100
AcDbLine
 10
33913.03638066461
 20
29071.57099312465
 30
0.0
 11
33908.03638066461
 21
29071.57099312465
 31
0.0
  0
LINE
  5
1705
330
1F
100
AcDbEntity
  8
孔
100
AcDbLine
 10
33908.03638066461
 20
29071.57099312465
 30
0.0
 11
33908.03638066461
 21
29071.07099312465
 31
0.0
  0
LINE
  5
1706
330
1F
100
AcDbEntity
  8
孔
100
AcDbLine
 10
33768.03638066461
 20
29071.07099312465
 30
0.0
 11
33767.01218552975
 21
29062.93791988297
 31
0.0
  0
LINE
  5
1707
330
1F
100
AcDbEntity
  8
孔
100
AcDbLine
 10
33764.06057579946
 20
29062.93791988297
 30
0.0
 11
33763.03638066461
 21
29071.07099312465
 31
0.0
  0
ARC
  5
1708
330
1F
100
AcDbEntity
  8
孔
100
AcDbCircle
 10
33765.53638066461
 20
29063.20624804027
 30
0.0
 40
1.5
100
AcDbArc
 50
190.3048464689414
 51
349.6951535310584
  0
LINE
  5
1709
330
1F
100
AcDbEntity
  8
孔
100
AcDbLine
 10
33768.03638066461
 20
29071.07099312465
 30
0.0
 11
33763.03638066461
 21
29071.07099312465
 31
0.0
  0
LINE
  5
170A
330
1F
100
AcDbEntity
  8
孔
100
AcDbLine
 10
33768.03638066461
 20
29071.07099312465
 30
0.0
 11
33768.03638066461
 21
29071.57099312465
 31
0.0
  0
LINE
  5
170B
330
1F
100
AcDbEntity
  8
孔
100
AcDbLine
 10
33768.03638066461
 20
29071.57099312465
 30
0.0
 11
33763.03638066461
 21
29071.57099312465
 31
0.0
  0
LINE
  5
170C
330
1F
100
AcDbEntity
  8
孔
100
AcDbLine
 10
33763.03638066461
 20
29071.57099312465
 30
0.0
 11
33763.03638066461
 21
29071.07099312465
 31
0.0
  0
CIRCLE
  5
170D
330
1F
100
AcDbEntity
  8
点線
100
AcDbCircle
 10
34150.03638066461
 20
29062.57099312465
 30
0.0
 40
2.0
  0
CIRCLE
  5
170E
330
1F
100
AcDbEntity
  8
点線
100
AcDbCircle
 10
34150.03638066461
 20
29071.57099312465
 30
0.0
 40
1.149999999999999
  0
LINE
  5
170F
330
1F
100
AcDbEntity
  8
孔
100
AcDbLine
 10
34069.93638066461
 20
29064.47099312465
 30
0.0
 11
34066.13638066461
 21
29064.47099312465
 31
0.0
  0
LINE
  5
1710
330
1F
100
AcDbEntity
  8
孔
100
AcDbLine
 10
34069.93638066461
 20
29068.67099312465
 30
0.0
 11
34066.13638066461
 21
29068.67099312465
 31
0.0
  0
ARC
  5
1711
330
1F
100
AcDbEntity
  8
孔
100
AcDbCircle
 10
34069.93638066462
 20
29066.57099312464
 30
0.0
 40
2.099999999998544
100
AcDbArc
 50
269.9999999991662
 51
90.0
  0
ARC
  5
1712
330
1F
100
AcDbEntity
  8
孔
100
AcDbCircle
 10
34066.13638066461
 20
29066.57099312466
 30
0.0
 40
2.100000000013096
100
AcDbArc
 50
90.0
 51
270.0
  0
LINE
  5
1713
330
1F
100
AcDbEntity
  8
孔
100
AcDbLine
 10
33885.93638066461
 20
29064.47099312465
 30
0.0
 11
33876.1363806646
 21
29064.47099312465
 31
0.0
  0
LINE
  5
1714
330
1F
100
AcDbEntity
  8
孔
100
AcDbLine
 10
33885.93638066461
 20
29068.67099312465
 30
0.0
 11
33876.1363806646
 21
29068.67099312465
 31
0.0
  0
ARC
  5
1715
330
1F
100
AcDbEntity
  8
孔
100
AcDbCircle
 10
33885.93638066462
 20
29066.57099312464
 30
0.0
 40
2.099999999998544
100
AcDbArc
 50
269.9999999991662
 51
90.0
  0
ARC
  5
1716
330
1F
100
AcDbEntity
  8
孔
100
AcDbCircle
 10
33876.1363806646
 20
29066.57099312464
 30
0.0
 40
2.099999999998544
100
AcDbArc
 50
90.0
 51
270.0
  0
LINE
  5
1717
330
1F
100
AcDbEntity
  8
孔
100
AcDbLine
 10
33822.03638066461
 20
29062.57099312465
 30
0.0
 11
33795.03638066461
 21
29062.57099312465
 31
0.0
  0
LINE
  5
1718
330
1F
100
AcDbEntity
  8
孔
100
AcDbLine
 10
33822.03638066461
 20
29070.57099312465
 30
0.0
 11
33795.03638066461
 21
29070.57099312465
 31
0.0
  0
ARC
  5
1719
330
1F
100
AcDbEntity
  8
孔
100
AcDbCircle
 10
33822.03638066461
 20
29066.57099312464
 30
0.0
 40
4.0
100
AcDbArc
 50
270.0
 51
90.0
  0
ARC
  5
171A
330
1F
100
AcDbEntity
  8
孔
100
AcDbCircle
 10
33795.03638066461
 20
29066.57099312464
 30
0.0
 40
4.0
100
AcDbArc
 50
90.0
 51
270.0
  0
XLINE
  5
1755
330
1F
100
AcDbEntity
  8
オフセット
100
AcDbXline
 10
32915.44093491146
 20
27195.21368348996
 30
0.0
 11
-1.0
 21
0.0
 31
0.0
  0
XLINE
  5
1757
330
1F
100
AcDbEntity
  8
オフセット
100
AcDbXline
 10
34666.38138211558
 20
27902.11527306976
 30
0.0
 11
0.0
 21
-1.0
 31
0.0
  0
XLINE
  5
1759
330
1F
100
AcDbEntity
  8
オフセット
100
AcDbXline
 10
32915.44093491146
 20
27324.06696949225
 30
0.0
 11
-1.0
 21
0.0
 31
0.0
  0
XLINE
  5
17D0
330
1F
100
AcDbEntity
  8
オフセット
100
AcDbXline
 10
32915.44093491146
 20
27445.21368348995
 30
0.0
 11
-1.0
 21
0.0
 31
0.0
  0
XLINE
  5
17D2
330
1F
100
AcDbEntity
  8
オフセット
100
AcDbXline
 10
34618.88138211558
 20
27902.11527306976
 30
0.0
 11
0.0
 21
-1.0
 31
0.0
  0
XLINE
  5
17D3
330
1F
100
AcDbEntity
  8
オフセット
100
AcDbXline
 10
32915.44093491146
 20
27475.21368348996
 30
0.0
 11
-1.0
 21
0.0
 31
0.0
  0
XLINE
  5
17D4
330
1F
100
AcDbEntity
  8
オフセット
100
AcDbXline
 10
32915.44093491146
 20
27165.21368348995
 30
0.0
 11
-1.0
 21
0.0
 31
0.0
  0
LINE
  5
17D5
330
1F
100
AcDbEntity
  8
中心線
100
AcDbLine
 10
33564.03638066461
 20
29096.57099312465
 30
0.0
 11
33564.03638066461
 21
28786.57099312464
 31
0.0
  0
LINE
  5
17D6
330
1F
100
AcDbEntity
  8
中心線
100
AcDbLine
 10
34340.03638066461
 20
29096.57099312465
 30
0.0
 11
34340.03638066461
 21
28786.57099312464
 31
0.0
  0
XLINE
  5
17D7
330
1F
100
AcDbEntity
  8
オフセット
100
AcDbXline
 10
33437.07906368178
 20
27902.11527306976
 30
0.0
 11
0.0
 21
-1.0
 31
0.0
  0
XLINE
  5
17D8
330
1F
100
AcDbEntity
  8
オフセット
100
AcDbXline
 10
34267.07906368178
 20
27902.11527306976
 30
0.0
 11
0.0
 21
-1.0
 31
0.0
  0
XLINE
  5
17D9
330
1F
100
AcDbEntity
  8
オフセット
100
AcDbXline
 10
33852.07906368178
 20
27902.11527306976
 30
0.0
 11
0.0
 21
-1.0
 31
0.0
  0
XLINE
  5
17DD
330
1F
100
AcDbEntity
  8
オフセット
100
AcDbXline
 10
32678.26842177908
 20
26638.05684584568
 30
0.0
 11
-1.0
 21
0.0
 31
0.0
  0
XLINE
  5
17DE
330
1F
100
AcDbEntity
  8
オフセット
100
AcDbXline
 10
34640.88138211558
 20
27902.11527306976
 30
0.0
 11
0.0
 21
-1.0
 31
0.0
  0
XLINE
  5
17DF
330
1F
100
AcDbEntity
  8
オフセット
100
AcDbXline
 10
34640.38138211558
 20
27902.11527306976
 30
0.0
 11
0.0
 21
-1.0
 31
0.0
  0
XLINE
  5
17E0
330
1F
100
AcDbEntity
  8
オフセット
100
AcDbXline
 10
33809.88138211558
 20
27902.11527306976
 30
0.0
 11
0.0
 21
-1.0
 31
0.0
  0
XLINE
  5
17E1
330
1F
100
AcDbEntity
  8
オフセット
100
AcDbXline
 10
33810.38138211558
 20
27902.11527306976
 30
0.0
 11
0.0
 21
-1.0
 31
0.0
  0
LINE
  5
180C
330
1F
100
AcDbEntity
  8
寸法線
100
AcDbLine
 10
33564.03638066461
 20
28944.79927912694
 30
0.0
 11
33564.03638066461
 21
28934.19443291172
 31
0.0
  0
LINE
  5
180D
330
1F
100
AcDbEntity
  8
寸法線
100
AcDbLine
 10
34340.03638066461
 20
28944.79927912694
 30
0.0
 11
34340.03638066461
 21
28934.19443291172
 31
0.0
  0
LINE
  5
180E
330
1F
100
AcDbEntity
  8
寸法線
100
AcDbLine
 10
33566.53638066461
 20
28935.44443291172
 30
0.0
 11
34337.53638066461
 21
28935.44443291172
 31
0.0
  0
SOLID
  5
180F
330
1F
100
AcDbEntity
  8
寸法線
100
AcDbTrace
 10
33566.53638066461
 20
28935.86109957839
 30
0.0
 11
33566.53638066461
 21
28935.02776624505
 31
0.0
 12
33564.03638066461
 22
28935.44443291172
 32
0.0
 13
33564.03638066461
 23
28935.44443291172
 33
0.0
  0
SOLID
  5
1810
330
1F
100
AcDbEntity
  8
寸法線
100
AcDbTrace
 10
34337.53638066461
 20
28935.86109957839
 30
0.0
 11
34337.53638066461
 21
28935.02776624505
 31
0.0
 12
34340.03638066461
 22
28935.44443291172
 32
0.0
 13
34340.03638066461
 23
28935.44443291172
 33
0.0
  0
MTEXT
  5
1811
330
1F
100
AcDbEntity
  8
寸法線
100
AcDbMText
 10
34086.36091388554
 20
28935.44443291172
 30
0.0
 40
20.0
 41
452.965687196711
 46
0.0
 71
     5
 72
     1
  1
{\fMS PGothic|b0|i0|c128|p50;灯具取付寸法　最内ピッチ　748\P　　　　　　　　　　最外ピッチ　814}
 73
     1
 44
1.0
  0
XLINE
  5
1813
330
1F
100
AcDbEntity
  8
オフセット
100
AcDbXline
 10
32915.44093491146
 20
27384.06696949224
 30
0.0
 11
-1.0
 21
0.0
 31
0.0
  0
XLINE
  5
1814
330
1F
100
AcDbEntity
  8
オフセット
100
AcDbXline
 10
34704.41139354637
 20
27902.11527306976
 30
0.0
 11
0.0
 21
-1.0
 31
0.0
  0
XLINE
  5
1815
330
1F
100
AcDbEntity
  8
オフセット
100
AcDbXline
 10
34096.1696955741
 20
27902.11527306976
 30
0.0
 11
0.0
 21
-1.0
 31
0.0
  0
XLINE
  5
1816
330
1F
100
AcDbEntity
  8
オフセット
100
AcDbXline
 10
33912.97419033847
 20
27902.11527306976
 30
0.0
 11
0.0
 21
-1.0
 31
0.0
  0
XLINE
  5
1817
330
1F
100
AcDbEntity
  8
オフセット
100
AcDbXline
 10
33769.54558598312
 20
27902.11527306976
 30
0.0
 11
0.0
 21
-1.0
 31
0.0
  0
DIMENSION
  5
181B
102
{ACAD_XDICTIONARY
360
1828
102
}
102
{ACAD_REACTORS
330
1832
102
}
330
1F
100
AcDbEntity
  8
寸法線
100
AcDbDimension
280
     0
  2
*D6
 10
34388.53638066461
 20
29163.27803018248
 30
0.0
 11
33952.0363806646
 21
29174.12131121931
 31
0.0
 70
    32
 71
     5
 42
873.0
 73
     0
 74
     0
 75
     0
  3
ISO-25
100
AcDbAlignedDimension
 13
33515.53638066461
 23
29066.57099312464
 33
0.0
 14
34388.53638066461
 24
29066.57099312464
 34
0.0
100
AcDbRotatedDimension
  0
DIMENSION
  5
1833
102
{ACAD_XDICTIONARY
360
1840
102
}
102
{ACAD_REACTORS
330
184A
102
}
330
1F
100
AcDbEntity
  8
寸法線
100
AcDbDimension
280
     0
  2
*D7
 10
34443.65302111788
 20
28868.57099312464
 30
0.0
 11
34432.81656136344
 21
28842.57099312465
 31
0.0
 70
    32
 71
     5
 42
52.0
 73
     0
 74
     0
 75
     0
  3
ISO-25
100
AcDbAlignedDimension
 13
34387.53638066461
 23
28816.57099312464
 33
0.0
 14
34387.53638066461
 24
28868.57099312464
 34
0.0
 50
90.0
100
AcDbRotatedDimension
  0
DIMENSION
  5
184B
102
{ACAD_XDICTIONARY
360
1859
102
}
102
{ACAD_REACTORS
330
1864
102
}
330
1F
100
AcDbEntity
  8
寸法線
100
AcDbDimension
280
     0
  2
*D8
 10
34443.65302111788
 20
28791.57099312465
 30
0.0
 11
34432.81656136344
 21
28773.87573391592
 31
0.0
 70
    32
 71
     5
 42
25.0
 73
     0
 74
     0
 75
     0
  3
ISO-25
100
AcDbAlignedDimension
 13
34387.53638066461
 23
28816.57099312464
 33
0.0
 14
33985.33638066461
 24
28791.57099312465
 34
0.0
 50
90.0
100
AcDbRotatedDimension
  0
VIEWPORT
  5
318
102
{ACAD_XDICTIONARY
360
319
102
}
330
D2
100
AcDbEntity
 67
     1
  8
0
100
AcDbViewport
 10
205.0097503662109
 20
198.846392454756
 30
0.0
 40
511.3899719593863
 41
424.8889022343412
 68
     1
 69
     1
 12
205.0097503662109
 22
198.846392454756
 13
0.0
 23
0.0
 14
10.0
 24
10.0
 15
10.0
 25
10.0
 16
0.0
 26
0.0
 36
1.0
 17
0.0
 27
0.0
 37
0.0
 42
50.0
 43
0.0
 44
0.0
 45
424.8889022343412
 50
0.0
 51
0.0
 72
  1000
 90
   557088
  1

281
     0
 71
     1
 74
     0
110
0.0
120
0.0
130
0.0
111
1.0
121
0.0
131
0.0
112
0.0
122
1.0
132
0.0
 79
     0
146
0.0
170
     0
 61
     5
348
EC
292
     1
282
     1
141
0.0
142
0.0
 63
   250
421
  3355443
  0
VIEWPORT
  5
31C
102
{ACAD_XDICTIONARY
360
31D
102
}
330
D2
100
AcDbEntity
 67
     1
  8
外形線②
100
AcDbViewport
 10
128.5
 20
97.5
 30
0.0
 40
205.6
 41
156.0
 68
     2
 69
     2
 12
210.0
 22
148.5
 13
0.0
 23
0.0
 14
10.0
 24
10.0
 15
10.0
 25
10.0
 16
0.0
 26
0.0
 36
1.0
 17
0.0
 27
0.0
 37
0.0
 42
50.0
 43
0.0
 44
0.0
 45
321.3253284758076
 50
0.0
 51
0.0
 72
  1000
 90
   819808
  1

281
     0
 71
     1
 74
     0
110
0.0
120
0.0
130
0.0
111
1.0
121
0.0
131
0.0
112
0.0
122
1.0
132
0.0
 79
     0
146
0.0
170
     0
 61
     5
348
EC
292
     1
282
     1
141
0.0
142
0.0
 63
   250
421
  3355443
  0
ENDSEC
  0
SECTION
  2
OBJECTS
  0
DICTIONARY
  5
C
330
0
100
AcDbDictionary
281
     1
  3
ACAD_CIP_PREVIOUS_PRODUCT_INFO
350
20D
  3
ACAD_COLOR
350
79
  3
ACAD_DETAILVIEWSTYLE
350
212
  3
ACAD_GROUP
350
D
  3
ACAD_LAYOUT
350
1A
  3
ACAD_MATERIAL
350
78
  3
ACAD_MLEADERSTYLE
350
124
  3
ACAD_MLINESTYLE
350
17
  3
ACAD_PLOTSETTINGS
350
19
  3
ACAD_PLOTSTYLENAME
350
E
  3
ACAD_SCALELIST
350
103
  3
ACAD_SECTIONVIEWSTYLE
350
210
  3
ACAD_TABLESTYLE
350
97
  3
ACAD_VISUALSTYLE
350
E6
  3
ACDB_RECOMPOSE_DATA
350
19A9
  3
AcDbVariableDictionary
350
67
  0
DICTIONARY
  5
1F6
330
2
100
AcDbDictionary
280
     1
281
     1
  3
ACAD_LAYERSTATES
360
1F7
  0
DICTIONARY
  5
133
330
10
100
AcDbDictionary
280
     1
281
     1
  0
DICTIONARY
  5
CEB
330
CEA
100
AcDbDictionary
280
     1
281
     1
  0
DICTIONARY
  5
1C5
330
1F
100
AcDbDictionary
280
     1
281
     1
  3
ACAD_SORTENTS
360
35E
  0
DICTIONARY
  5
C7B
330
C6E
100
AcDbDictionary
280
     1
281
     1
  3
ACAD_DIMASSOC
360
C85
  0
DICTIONARY
  5
C94
330
C86
100
AcDbDictionary
280
     1
281
     1
  3
ACAD_DIMASSOC
360
C9F
  0
DICTIONARY
  5
CC7
330
CBA
100
AcDbDictionary
280
     1
281
     1
  3
ACAD_DIMASSOC
360
CD1
  0
DICTIONARY
  5
CDF
330
CD2
100
AcDbDictionary
280
     1
281
     1
  3
ACAD_DIMASSOC
360
CE9
  0
DICTIONARY
  5
1322
330
1314
100
AcDbDictionary
280
     1
281
     1
  3
ACAD_DIMASSOC
360
132D
  0
DICTIONARY
  5
1828
330
181B
100
AcDbDictionary
280
     1
281
     1
  3
ACAD_DIMASSOC
360
1832
  0
DICTIONARY
  5
1840
330
1833
100
AcDbDictionary
280
     1
281
     1
  3
ACAD_DIMASSOC
360
184A
  0
DICTIONARY
  5
1859
330
184B
100
AcDbDictionary
280
     1
281
     1
  3
ACAD_DIMASSOC
360
1864
  0
DICTIONARY
  5
319
330
318
100
AcDbDictionary
280
     1
281
     1
  3
ASDK_XREC_ANNOTATION_SCALE_INFO
360
31A
  0
DICTIONARY
  5
31D
330
31C
100
AcDbDictionary
280
     1
281
     1
  3
ASDK_XREC_ANNOTATION_SCALE_INFO
360
31E
  0
XRECORD
  5
20D
102
{ACAD_REACTORS
330
C
102
}
330
C
100
AcDbXrecord
280
     1
300
ACDLT
300
2016
300
ACDLT_F_S
  0
DICTIONARY
  5
79
102
{ACAD_REACTORS
330
C
102
}
330
C
100
AcDbDictionary
281
     1
  0
DICTIONARY
  5
212
102
{ACAD_REACTORS
330
C
102
}
330
C
100
AcDbDictionary
281
     1
  3
Metric50
350
213
  0
DICTIONARY
  5
D
102
{ACAD_REACTORS
330
C
102
}
330
C
100
AcDbDictionary
281
     1
  0
DICTIONARY
  5
1A
102
{ACAD_REACTORS
330
C
102
}
330
C
100
AcDbDictionary
281
     1
  3
Model
350
22
  3
レイアウト1
350
D3
  3
レイアウト2
350
D7
  0
DICTIONARY
  5
78
102
{ACAD_REACTORS
330
C
102
}
330
C
100
AcDbDictionary
281
     1
  3
ByBlock
350
E4
  3
ByLayer
350
E3
  3
Global
350
E5
  0
DICTIONARY
  5
124
102
{ACAD_REACTORS
330
C
102
}
330
C
100
AcDbDictionary
281
     1
  3
Annotative
350
132
  3
Standard
350
125
  0
DICTIONARY
  5
17
102
{ACAD_REACTORS
330
C
102
}
330
C
100
AcDbDictionary
281
     1
  3
Standard
350
18
  0
DICTIONARY
  5
19
102
{ACAD_REACTORS
330
C
102
}
330
C
100
AcDbDictionary
281
     1
  0
ACDBDICTIONARYWDFLT
  5
E
102
{ACAD_REACTORS
330
C
102
}
330
C
100
AcDbDictionary
281
     1
  3
Normal
350
F
100
AcDbDictionaryWithDefault
340
F
  0
DICTIONARY
  5
103
102
{ACAD_REACTORS
330
C
102
}
330
C
100
AcDbDictionary
281
     1
  3
A0
350
104
  3
A1
350
1B5
  3
A2
350
1B6
  3
A3
350
1B7
  3
A4
350
1B8
  3
A5
350
1B9
  3
A6
350
1BA
  3
A7
350
1BB
  3
A8
350
1BC
  3
A9
350
1BD
  3
B0
350
1BE
  3
B1
350
1BF
  3
B2
350
1C0
  3
B3
350
1C1
  3
B4
350
1C2
  3
B5
350
1C3
  3
B6
350
1C4
  0
DICTIONARY
  5
210
102
{ACAD_REACTORS
330
C
102
}
330
C
100
AcDbDictionary
281
     1
  3
Metric50
350
211
  0
DICTIONARY
  5
97
102
{ACAD_REACTORS
330
C
102
}
330
C
100
AcDbDictionary
281
     1
  3
Standard
350
98
  0
DICTIONARY
  5
E6
102
{ACAD_REACTORS
330
C
102
}
330
C
100
AcDbDictionary
281
     1
  3
2dWireframe
350
EC
  3
Basic
350
EB
  3
Brighten
350
F2
  3
ColorChange
350
F6
  3
Conceptual
350
EF
  3
Dim
350
F1
  3
EdgeColorOff
350
1DD
  3
Facepattern
350
F5
  3
Flat
350
E7
  3
FlatWithEdges
350
E8
  3
Gouraud
350
E9
  3
GouraudWithEdges
350
EA
  3
Hidden
350
EE
  3
JitterOff
350
1DB
  3
Linepattern
350
F4
  3
OverhangOff
350
1DC
  3
Realistic
350
F0
  3
Shaded
350
1EA
  3
Shaded with edges
350
1E9
  3
Shades of Gray
350
1E6
  3
Sketchy
350
1E7
  3
Thicken
350
F3
  3
Wireframe
350
ED
  3
X-Ray
350
1E8
  0
XRECORD
  5
19A9
102
{ACAD_REACTORS
330
C
102
}
330
C
100
AcDbXrecord
280
     1
 90
        1
330
98
330
211
330
213
330
B52
330
B53
330
B54
330
B55
330
B56
330
B57
330
B58
330
B59
330
B5A
330
B5B
330
B5C
330
B5D
330
B5E
330
B5F
330
B60
330
B61
330
B62
330
B63
330
B66
330
B67
330
B68
330
B69
330
B6A
330
B6B
330
B6C
330
B6D
330
B6E
330
B6F
330
B70
330
B7B
330
B7C
330
B7D
330
B7E
330
B7F
330
B80
330
B81
330
B82
330
B83
330
B84
330
B85
330
B86
330
C33
330
C35
330
C37
330
C39
330
C3B
330
C3D
330
C3E
330
13B0
330
13B3
330
13B4
  0
DICTIONARY
  5
67
102
{ACAD_REACTORS
330
C
102
}
330
C
100
AcDbDictionary
281
     1
  3
CANNOSCALE
350
13D
  3
CMLEADERSTYLE
350
13C
  3
CTABLESTYLE
350
C5
  3
CVIEWDETAILSTYLE
350
21E
  3
CVIEWSECTIONSTYLE
350
21F
  3
DIMASSOC
350
68
  3
EXPORTMODELSPACE
350
DA8
  3
HIDETEXT
350
6C
  3
LAYEREVAL
350
1A5
  3
LAYERNOTIFY
350
1A6
  0
DICTIONARY
  5
1F7
102
{ACAD_REACTORS
330
1F6
102
}
330
1F6
100
AcDbDictionary
281
     1
  0
SORTENTSTABLE
  5
35E
102
{ACAD_REACTORS
330
1C5
102
}
330
1C5
100
AcDbSortentsTable
330
1F
331
16EB
  5
1705
331
7AA
  5
7AA
331
1636
  5
1650
331
B5E
  5
C3A
331
1675
  5
168F
331
16AC
  5
16C6
331
871
  5
B23
331
7B2
  5
7B2
331
163E
  5
1658
331
16B4
  5
16CE
331
15E9
  5
1603
331
15F1
  5
160B
331
7BA
  5
7BA
331
13B2
  5
15D0
331
15F9
  5
1613
331
15BA
  5
15D4
331
7C2
  5
7C2
331
11C8
  5
11F5
331
15C2
  5
15DC
331
11D0
  5
11FD
331
D85
  5
F9B
331
D8D
  5
FA3
331
D4E
  5
D83
331
90C
  5
B59
331
D95
  5
FAB
331
D56
  5
D8B
331
D5E
  5
D93
331
C3E
  5
D6D
331
984
  5
B5E
331
C46
  5
D6F
331
C4E
  5
D77
331
B66
  5
C45
331
B27
  5
B71
331
16F3
  5
170D
331
17D2
  5
955
331
16BC
  5
16D6
331
167D
  5
1697
331
1646
  5
1660
331
B6E
  5
C4D
331
B2F
  5
B79
331
1607
  5
1621
331
16FB
  5
1715
331
1685
  5
169F
331
16C4
  5
16DE
331
B76
  5
CD2
331
B37
  5
B81
331
160F
  5
1629
331
164E
  5
1668
331
7CA
  5
7CA
331
16CC
  5
16E6
331
1703
  5
171D
331
1617
  5
1631
331
B7E
  5
D50
331
B3F
  5
B89
331
1656
  5
1670
331
168D
  5
16A7
331
11D8
  5
1205
331
D99
  5
FAF
331
129B
  5
960
331
7D2
  5
7D2
331
16D4
  5
16EE
331
170B
  5
17D3
331
161F
  5
1639
331
165E
  5
1678
331
1695
  5
16AF
331
15CA
  5
15E4
331
11E0
  5
120D
331
15D2
  5
15EC
331
7DA
  5
7DA
331
15DA
  5
15F4
331
7A3
  5
7A3
331
11F0
  5
12F5
331
15E2
  5
15FC
331
11F8
  5
1335
331
D66
  5
D9B
331
D6E
  5
F84
331
994
  5
B68
331
D76
  5
F8C
331
D7E
  5
F94
331
C6E
  5
D7A
331
8C5
  5
B2A
331
C27
  5
9B1
331
C2F
  5
D61
331
C86
  5
D7B
331
C37
  5
D66
331
B86
  5
D59
331
B47
  5
C1D
331
16DC
  5
16F6
331
1713
  5
17DE
331
1666
  5
1680
331
169D
  5
16B7
331
B4F
  5
C25
331
1627
  5
1641
331
16A5
  5
16BF
331
16E4
  5
16FE
331
B57
  5
C33
331
162F
  5
1649
331
166E
  5
1688
331
86A
  5
9BA
331
16EC
  5
1706
331
7AB
  5
7AB
331
1637
  5
1651
331
B5F
  5
C3B
331
1676
  5
1690
331
16AD
  5
16C7
331
1200
  5
13B4
331
872
  5
B24
331
7B3
  5
7B3
331
163F
  5
1659
331
16B5
  5
16CF
331
15EA
  5
1604
331
15F2
  5
160C
331
7BB
  5
7BB
331
13B3
  5
15D1
331
1230
  5
9A2
331
15FA
  5
1614
331
15BB
  5
15D5
331
7C3
  5
7C3
331
11C9
  5
11F6
331
15C3
  5
15DD
331
11D1
  5
11FE
331
D86
  5
F9C
331
D8E
  5
FA4
331
D4F
  5
D84
331
90D
  5
B5A
331
D96
  5
FAC
331
D57
  5
D8C
331
D5F
  5
D94
331
985
  5
B5F
331
C47
  5
D70
331
98D
  5
B61
331
C4F
  5
D78
331
B20
  5
B6A
331
1600
  5
161A
331
B67
  5
C46
331
B28
  5
B72
331
16F4
  5
170E
331
17D3
  5
99F
331
16BD
  5
16D7
331
167E
  5
1698
331
1647
  5
1661
331
B6F
  5
C4E
331
B30
  5
B7A
331
1608
  5
1622
331
16FC
  5
1716
331
1686
  5
16A0
331
16C5
  5
16DF
331
1610
  5
162A
331
B77
  5
D49
331
B38
  5
B82
331
164F
  5
1669
331
7CB
  5
7CB
331
16CD
  5
16E7
331
1704
  5
171E
331
1618
  5
1632
331
B7F
  5
D51
331
1657
  5
1671
331
168E
  5
16A8
331
11D9
  5
1206
331
D9A
  5
FB0
331
7D3
  5
7D3
331
16D5
  5
16EF
331
170C
  5
17D4
331
165F
  5
1679
331
1696
  5
16B0
331
15CB
  5
15E5
331
11E1
  5
1230
331
15D3
  5
15ED
331
7DB
  5
7DB
331
1314
  5
15CC
331
15DB
  5
15F5
331
7A4
  5
7A4
331
11F1
  5
12F6
331
15E3
  5
15FD
331
11F9
  5
1336
331
D67
  5
D9C
331
D6F
  5
F85
331
D77
  5
F8D
331
C18
  5
9B5
331
D7F
  5
F95
331
C20
  5
D5E
331
8C6
  5
B2D
331
9C5
  5
833
331
906
  5
B51
331
B40
  5
B8A
331
1620
  5
163A
331
B87
  5
D5A
331
B48
  5
C1E
331
16DD
  5
16F7
331
1714
  5
17DF
331
1813
  5
9A1
331
1667
  5
1681
331
169E
  5
16B8
331
B50
  5
C26
331
1628
  5
1642
331
16A6
  5
16C0
331
16E5
  5
16FF
331
1630
  5
164A
331
C17
  5
9AA
331
B58
  5
C34
331
166F
  5
1689
331
86B
  5
9BB
331
16ED
  5
1707
331
7AC
  5
7AC
331
1638
  5
1652
331
1677
  5
1691
331
16AE
  5
16C8
331
1201
  5
15B9
331
873
  5
9A7
331
7B4
  5
7B4
331
16B6
  5
16D0
331
15EB
  5
1605
331
15F3
  5
160D
331
7BC
  5
7BC
331
13B4
  5
15D2
331
15FB
  5
1615
331
15BC
  5
15D6
331
7C4
  5
7C4
331
11CA
  5
11F7
331
15C4
  5
15DE
331
11D2
  5
11FF
331
D87
  5
F9D
331
D8F
  5
FA5
331
D50
  5
D85
331
D97
  5
FAD
331
D58
  5
D8D
331
C38
  5
D67
331
986
  5
B60
331
C48
  5
D71
331
98E
  5
B62
331
C50
  5
D79
331
B60
  5
C3C
331
B21
  5
B6B
331
1640
  5
165A
331
1601
  5
161B
331
B68
  5
C47
331
B29
  5
B73
331
16F5
  5
170F
331
17D4
  5
963
331
16BE
  5
16D8
331
167F
  5
1699
331
B70
  5
C4F
331
B31
  5
B7B
331
1609
  5
1623
331
1648
  5
1662
331
16FD
  5
1717
331
1687
  5
16A1
331
16C6
  5
16E0
331
1611
  5
162B
331
B78
  5
D4A
331
B39
  5
B83
331
1650
  5
166A
331
7CC
  5
7CC
331
16CE
  5
16E8
331
1705
  5
171F
331
1619
  5
1633
331
1658
  5
1672
331
168F
  5
16A9
331
11DA
  5
1207
331
D9B
  5
FB1
331
7D4
  5
7D4
331
16D6
  5
16F0
331
170D
  5
17D5
331
180C
  5
1812
331
1697
  5
16B1
331
15CC
  5
15E6
331
15D4
  5
15EE
331
11E2
  5
1231
331
15DC
  5
15F6
331
7E4
  5
95D
331
7A5
  5
7A5
331
11F2
  5
12F7
331
11FA
  5
1337
331
15E4
  5
15FE
331
D60
  5
D95
331
D68
  5
F7E
331
D70
  5
F86
331
8A7
  5
B4F
331
D78
  5
F8E
331
9A6
  5
9A9
331
907
  5
B53
331
B80
  5
D52
331
B41
  5
C17
331
1621
  5
163B
331
B88
  5
D5B
331
B49
  5
C1F
331
1660
  5
167A
331
16DE
  5
16F8
331
1715
  5
17E0
331
1814
  5
90F
331
169F
  5
16B9
331
B51
  5
C27
331
1629
  5
1643
331
1668
  5
1682
331
16A7
  5
16C1
331
16E6
  5
1700
331
1631
  5
164B
331
B59
  5
C35
331
1670
  5
168A
331
86C
  5
9BC
331
7AD
  5
7AD
331
16EE
  5
1708
331
1755
  5
961
331
1639
  5
1653
331
16AF
  5
16C9
331
1202
  5
15BA
331
1123
  5
95F
331
7B5
  5
7B5
331
16B7
  5
16D1
331
15EC
  5
1606
331
15F4
  5
160E
331
89C
  5
B25
331
7BD
  5
7BD
331
120A
  5
15BD
331
15FC
  5
1616
331
15BD
  5
15D7
331
7C5
  5
7C5
331
11CB
  5
11F8
331
11D3
  5
1200
331
15C5
  5
15DF
331
D80
  5
F96
331
D88
  5
F9E
331
D49
  5
D7E
331
D90
  5
FA6
331
D51
  5
D86
331
D59
  5
D8E
331
C39
  5
D68
331
C49
  5
D72
331
98F
  5
B63
331
B61
  5
C3D
331
B22
  5
B6C
331
1678
  5
1692
331
1602
  5
161C
331
B69
  5
C48
331
B2A
  5
B74
331
1641
  5
165B
331
16F6
  5
1710
331
17D5
  5
1810
331
16BF
  5
16D9
331
1680
  5
169A
331
B71
  5
C54
331
B32
  5
B7C
331
160A
  5
1624
331
1649
  5
1663
331
16FE
  5
1718
331
17DD
  5
9A3
331
16C7
  5
16E1
331
1612
  5
162C
331
B79
  5
D4B
331
B3A
  5
B84
331
1651
  5
166B
331
1688
  5
16A2
331
7CD
  5
7CD
331
16CF
  5
16E9
331
1706
  5
1720
331
161A
  5
1634
331
1659
  5
1673
331
1690
  5
16AA
331
11DB
  5
1208
331
D9C
  5
FB2
331
7D5
  5
7D5
331
16D7
  5
16F1
331
170E
  5
17D6
331
180D
  5
1813
331
15CD
  5
15E7
331
15D5
  5
15EF
331
11E3
  5
126E
331
15DD
  5
15F7
331
7A6
  5
7A6
331
11F3
  5
12F8
331
11FB
  5
13AF
331
15E5
  5
15FF
331
D61
  5
D96
331
CBA
  5
D7C
331
D69
  5
F7F
331
D71
  5
F87
331
CD2
  5
D7D
331
8A8
  5
B50
331
D79
  5
F8F
331
C22
  5
9AD
331
9A7
  5
9A8
331
B81
  5
D53
331
B42
  5
C18
331
1661
  5
167B
331
1698
  5
16B2
331
B89
  5
D5C
331
B4A
  5
C20
331
1622
  5
163C
331
16DF
  5
16F9
331
1716
  5
17E1
331
1815
  5
90C
331
16A0
  5
16BA
331
B52
  5
C28
331
162A
  5
1644
331
1669
  5
1683
331
16E7
  5
1701
331
1632
  5
164C
331
B5A
  5
C36
331
1671
  5
168B
331
16A8
  5
16C2
331
86D
  5
9BD
331
16EF
  5
1709
331
7AE
  5
7AE
331
163A
  5
1654
331
16B0
  5
16CA
331
1203
  5
15BB
331
7B6
  5
7B6
331
15ED
  5
1607
331
15F5
  5
160F
331
89D
  5
B27
331
7BE
  5
7BE
331
120B
  5
15BF
331
15FD
  5
1617
331
15BE
  5
15D8
331
7C6
  5
7C6
331
11CC
  5
11F9
331
11D4
  5
1201
331
15C6
  5
15E0
331
D81
  5
F97
331
D89
  5
F9F
331
D4A
  5
D7F
331
908
  5
B54
331
D91
  5
FA7
331
D52
  5
D87
331
D5A
  5
D8F
331
C3A
  5
D69
331
C42
  5
9B4
331
B1F
  5
B69
331
C4A
  5
D73
331
B62
  5
C3E
331
B23
  5
B6D
331
16B8
  5
16D2
331
1679
  5
1693
331
1642
  5
165C
331
B6A
  5
C49
331
B2B
  5
B75
331
1603
  5
161D
331
16F7
  5
1711
331
17D6
  5
1811
331
1681
  5
169B
331
16C0
  5
16DA
331
B72
  5
C6E
331
B33
  5
B7D
331
160B
  5
1625
331
164A
  5
1664
331
16FF
  5
1719
331
17DE
  5
95A
331
16C8
  5
16E2
331
1613
  5
162D
331
B7A
  5
D4C
331
B3B
  5
B85
331
1652
  5
166C
331
1689
  5
16A3
331
7CE
  5
7CE
331
16D0
  5
16EA
331
1707
  5
1721
331
161B
  5
1635
331
165A
  5
1674
331
1691
  5
16AB
331
11DC
  5
1209
331
7D6
  5
7D6
331
170F
  5
17D7
331
180E
  5
1814
331
15CE
  5
15E8
331
15D6
  5
15F0
331
11E4
  5
1294
331
15DE
  5
15F8
331
7A7
  5
7A7
331
11F4
  5
12F9
331
11FC
  5
13B0
331
15E6
  5
1600
331
D62
  5
D97
331
D6A
  5
F80
331
990
  5
B64
331
D72
  5
F88
331
D7A
  5
F90
331
9A0
  5
9B9
331
C23
  5
9B0
331
C33
  5
D62
331
B82
  5
D54
331
B43
  5
C19
331
16D8
  5
16F2
331
1662
  5
167C
331
1699
  5
16B3
331
B8A
  5
D5D
331
B4B
  5
C21
331
1623
  5
163D
331
1717
  5
180C
331
1816
  5
90E
331
16A1
  5
16BB
331
16E0
  5
16FA
331
B53
  5
C29
331
162B
  5
1645
331
166A
  5
1684
331
16E8
  5
1702
331
1633
  5
164D
331
B5B
  5
C37
331
1672
  5
168C
331
16A9
  5
16C3
331
86E
  5
9BE
331
7AF
  5
7AF
331
1757
  5
95C
331
163B
  5
1655
331
16B1
  5
16CB
331
1204
  5
15BC
331
1125
  5
9A6
331
15EE
  5
1608
331
7B7
  5
7B7
331
13AF
  5
15CD
331
15F6
  5
1610
331
89E
  5
B28
331
7BF
  5
7BF
331
15FE
  5
1618
331
15BF
  5
15D9
331
7C7
  5
7C7
331
11CD
  5
11FA
331
11D5
  5
1202
331
15C7
  5
15E1
331
D82
  5
F98
331
D8A
  5
FA0
331
D4B
  5
D80
331
909
  5
B55
331
D92
  5
FA8
331
D53
  5
D88
331
D5B
  5
D90
331
C3B
  5
D6A
331
981
  5
B5B
331
C43
  5
9B3
331
C4B
  5
D74
331
B63
  5
C42
331
B24
  5
B6E
331
16F0
  5
170A
331
16B9
  5
16D3
331
167A
  5
1694
331
1643
  5
165D
331
B6B
  5
C4A
331
B2C
  5
B76
331
1604
  5
161E
331
16F8
  5
1712
331
17D7
  5
906
331
1682
  5
169C
331
16C1
  5
16DB
331
B73
  5
C86
331
B34
  5
B7E
331
160C
  5
1626
331
164B
  5
1665
331
17DF
  5
95B
331
16C9
  5
16E3
331
1700
  5
171A
331
1614
  5
162E
331
B7B
  5
D4D
331
B3C
  5
B86
331
1653
  5
166D
331
168A
  5
16A4
331
7CF
  5
7CF
331
16D1
  5
16EB
331
1708
  5
17D0
331
161C
  5
1636
331
165B
  5
1675
331
1692
  5
16AC
331
11DD
  5
120A
331
7D7
  5
7D7
331
180F
  5
1815
331
15CF
  5
15E9
331
15D7
  5
15F1
331
11E5
  5
1295
331
15DF
  5
15F9
331
11F5
  5
12FC
331
11FD
  5
13B1
331
15E7
  5
1601
331
D63
  5
D98
331
D6B
  5
F81
331
991
  5
B65
331
8A2
  5
B2B
331
D73
  5
F89
331
D7B
  5
F91
331
9A1
  5
9B8
331
C24
  5
9AB
331
C34
  5
D63
331
B83
  5
D56
331
B44
  5
C1A
331
16D9
  5
16F3
331
1710
  5
17D8
331
1663
  5
167D
331
169A
  5
16B4
331
B4C
  5
C22
331
1624
  5
163E
331
1718
  5
180D
331
1817
  5
93D
331
16A2
  5
16BC
331
16E1
  5
16FB
331
B54
  5
C2A
331
162C
  5
1646
331
166B
  5
1685
331
16E9
  5
1703
331
7A8
  5
7A8
331
1634
  5
164E
331
B5C
  5
C38
331
1673
  5
168D
331
16AA
  5
16C4
331
86F
  5
B21
331
7B0
  5
7B0
331
163C
  5
1656
331
16B2
  5
16CC
331
1205
  5
15BE
331
1126
  5
9A5
331
15EF
  5
1609
331
7B8
  5
7B8
331
13B0
  5
15CE
331
15F7
  5
1611
331
89F
  5
B29
331
7C0
  5
7C0
331
11C6
  5
11F3
331
15FF
  5
1619
331
15C0
  5
15DA
331
11CE
  5
11FB
331
11D6
  5
1203
331
D83
  5
F99
331
D8B
  5
FA1
331
D4C
  5
D81
331
90A
  5
B56
331
D93
  5
FA9
331
D54
  5
D89
331
93A
  5
B52
331
D5C
  5
D91
331
C3C
  5
D6B
331
982
  5
B5C
331
C44
  5
9B2
331
C4C
  5
D75
331
B64
  5
C43
331
B25
  5
B6F
331
16F1
  5
170B
331
17D0
  5
99B
331
16BA
  5
16D4
331
167B
  5
1695
331
1644
  5
165E
331
B6C
  5
C4B
331
B2D
  5
B77
331
1605
  5
161F
331
16F9
  5
1713
331
17D8
  5
908
331
1683
  5
169D
331
16C2
  5
16DC
331
B74
  5
CA0
331
B35
  5
B7F
331
160D
  5
1627
331
164C
  5
1666
331
17E0
  5
911
331
7C8
  5
7C8
331
16CA
  5
16E4
331
1701
  5
171B
331
1615
  5
162F
331
B7C
  5
D4E
331
B3D
  5
B87
331
1654
  5
166E
331
168B
  5
16A5
331
7D0
  5
7D0
331
16D2
  5
16EC
331
1709
  5
17D1
331
161D
  5
1637
331
165C
  5
1676
331
1693
  5
16AD
331
15C8
  5
15E2
331
11DE
  5
120B
331
15D0
  5
15EA
331
7D8
  5
7D8
331
15D8
  5
15F2
331
11E6
  5
1296
331
15E0
  5
15FA
331
11F6
  5
1314
331
11FE
  5
13B2
331
D64
  5
D99
331
D6C
  5
F82
331
992
  5
B66
331
8A3
  5
B2C
331
D74
  5
F8A
331
99A
  5
B20
331
D7C
  5
F92
331
9A2
  5
9B7
331
C25
  5
9AC
331
C35
  5
D64
331
B84
  5
D57
331
B45
  5
C1B
331
16DA
  5
16F4
331
1711
  5
17D9
331
1810
  5
1816
331
1664
  5
167E
331
169B
  5
16B5
331
B4D
  5
C23
331
1625
  5
163F
331
1719
  5
180E
331
16A3
  5
16BD
331
16E2
  5
16FC
331
B55
  5
C2B
331
162D
  5
1647
331
166C
  5
1686
331
16EA
  5
1704
331
7A9
  5
7A9
331
1635
  5
164F
331
B5D
  5
C39
331
1674
  5
168E
331
16AB
  5
16C5
331
870
  5
B22
331
7B1
  5
7B1
331
1759
  5
9A0
331
163D
  5
1657
331
16B3
  5
16CD
331
15E8
  5
1602
331
15F0
  5
160A
331
7B9
  5
7B9
331
13B1
  5
15CF
331
15F8
  5
1612
331
15B9
  5
15D3
331
7C1
  5
7C1
331
11C7
  5
11F4
331
15C1
  5
15DB
331
11CF
  5
11FC
331
11D7
  5
1204
331
D84
  5
F9A
331
D8C
  5
FA2
331
D4D
  5
D82
331
90B
  5
B58
331
D94
  5
FAA
331
D55
  5
D8A
331
93B
  5
B57
331
D5D
  5
D92
331
C3D
  5
D6C
331
983
  5
B5D
331
C45
  5
D6E
331
C4D
  5
D76
331
B65
  5
C44
331
B26
  5
B70
331
16F2
  5
170C
331
16BB
  5
16D5
331
167C
  5
1696
331
1645
  5
165F
331
B6D
  5
C4C
331
B2E
  5
B78
331
1606
  5
1620
331
16FA
  5
1714
331
17D9
  5
910
331
1684
  5
169E
331
16C3
  5
16DD
331
B75
  5
CBA
331
B36
  5
B80
331
160E
  5
1628
331
164D
  5
1667
331
17E1
  5
954
331
7C9
  5
7C9
331
16CB
  5
16E5
331
1702
  5
171C
331
1616
  5
1630
331
B7D
  5
D4F
331
B3E
  5
B88
331
1655
  5
166F
331
168C
  5
16A6
331
D98
  5
FAE
331
129A
  5
9A4
331
7D1
  5
7D1
331
16D3
  5
16ED
331
170A
  5
17D2
331
161E
  5
1638
331
165D
  5
1677
331
1694
  5
16AE
331
15C9
  5
15E3
331
11DF
  5
120C
331
15D1
  5
15EB
331
7D9
  5
7D9
331
15D9
  5
15F3
331
7A2
  5
7A2
331
15E1
  5
15FB
331
11F7
  5
1334
331
11FF
  5
13B3
331
D65
  5
D9A
331
D6D
  5
F83
331
993
  5
B67
331
D75
  5
F8B
331
D7D
  5
F93
331
9A3
  5
9B6
331
8C4
  5
B26
331
C26
  5
D60
331
C36
  5
D65
331
B85
  5
D58
331
B46
  5
C1C
331
16DB
  5
16F5
331
1712
  5
17DD
331
1811
  5
1817
331
1665
  5
167F
331
169C
  5
16B6
331
B4E
  5
C24
331
1626
  5
1640
331
171A
  5
180F
331
16A4
  5
16BE
331
16E3
  5
16FD
331
B56
  5
C2F
331
162E
  5
1648
331
166D
  5
1687
  0
DIMASSOC
  5
C85
102
{ACAD_REACTORS
330
C7B
102
}
330
C7B
100
AcDbDimAssoc
330
C6E
 90
        3
 70
     0
 71
     0
  1
AcDbOsnapPointRef
 72
     1
331
86D
 73
     2
 91
        0
 40
3.141592653589793
 10
34966.19848660889
 20
28997.10326060758
 30
0.0
 75
     0
  1
AcDbOsnapPointRef
 72
     1
331
870
 73
     2
 91
        0
 40
1.0
 10
35011.19848660888
 20
28997.10326060758
 30
0.0
 75
     0
  0
DIMASSOC
  5
C9F
102
{ACAD_REACTORS
330
C94
102
}
330
C94
100
AcDbDimAssoc
330
C86
 90
        1
 70
     0
 71
     0
  1
AcDbOsnapPointRef
 72
    13
331
C26
 73
     2
 91
        0
 40
0.0
 10
34990.19848660889
 20
29059.60326060758
 30
0.0
 75
     0
  0
DIMASSOC
  5
CD1
102
{ACAD_REACTORS
330
CC7
102
}
330
CC7
100
AcDbDimAssoc
330
CBA
 90
        3
 70
     0
 71
     0
  1
AcDbOsnapPointRef
 72
    13
331
7A2
 73
     2
 91
        0
 40
0.0
 10
34974.19848660889
 20
29033.35326060758
 30
0.0
 75
     0
  1
AcDbOsnapPointRef
 72
     6
331
C20
 73
     2
 91
        0
 40
0.9928940568475358
 10
35006.19848660888
 20
29033.35326060758
 30
0.0
332
7A4
 74
     2
 92
        0
 75
     0
  0
DIMASSOC
  5
CE9
102
{ACAD_REACTORS
330
CDF
102
}
330
CDF
100
AcDbDimAssoc
330
CD2
 90
        3
 70
     0
 71
     0
  1
AcDbOsnapPointRef
 72
     2
331
7A4
 73
     2
 91
        0
 40
7.853981633974482
 10
34990.19848660888
 20
29049.60326060757
 30
0.0
 75
     0
  1
AcDbOsnapPointRef
 72
     2
331
982
 73
     2
 91
        0
 40
0.5
 10
34990.19848660889
 20
28972.60326060758
 30
0.0
 75
     0
  0
DIMASSOC
  5
132D
102
{ACAD_REACTORS
330
1322
102
}
330
1322
100
AcDbDimAssoc
330
1314
 90
        1
 70
     0
 71
     0
  1
AcDbOsnapPointRef
 72
    13
331
C26
 73
     2
 91
        0
 40
0.0
 10
34811.19848660889
 20
27739.44632341184
 30
0.0
 75
     0
  0
DIMASSOC
  5
1832
102
{ACAD_REACTORS
330
1828
102
}
330
1828
100
AcDbDimAssoc
330
181B
 90
        3
 70
     0
 71
     0
  1
AcDbOsnapPointRef
 72
     2
331
1610
 73
     2
 91
        0
 40
0.5000000000000001
 10
33794.38138211558
 20
27445.21368348995
 30
0.0
 75
     0
  1
AcDbOsnapPointRef
 72
     2
331
1627
 73
     2
 91
        0
 40
0.5000000000000001
 10
34667.38138211558
 20
27445.21368348995
 30
0.0
 75
     0
  0
DIMASSOC
  5
184A
102
{ACAD_REACTORS
330
1840
102
}
330
1840
100
AcDbDimAssoc
330
1833
 90
        3
 70
     0
 71
     0
  1
AcDbOsnapPointRef
 72
    13
331
15BB
 73
     2
 91
        0
 40
0.0
 10
34666.38138211558
 20
27195.21368348996
 30
0.0
 75
     0
  1
AcDbOsnapPointRef
 72
     1
331
15DF
 73
     2
 91
        0
 40
1.0
 10
34666.38138211558
 20
27247.21368348995
 30
0.0
 75
     0
  0
DIMASSOC
  5
1864
102
{ACAD_REACTORS
330
1859
102
}
330
1859
100
AcDbDimAssoc
330
184B
 90
        3
 70
     0
 71
     0
  1
AcDbOsnapPointRef
 72
    13
331
15BB
 73
     2
 91
        0
 40
0.0
 10
34666.38138211558
 20
27195.21368348996
 30
0.0
 75
     0
  1
AcDbOsnapPointRef
 72
    13
331
11DB
 73
     2
 91
        0
 40
0.0
 10
34264.18138211558
 20
27170.21368348996
 30
0.0
 75
     0
  0
XRECORD
  5
31A
102
{ACAD_REACTORS
330
319
102
}
330
319
100
AcDbXrecord
280
     1
 90
        1
340
104
  0
XRECORD
  5
31E
102
{ACAD_REACTORS
330
31D
102
}
330
31D
100
AcDbXrecord
280
     1
 90
        1
340
104
  0
ACDBDETAILVIEWSTYLE
  5
213
102
{ACAD_XDICTIONARY
360
22D
102
}
102
{ACAD_REACTORS
330
212
102
}
330
212
100
AcDbModelDocViewStyle
 70
     0
  3
Metric50
290
     0
100
AcDbDetailViewStyle
 70
     0
 71
     0
 90
        3
 71
     1
340
11
 62
   256
 40
5.0
340
0
 62
   256
 40
5.0
300

 40
0.0
280
     1
 71
     2
340
16
 90
       25
 62
   256
 71
     3
340
11
 62
   256
 40
5.0
 90
        0
 40
15.0
 90
        1
300
%<\AcVar ViewDetailId>% (%<\AcVar ViewScale \f "%sn">%)
 71
     4
340
16
 90
       25
 62
   256
340
16
 90
       25
 62
   256
280
     0
  0
LAYOUT
  5
22
102
{ACAD_XDICTIONARY
360
1FC
102
}
102
{ACAD_REACTORS
330
1A
102
}
330
1A
100
AcDbPlotSettings
  1

  2
Kyocera TASKalfa 3252ci(J) KX
  4
A3
  6

 40
4.984749794006347
 41
5.111724853515625
 42
5.154083251953125
 43
4.9847412109375
 44
297.0106506347656
 45
419.9889831542968
 46
0.0
 47
0.0
 48
0.0
 49
0.0
140
0.0
141
0.0
142
1.0
143
9.806410578662045
 70
 11952
 72
     1
 73
     1
 74
     0
  7
monochrome.stb
 75
     0
147
0.1019741109122964
 76
     0
 77
     2
 78
   300
148
-32876.12478992212
149
-27320.92452532269
100
AcDbLayout
  1
Model
 70
     1
 71
     0
 10
0.0
 20
0.0
 11
12.0
 21
9.0
 12
0.0
 22
0.0
 32
0.0
 14
0.0
 24
0.0
 34
0.0
 15
0.0
 25
0.0
 35
0.0
146
0.0
 13
0.0
 23
0.0
 33
0.0
 16
1.0
 26
0.0
 36
0.0
 17
0.0
 27
1.0
 37
0.0
 76
     0
330
1F
331
E1
1001
ACAD_PSEXT
1000
Kyocera TASKalfa 3252ci(J) KX
1000
Kyocera TASKalfa 3252ci(J) KX
1000
192.168.11.123
1000

1070
     0
  0
LAYOUT
  5
D3
102
{ACAD_REACTORS
330
1A
102
}
330
1A
100
AcDbPlotSettings
  1

  2
Kyocera TASKalfa 3050ci(J) KX
  4
A3
  6

 40
4.984749794006347
 41
5.111724853515625
 42
5.154083251953125
 43
4.9847412109375
 44
297.0106506347656
 45
419.9889831542968
 46
0.0
 47
0.0
 48
0.0
 49
0.0
140
0.0
141
0.0
142
1.0
143
1.0
 70
   688
 72
     1
 73
     1
 74
     5
  7
monochrome.stb
 75
    16
147
1.0
 76
     0
 77
     2
 78
   300
148
0.0
149
0.0
100
AcDbLayout
  1
レイアウト1
 70
     1
 71
     1
 10
-4.9847412109375
 20
-4.984749794006347
 11
415.0042419433593
 21
292.0259008407593
 12
0.0
 22
0.0
 32
0.0
 14
25.69999999999999
 24
19.5
 34
0.0
 15
231.3
 25
175.5
 35
0.0
146
0.0
 13
0.0
 23
0.0
 33
0.0
 16
1.0
 26
0.0
 36
0.0
 17
0.0
 27
1.0
 37
0.0
 76
     0
330
D2
331
318
1001
ACAD_PSEXT
1000
Kyocera TASKalfa 3050ci(J) KX
1000
Kyocera TASKalfa 3050ci(J) KX
1000
192.168.11.123
1000

1070
     0
  0
LAYOUT
  5
D7
102
{ACAD_REACTORS
330
1A
102
}
330
1A
100
AcDbPlotSettings
  1

  2
C:\Documents and Settings\basas\Application Data\Autodesk\AutoCAD 2005\R16.1\enu\plotters\Default Windows System Printer.pc3
  4

  6

 40
0.0
 41
0.0
 42
0.0
 43
0.0
 44
0.0
 45
0.0
 46
0.0
 47
0.0
 48
0.0
 49
0.0
140
0.0
141
0.0
142
1.0
143
1.0
 70
   688
 72
     0
 73
     0
 74
     5
  7
monochrome.stb
 75
    16
147
1.0
 76
     0
 77
     2
 78
   300
148
0.0
149
0.0
100
AcDbLayout
  1
レイアウト2
 70
     1
 71
     2
 10
0.0
 20
0.0
 11
12.0
 21
9.0
 12
0.0
 22
0.0
 32
0.0
 14
0.0
 24
0.0
 34
0.0
 15
0.0
 25
0.0
 35
0.0
146
0.0
 13
0.0
 23
0.0
 33
0.0
 16
1.0
 26
0.0
 36
0.0
 17
0.0
 27
1.0
 37
0.0
 76
     0
330
D6
  0
MATERIAL
  5
E4
102
{ACAD_XDICTIONARY
360
1F0
102
}
102
{ACAD_REACTORS
330
78
102
}
330
78
100
AcDbMaterial
  1
ByBlock
 94
       63
  0
MATERIAL
  5
E3
102
{ACAD_XDICTIONARY
360
1EE
102
}
102
{ACAD_REACTORS
330
78
102
}
330
78
100
AcDbMaterial
  1
ByLayer
 94
       63
  0
MATERIAL
  5
E5
102
{ACAD_XDICTIONARY
360
16A
102
}
102
{ACAD_REACTORS
330
78
102
}
330
78
100
AcDbMaterial
  1
Global
 43
0.0007999999797903
 43
0.0
 43
0.0
 43
0.0
 43
0.0
 43
0.0007999999797903
 43
0.0
 43
0.0
 43
0.0
 43
0.0
 43
1.0
 43
0.0
 43
0.0
 43
0.0
 43
0.0
 43
1.0
 49
0.0007999999797903
 49
0.0
 49
0.0
 49
0.0
 49
0.0
 49
0.0007999999797903
 49
0.0
 49
0.0
 49
0.0
 49
0.0
 49
1.0
 49
0.0
 49
0.0
 49
0.0
 49
0.0
 49
1.0
142
0.0007999999797903
142
0.0
142
0.0
142
0.0
142
0.0
142
0.0007999999797903
142
0.0
142
0.0
142
0.0
142
0.0
142
1.0
142
0.0
142
0.0
142
0.0
142
0.0
142
1.0
144
0.0007999999797903
144
0.0
144
0.0
144
0.0
144
0.0
144
0.0007999999797903
144
0.0
144
0.0
144
0.0
144
0.0
144
1.0
144
0.0
144
0.0
144
0.0
144
0.0
144
1.0
 94
       63
1001
ACAD
1070
    -1
1070
     3
1070
     0
1000

1071
        0
1070
     0
  0
MLEADERSTYLE
  5
132
102
{ACAD_REACTORS
330
124
102
}
330
124
100
AcDbMLeaderStyle
179
     2
170
     2
171
     1
172
     0
 90
        2
 40
0.0
 41
0.0
173
     1
 91
-1056964608
340
14
 92
       -2
290
     1
 42
2.0
291
     1
 43
8.0
  3
Standard
 44
4.0
300

342
11
174
     1
178
     1
175
     1
176
     0
 93
-1056964608
 45
4.0
292
     0
297
     0
 46
4.0
 94
-1056964608
 47
1.0
 49
1.0
140
1.0
293
     1
141
0.0
294
     1
177
     0
142
1.0
295
     0
296
     1
143
3.75
271
     0
272
     9
273
     9
298
     0
  0
MLEADERSTYLE
  5
125
102
{ACAD_REACTORS
330
124
102
}
330
124
100
AcDbMLeaderStyle
179
     2
170
     2
171
     1
172
     0
 90
        2
 40
0.0
 41
0.0
173
     1
 91
-1056964608
340
14
 92
       -2
290
     1
 42
2.0
291
     1
 43
8.0
  3
Standard
 44
4.0
300

342
11
174
     1
178
     1
175
     1
176
     0
 93
-1056964608
 45
4.0
292
     0
297
     0
 46
4.0
 94
-1056964608
 47
1.0
 49
1.0
140
1.0
293
     1
141
0.0
294
     1
177
     0
142
1.0
295
     0
296
     0
143
3.75
271
     0
272
     9
273
     9
298
     0
  0
MLINESTYLE
  5
18
102
{ACAD_REACTORS
330
17
102
}
330
17
100
AcDbMlineStyle
  2
STANDARD
 70
     0
  3

 62
   256
 51
90.0
 52
90.0
 71
     2
 49
0.5
 62
   256
  6
BYLAYER
 49
-0.5
 62
   256
  6
BYLAYER
  0
ACDBPLACEHOLDER
  5
F
102
{ACAD_REACTORS
330
E
102
}
330
E
  0
SCALE
  5
104
102
{ACAD_REACTORS
330
103
102
}
330
103
100
AcDbScale
 70
     0
300
1:1
140
1.0
141
1.0
290
     1
  0
SCALE
  5
1B5
102
{ACAD_REACTORS
330
103
102
}
330
103
100
AcDbScale
 70
     0
300
1:2
140
1.0
141
2.0
290
     0
  0
SCALE
  5
1B6
102
{ACAD_REACTORS
330
103
102
}
330
103
100
AcDbScale
 70
     0
300
1:4
140
1.0
141
4.0
290
     0
  0
SCALE
  5
1B7
102
{ACAD_REACTORS
330
103
102
}
330
103
100
AcDbScale
 70
     0
300
1:5
140
1.0
141
5.0
290
     0
  0
SCALE
  5
1B8
102
{ACAD_REACTORS
330
103
102
}
330
103
100
AcDbScale
 70
     0
300
1:8
140
1.0
141
8.0
290
     0
  0
SCALE
  5
1B9
102
{ACAD_REACTORS
330
103
102
}
330
103
100
AcDbScale
 70
     0
300
1:10
140
1.0
141
10.0
290
     0
  0
SCALE
  5
1BA
102
{ACAD_REACTORS
330
103
102
}
330
103
100
AcDbScale
 70
     0
300
1:16
140
1.0
141
16.0
290
     0
  0
SCALE
  5
1BB
102
{ACAD_REACTORS
330
103
102
}
330
103
100
AcDbScale
 70
     0
300
1:20
140
1.0
141
20.0
290
     0
  0
SCALE
  5
1BC
102
{ACAD_REACTORS
330
103
102
}
330
103
100
AcDbScale
 70
     0
300
1:30
140
1.0
141
30.0
290
     0
  0
SCALE
  5
1BD
102
{ACAD_REACTORS
330
103
102
}
330
103
100
AcDbScale
 70
     0
300
1:40
140
1.0
141
40.0
290
     0
  0
SCALE
  5
1BE
102
{ACAD_REACTORS
330
103
102
}
330
103
100
AcDbScale
 70
     0
300
1:50
140
1.0
141
50.0
290
     0
  0
SCALE
  5
1BF
102
{ACAD_REACTORS
330
103
102
}
330
103
100
AcDbScale
 70
     0
300
1:100
140
1.0
141
100.0
290
     0
  0
SCALE
  5
1C0
102
{ACAD_REACTORS
330
103
102
}
330
103
100
AcDbScale
 70
     0
300
2:1
140
2.0
141
1.0
290
     0
  0
SCALE
  5
1C1
102
{ACAD_REACTORS
330
103
102
}
330
103
100
AcDbScale
 70
     0
300
4:1
140
4.0
141
1.0
290
     0
  0
SCALE
  5
1C2
102
{ACAD_REACTORS
330
103
102
}
330
103
100
AcDbScale
 70
     0
300
8:1
140
8.0
141
1.0
290
     0
  0
SCALE
  5
1C3
102
{ACAD_REACTORS
330
103
102
}
330
103
100
AcDbScale
 70
     0
300
10:1
140
10.0
141
1.0
290
     0
  0
SCALE
  5
1C4
102
{ACAD_REACTORS
330
103
102
}
330
103
100
AcDbScale
 70
     0
300
100:1
140
100.0
141
1.0
290
     0
  0
ACDBSECTIONVIEWSTYLE
  5
211
102
{ACAD_XDICTIONARY
360
22B
102
}
102
{ACAD_REACTORS
330
210
102
}
330
210
100
AcDbModelDocViewStyle
 70
     0
  3
Metric50
290
     0
100
AcDbSectionViewStyle
 70
     0
 71
     0
 90
      102
 71
     1
340
11
 62
   256
 40
5.0
340
0
340
0
 62
   256
 40
5.0
300
I, O, Q, S, X, Z
 40
10.0
 90
        0
 40
2.5
 90
        0
 71
     2
340
16
 90
       25
 62
   256
340
16
 90
       50
 62
   256
 40
5.0
 40
2.5
 40
5.0
 71
     3
340
11
 62
   256
 40
5.0
 90
        0
 40
15.0
 90
        1
300
%<\AcVar ViewSectionStartId>%-%<\AcVar ViewSectionEndId>% (%<\AcVar ViewScale \f "%sn">%)
 71
     4
 62
   256
 62
   257
300
ANSI31
 40
1.0
 90
        0
290
     0
290
     0
 90
        6
 40
0.0
 40
1.570796326794896
 40
0.2617993877991494
 40
1.308996938995747
 40
-0.2617993877991494
 40
1.832595714594046
  0
TABLESTYLE
  5
98
102
{ACAD_XDICTIONARY
360
159
102
}
102
{ACAD_REACTORS
330
97
102
}
330
97
100
AcDbTableStyle
280
     0
  3
Standard
 70
     0
 71
     0
 40
1.5
 41
1.5
280
     0
281
     0
  7
Standard
140
4.5
170
     2
 62
     0
 63
     7
283
     0
 90
      512
 91
        0
  1

274
    -2
284
     1
 64
     0
275
    -2
285
     1
 65
     0
276
    -2
286
     1
 66
     0
277
    -2
287
     1
 67
     0
278
    -2
288
     1
 68
     0
279
    -2
289
     1
 69
     0
  7
Standard
140
6.0
170
     5
 62
     0
 63
     7
283
     0
 90
      512
 91
        0
  1

274
    -2
284
     1
 64
     0
275
    -2
285
     1
 65
     0
276
    -2
286
     1
 66
     0
277
    -2
287
     1
 67
     0
278
    -2
288
     1
 68
     0
279
    -2
289
     1
 69
     0
  7
Standard
140
4.5
170
     5
 62
     0
 63
     7
283
     0
 90
      512
 91
        0
  1

274
    -2
284
     1
 64
     0
275
    -2
285
     1
 65
     0
276
    -2
286
     1
 66
     0
277
    -2
287
     1
 67
     0
278
    -2
288
     1
 68
     0
279
    -2
289
     1
 69
     0
  0
VISUALSTYLE
  5
EC
102
{ACAD_REACTORS
330
E6
102
}
330
E6
100
AcDbVisualStyle
  2
2dWireframe
 70
     4
177
     3
291
     0
 70
    58
 90
        0
176
     1
 90
        2
176
     1
 90
        1
176
     1
 90
        0
176
     1
 40
0.6
176
     1
 40
30.0
176
     1
 62
     7
420
 16777215
176
     1
 90
        1
176
     1
 90
        4
176
     1
 62
     7
176
     1
 62
   257
176
     1
 90
        1
176
     1
 90
        1
176
     1
 40
1.0
176
     1
 90
        0
176
     1
 62
   257
176
     1
 40
1.0
176
     1
 90
        1
176
     1
 90
        6
176
     1
 90
        2
176
     1
 62
     7
176
     1
 90
        5
176
     1
 90
        0
176
     1
 90
        0
176
     1
290
     0
176
     1
 90
        1
176
     1
 40
0.0
176
     1
 90
        0
176
     1
290
     1
176
     1
290
     1
176
     1
290
     0
176
     1
290
     0
176
     1
290
     0
176
     1
290
     0
176
     1
290
     0
176
     1
290
     0
176
     1
290
     0
176
     1
 90
       50
176
     1
 40
0.0
176
     1
 40
1.0
176
     1
 90
        0
176
     1
 62
    18
420
        0
176
     1
 90
       50
176
     1
 90
        3
176
     1
 62
     5
420
      255
176
     1
290
     0
176
     1
 90
       50
176
     1
 90
       50
176
     1
 90
       50
176
     1
290
     0
176
     1
 90
       50
176
     1
 62
   256
176
     0
 40
1.0
176
     0
 90
        2
176
     1
  1
strokes_ogs.tif
176
     1
290
     0
176
     1
 40
1.0
176
     1
 40
1.0
176
     1
  0
VISUALSTYLE
  5
EB
102
{ACAD_REACTORS
330
E6
102
}
330
E6
100
AcDbVisualStyle
  2
Basic
 70
     7
177
     3
291
     1
 70
    58
 90
        1
176
     1
 90
        0
176
     1
 90
        1
176
     1
 90
        0
176
     1
 40
0.6
176
     1
 40
30.0
176
     1
 62
     7
420
 16777215
176
     1
 90
        0
176
     1
 90
        4
176
     1
 62
     7
176
     1
 62
   257
176
     1
 90
        1
176
     1
 90
        1
176
     1
 40
1.0
176
     1
 90
        8
176
     1
 62
     7
176
     1
 40
1.0
176
     1
 90
        1
176
     1
 90
        6
176
     1
 90
        2
176
     1
 62
     7
176
     1
 90
        5
176
     1
 90
        0
176
     1
 90
        0
176
     1
290
     0
176
     1
 90
        1
176
     1
 40
0.0
176
     1
 90
        0
176
     1
290
     0
176
     1
290
     1
176
     1
290
     1
176
     1
290
     0
176
     1
290
     0
176
     1
290
     0
176
     1
290
     0
176
     1
290
     0
176
     1
290
     0
176
     1
 90
       50
176
     1
 40
0.0
176
     1
 40
1.0
176
     1
 90
        0
176
     1
 62
    18
420
        0
176
     1
 90
       50
176
     1
 90
        3
176
     1
 62
     5
420
      255
176
     1
290
     0
176
     1
 90
       50
176
     1
 90
       50
176
     1
 90
       50
176
     1
290
     0
176
     1
 90
       50
176
     1
 62
   256
176
     0
 40
1.0
176
     0
 90
        2
176
     1
  1
strokes_ogs.tif
176
     1
290
     0
176
     1
 40
1.0
176
     1
 40
1.0
176
     1
  0
VISUALSTYLE
  5
F2
102
{ACAD_REACTORS
330
E6
102
}
330
E6
100
AcDbVisualStyle
  2
Brighten
 70
    12
177
     3
291
     1
 70
    58
 90
        2
176
     1
 90
        2
176
     1
 90
        1
176
     1
 90
        0
176
     1
 40
0.6
176
     1
 40
30.0
176
     1
 62
     7
420
 16777215
176
     1
 90
        1
176
     1
 90
        4
176
     1
 62
     7
176
     1
 62
   257
176
     1
 90
        1
176
     1
 90
        1
176
     1
 40
1.0
176
     1
 90
        8
176
     1
 62
     7
176
     1
 40
1.0
176
     1
 90
        1
176
     1
 90
        6
176
     1
 90
        2
176
     1
 62
     7
176
     1
 90
        5
176
     1
 90
        0
176
     1
 90
        0
176
     1
290
     0
176
     1
 90
        1
176
     1
 40
50.0
176
     1
 90
        0
176
     1
290
     0
176
     1
290
     1
176
     1
290
     1
176
     1
290
     0
176
     1
290
     0
176
     1
290
     0
176
     1
290
     0
176
     1
290
     0
176
     1
290
     0
176
     1
 90
       50
176
     1
 40
0.0
176
     1
 40
1.0
176
     1
 90
        0
176
     1
 62
    18
420
        0
176
     1
 90
       50
176
     1
 90
        3
176
     1
 62
     5
420
      255
176
     1
290
     0
176
     1
 90
       50
176
     1
 90
       50
176
     1
 90
       50
176
     1
290
     0
176
     1
 90
       50
176
     1
 62
   256
176
     0
 40
1.0
176
     0
 90
        2
176
     1
  1
strokes_ogs.tif
176
     1
290
     0
176
     1
 40
1.0
176
     1
 40
1.0
176
     1
  0
VISUALSTYLE
  5
F6
102
{ACAD_REACTORS
330
E6
102
}
330
E6
100
AcDbVisualStyle
  2
ColorChange
 70
    16
177
     3
291
     1
 70
    58
 90
        2
176
     1
 90
        2
176
     1
 90
        3
176
     1
 90
        0
176
     1
 40
0.6
176
     1
 40
30.0
176
     1
 62
     8
420
  8421504
176
     1
 90
        1
176
     1
 90
        4
176
     1
 62
     7
176
     1
 62
   257
176
     1
 90
        1
176
     1
 90
        1
176
     1
 40
1.0
176
     1
 90
        8
176
     1
 62
     8
420
  8421504
176
     1
 40
1.0
176
     1
 90
        1
176
     1
 90
        6
176
     1
 90
        2
176
     1
 62
     7
176
     1
 90
        5
176
     1
 90
        0
176
     1
 90
        0
176
     1
290
     0
176
     1
 90
        1
176
     1
 40
0.0
176
     1
 90
        0
176
     1
290
     0
176
     1
290
     1
176
     1
290
     1
176
     1
290
     0
176
     1
290
     0
176
     1
290
     0
176
     1
290
     0
176
     1
290
     0
176
     1
290
     0
176
     1
 90
       50
176
     1
 40
0.0
176
     1
 40
1.0
176
     1
 90
        0
176
     1
 62
    18
420
        0
176
     1
 90
       50
176
     1
 90
        3
176
     1
 62
     5
420
      255
176
     1
290
     0
176
     1
 90
       50
176
     1
 90
       50
176
     1
 90
       50
176
     1
290
     0
176
     1
 90
       50
176
     1
 62
   256
176
     0
 40
1.0
176
     0
 90
        2
176
     1
  1
strokes_ogs.tif
176
     1
290
     0
176
     1
 40
1.0
176
     1
 40
1.0
176
     1
  0
VISUALSTYLE
  5
EF
102
{ACAD_REACTORS
330
E6
102
}
330
E6
100
AcDbVisualStyle
  2
Conceptual
 70
     9
177
     3
291
     0
 70
    58
 90
        3
176
     1
 90
        2
176
     1
 90
        1
176
     1
 90
        0
176
     1
 40
0.6
176
     1
 40
30.0
176
     1
 62
     7
420
 16777215
176
     1
 90
        2
176
     1
 90
        2
176
     1
 62
     7
176
     1
 62
   257
176
     1
 90
        1
176
     1
 90
        1
176
     1
 40
40.0
176
     1
 90
        8
176
     1
 62
     7
176
     1
 40
1.0
176
     1
 90
        1
176
     1
 90
        6
176
     1
 90
        2
176
     1
 62
     7
176
     1
 90
        3
176
     1
 90
        0
176
     1
 90
        0
176
     1
290
     0
176
     1
 90
        1
176
     1
 40
0.0
176
     1
 90
        0
176
     1
290
     0
176
     1
290
     1
176
     1
290
     1
176
     1
290
     0
176
     1
290
     0
176
     1
290
     0
176
     1
290
     0
176
     1
290
     0
176
     1
290
     0
176
     1
 90
       50
176
     1
 40
0.0
176
     1
 40
1.0
176
     1
 90
        0
176
     1
 62
    18
420
        0
176
     1
 90
       50
176
     1
 90
        3
176
     1
 62
     5
420
      255
176
     1
290
     0
176
     1
 90
       50
176
     1
 90
       50
176
     1
 90
       50
176
     1
290
     0
176
     1
 90
       50
176
     1
 62
   256
176
     0
 40
1.0
176
     0
 90
        2
176
     1
  1
strokes_ogs.tif
176
     1
290
     0
176
     1
 40
1.0
176
     1
 40
1.0
176
     1
  0
VISUALSTYLE
  5
F1
102
{ACAD_REACTORS
330
E6
102
}
330
E6
100
AcDbVisualStyle
  2
Dim
 70
    11
177
     3
291
     1
 70
    58
 90
        2
176
     1
 90
        2
176
     1
 90
        1
176
     1
 90
        0
176
     1
 40
0.6
176
     1
 40
30.0
176
     1
 62
     7
420
 16777215
176
     1
 90
        1
176
     1
 90
        4
176
     1
 62
     7
176
     1
 62
   257
176
     1
 90
        1
176
     1
 90
        1
176
     1
 40
1.0
176
     1
 90
        8
176
     1
 62
     7
176
     1
 40
1.0
176
     1
 90
        1
176
     1
 90
        6
176
     1
 90
        2
176
     1
 62
     7
176
     1
 90
        5
176
     1
 90
        0
176
     1
 90
        0
176
     1
290
     0
176
     1
 90
        1
176
     1
 40
-50.0
176
     1
 90
        0
176
     1
290
     0
176
     1
290
     1
176
     1
290
     1
176
     1
290
     0
176
     1
290
     0
176
     1
290
     0
176
     1
290
     0
176
     1
290
     0
176
     1
290
     0
176
     1
 90
       50
176
     1
 40
0.0
176
     1
 40
1.0
176
     1
 90
        0
176
     1
 62
    18
420
        0
176
     1
 90
       50
176
     1
 90
        3
176
     1
 62
     5
420
      255
176
     1
290
     0
176
     1
 90
       50
176
     1
 90
       50
176
     1
 90
       50
176
     1
290
     0
176
     1
 90
       50
176
     1
 62
   256
176
     0
 40
1.0
176
     0
 90
        2
176
     1
  1
strokes_ogs.tif
176
     1
290
     0
176
     1
 40
1.0
176
     1
 40
1.0
176
     1
  0
VISUALSTYLE
  5
1DD
102
{ACAD_REACTORS
330
E6
102
}
330
E6
100
AcDbVisualStyle
  2
EdgeColorOff
 70
    22
177
     3
291
     1
 70
    58
 90
        2
176
     0
 90
        2
176
     0
 90
        0
176
     0
 90
        0
176
     0
 40
0.6
176
     0
 40
30.0
176
     0
 62
     7
420
 16777215
176
     0
 90
        1
176
     0
 90
        4
176
     0
 62
     7
176
     0
 62
   257
176
     0
 90
        1
176
     0
 90
        1
176
     0
 40
1.0
176
     0
 90
        8
176
     2
 62
     7
176
     0
 40
1.0
176
     0
 90
        1
176
     0
 90
        6
176
     0
 90
        2
176
     0
 62
     7
176
     0
 90
        5
176
     0
 90
        0
176
     0
 90
        0
176
     0
290
     0
176
     0
 90
        1
176
     0
 40
0.0
176
     0
 90
        0
176
     0
290
     0
176
     1
290
     1
176
     1
290
     1
176
     1
290
     0
176
     1
290
     0
176
     1
290
     0
176
     1
290
     0
176
     1
290
     0
176
     1
290
     0
176
     1
 90
       50
176
     1
 40
0.0
176
     1
 40
1.0
176
     1
 90
        0
176
     1
 62
    18
420
        0
176
     1
 90
       50
176
     1
 90
        3
176
     1
 62
     5
420
      255
176
     1
290
     0
176
     1
 90
       50
176
     1
 90
       50
176
     1
 90
       50
176
     1
290
     0
176
     1
 90
       50
176
     1
 62
   256
176
     0
 40
1.0
176
     0
 90
        2
176
     1
  1
strokes_ogs.tif
176
     1
290
     0
176
     1
 40
1.0
176
     1
 40
1.0
176
     1
  0
VISUALSTYLE
  5
F5
102
{ACAD_REACTORS
330
E6
102
}
330
E6
100
AcDbVisualStyle
  2
Facepattern
 70
    15
177
     3
291
     1
 70
    58
 90
        2
176
     1
 90
        2
176
     1
 90
        1
176
     1
 90
        0
176
     1
 40
0.6
176
     1
 40
30.0
176
     1
 62
     7
420
 16777215
176
     1
 90
        1
176
     1
 90
        4
176
     1
 62
     7
176
     1
 62
   257
176
     1
 90
        1
176
     1
 90
        1
176
     1
 40
1.0
176
     1
 90
        8
176
     1
 62
     7
176
     1
 40
1.0
176
     1
 90
        1
176
     1
 90
        6
176
     1
 90
        2
176
     1
 62
     7
176
     1
 90
        5
176
     1
 90
        0
176
     1
 90
        0
176
     1
290
     0
176
     1
 90
        1
176
     1
 40
0.0
176
     1
 90
        0
176
     1
290
     0
176
     1
290
     1
176
     1
290
     1
176
     1
290
     0
176
     1
290
     0
176
     1
290
     0
176
     1
290
     0
176
     1
290
     0
176
     1
290
     0
176
     1
 90
       50
176
     1
 40
0.0
176
     1
 40
1.0
176
     1
 90
        0
176
     1
 62
    18
420
        0
176
     1
 90
       50
176
     1
 90
        3
176
     1
 62
     5
420
      255
176
     1
290
     0
176
     1
 90
       50
176
     1
 90
       50
176
     1
 90
       50
176
     1
290
     0
176
     1
 90
       50
176
     1
 62
   256
176
     0
 40
1.0
176
     0
 90
        2
176
     1
  1
strokes_ogs.tif
176
     1
290
     0
176
     1
 40
1.0
176
     1
 40
1.0
176
     1
  0
VISUALSTYLE
  5
E7
102
{ACAD_REACTORS
330
E6
102
}
330
E6
100
AcDbVisualStyle
  2
Flat
 70
     0
177
     3
291
     1
 70
    58
 90
        2
176
     1
 90
        1
176
     1
 90
        1
176
     1
 90
        2
176
     1
 40
0.6
176
     1
 40
30.0
176
     1
 62
     7
420
 16777215
176
     1
 90
        0
176
     1
 90
        0
176
     1
 62
     7
176
     1
 62
   257
176
     1
 90
        1
176
     1
 90
        1
176
     1
 40
1.0
176
     1
 90
        8
176
     1
 62
     7
176
     1
 40
1.0
176
     1
 90
        1
176
     1
 90
        6
176
     1
 90
        2
176
     1
 62
     7
176
     1
 90
        5
176
     1
 90
        0
176
     1
 90
        0
176
     1
290
     0
176
     1
 90
       13
176
     1
 40
0.0
176
     1
 90
        0
176
     1
290
     0
176
     1
290
     1
176
     1
290
     1
176
     1
290
     0
176
     1
290
     0
176
     1
290
     0
176
     1
290
     0
176
     1
290
     0
176
     1
290
     0
176
     1
 90
       50
176
     1
 40
0.0
176
     1
 40
1.0
176
     1
 90
        0
176
     1
 62
    18
420
        0
176
     1
 90
       50
176
     1
 90
        3
176
     1
 62
     5
420
      255
176
     1
290
     0
176
     1
 90
       50
176
     1
 90
       50
176
     1
 90
       50
176
     1
290
     0
176
     1
 90
       50
176
     1
 62
   256
176
     0
 40
1.0
176
     0
 90
        2
176
     1
  1
strokes_ogs.tif
176
     1
290
     0
176
     1
 40
1.0
176
     1
 40
1.0
176
     1
  0
VISUALSTYLE
  5
E8
102
{ACAD_REACTORS
330
E6
102
}
330
E6
100
AcDbVisualStyle
  2
FlatWithEdges
 70
     1
177
     3
291
     1
 70
    58
 90
        2
176
     1
 90
        1
176
     1
 90
        1
176
     1
 90
        2
176
     1
 40
0.6
176
     1
 40
30.0
176
     1
 62
     7
420
 16777215
176
     1
 90
        1
176
     1
 90
        0
176
     1
 62
     7
176
     1
 62
   257
176
     1
 90
        1
176
     1
 90
        1
176
     1
 40
1.0
176
     1
 90
        0
176
     1
 62
   257
176
     1
 40
1.0
176
     1
 90
        1
176
     1
 90
        6
176
     1
 90
        2
176
     1
 62
     7
176
     1
 90
        5
176
     1
 90
        0
176
     1
 90
        0
176
     1
290
     0
176
     1
 90
       13
176
     1
 40
0.0
176
     1
 90
        0
176
     1
290
     0
176
     1
290
     1
176
     1
290
     1
176
     1
290
     0
176
     1
290
     0
176
     1
290
     0
176
     1
290
     0
176
     1
290
     0
176
     1
290
     0
176
     1
 90
       50
176
     1
 40
0.0
176
     1
 40
1.0
176
     1
 90
        0
176
     1
 62
    18
420
        0
176
     1
 90
       50
176
     1
 90
        3
176
     1
 62
     5
420
      255
176
     1
290
     0
176
     1
 90
       50
176
     1
 90
       50
176
     1
 90
       50
176
     1
290
     0
176
     1
 90
       50
176
     1
 62
   256
176
     0
 40
1.0
176
     0
 90
        2
176
     1
  1
strokes_ogs.tif
176
     1
290
     0
176
     1
 40
1.0
176
     1
 40
1.0
176
     1
  0
VISUALSTYLE
  5
E9
102
{ACAD_REACTORS
330
E6
102
}
330
E6
100
AcDbVisualStyle
  2
Gouraud
 70
     2
177
     3
291
     1
 70
    58
 90
        2
176
     1
 90
        2
176
     1
 90
        1
176
     1
 90
        2
176
     1
 40
0.6
176
     1
 40
30.0
176
     1
 62
     7
420
 16777215
176
     1
 90
        0
176
     1
 90
        0
176
     1
 62
     7
176
     1
 62
   257
176
     1
 90
        1
176
     1
 90
        1
176
     1
 40
1.0
176
     1
 90
        0
176
     1
 62
     7
176
     1
 40
1.0
176
     1
 90
        1
176
     1
 90
        6
176
     1
 90
        2
176
     1
 62
     7
176
     1
 90
        5
176
     1
 90
        0
176
     1
 90
        0
176
     1
290
     0
176
     1
 90
       13
176
     1
 40
0.0
176
     1
 90
        0
176
     1
290
     0
176
     1
290
     1
176
     1
290
     1
176
     1
290
     0
176
     1
290
     0
176
     1
290
     0
176
     1
290
     0
176
     1
290
     0
176
     1
290
     0
176
     1
 90
       50
176
     1
 40
0.0
176
     1
 40
1.0
176
     1
 90
        0
176
     1
 62
    18
420
        0
176
     1
 90
       50
176
     1
 90
        3
176
     1
 62
     5
420
      255
176
     1
290
     0
176
     1
 90
       50
176
     1
 90
       50
176
     1
 90
       50
176
     1
290
     0
176
     1
 90
       50
176
     1
 62
   256
176
     0
 40
1.0
176
     0
 90
        2
176
     1
  1
strokes_ogs.tif
176
     1
290
     0
176
     1
 40
1.0
176
     1
 40
1.0
176
     1
  0
VISUALSTYLE
  5
EA
102
{ACAD_REACTORS
330
E6
102
}
330
E6
100
AcDbVisualStyle
  2
GouraudWithEdges
 70
     3
177
     3
291
     1
 70
    58
 90
        2
176
     1
 90
        2
176
     1
 90
        1
176
     1
 90
        2
176
     1
 40
0.6
176
     1
 40
30.0
176
     1
 62
     7
420
 16777215
176
     1
 90
        1
176
     1
 90
        0
176
     1
 62
     7
176
     1
 62
   257
176
     1
 90
        1
176
     1
 90
        1
176
     1
 40
1.0
176
     1
 90
        0
176
     1
 62
   257
176
     1
 40
1.0
176
     1
 90
        1
176
     1
 90
        6
176
     1
 90
        2
176
     1
 62
     7
176
     1
 90
        5
176
     1
 90
        0
176
     1
 90
        0
176
     1
290
     0
176
     1
 90
       13
176
     1
 40
0.0
176
     1
 90
        0
176
     1
290
     0
176
     1
290
     1
176
     1
290
     1
176
     1
290
     0
176
     1
290
     0
176
     1
290
     0
176
     1
290
     0
176
     1
290
     0
176
     1
290
     0
176
     1
 90
       50
176
     1
 40
0.0
176
     1
 40
1.0
176
     1
 90
        0
176
     1
 62
    18
420
        0
176
     1
 90
       50
176
     1
 90
        3
176
     1
 62
     5
420
      255
176
     1
290
     0
176
     1
 90
       50
176
     1
 90
       50
176
     1
 90
       50
176
     1
290
     0
176
     1
 90
       50
176
     1
 62
   256
176
     0
 40
1.0
176
     0
 90
        2
176
     1
  1
strokes_ogs.tif
176
     1
290
     0
176
     1
 40
1.0
176
     1
 40
1.0
176
     1
  0
VISUALSTYLE
  5
EE
102
{ACAD_REACTORS
330
E6
102
}
330
E6
100
AcDbVisualStyle
  2
Hidden
 70
     6
177
     3
291
     0
 70
    58
 90
        1
176
     1
 90
        2
176
     1
 90
        2
176
     1
 90
        0
176
     1
 40
0.6
176
     1
 40
30.0
176
     1
 62
     7
420
 16777215
176
     1
 90
        2
176
     1
 90
        2
176
     1
 62
     7
176
     1
 62
   257
176
     1
 90
        2
176
     1
 90
        1
176
     1
 40
40.0
176
     1
 90
        0
176
     1
 62
   257
176
     1
 40
1.0
176
     1
 90
        1
176
     1
 90
        6
176
     1
 90
        2
176
     1
 62
     7
176
     1
 90
        3
176
     1
 90
        0
176
     1
 90
        0
176
     1
290
     0
176
     1
 90
        1
176
     1
 40
0.0
176
     1
 90
        0
176
     1
290
     0
176
     1
290
     1
176
     1
290
     1
176
     1
290
     0
176
     1
290
     0
176
     1
290
     0
176
     1
290
     0
176
     1
290
     0
176
     1
290
     0
176
     1
 90
       50
176
     1
 40
0.0
176
     1
 40
1.0
176
     1
 90
        0
176
     1
 62
    18
420
        0
176
     1
 90
       50
176
     1
 90
        3
176
     1
 62
     5
420
      255
176
     1
290
     0
176
     1
 90
       50
176
     1
 90
       50
176
     1
 90
       50
176
     1
290
     0
176
     1
 90
       50
176
     1
 62
   256
176
     0
 40
1.0
176
     0
 90
        2
176
     1
  1
strokes_ogs.tif
176
     1
290
     0
176
     1
 40
1.0
176
     1
 40
1.0
176
     1
  0
VISUALSTYLE
  5
1DB
102
{ACAD_REACTORS
330
E6
102
}
330
E6
100
AcDbVisualStyle
  2
JitterOff
 70
    20
177
     3
291
     1
 70
    58
 90
        2
176
     0
 90
        2
176
     0
 90
        0
176
     0
 90
        0
176
     0
 40
0.6
176
     0
 40
30.0
176
     0
 62
     7
420
 16777215
176
     0
 90
        1
176
     0
 90
        4
176
     0
 62
     7
176
     0
 62
   257
176
     0
 90
        1
176
     0
 90
        1
176
     0
 40
1.0
176
     0
 90
       10
176
     2
 62
     7
176
     0
 40
1.0
176
     0
 90
        1
176
     0
 90
        6
176
     0
 90
        2
176
     0
 62
     7
176
     0
 90
        5
176
     0
 90
        0
176
     0
 90
        0
176
     0
290
     0
176
     0
 90
        1
176
     0
 40
0.0
176
     0
 90
        0
176
     0
290
     0
176
     1
290
     1
176
     1
290
     1
176
     1
290
     0
176
     1
290
     0
176
     1
290
     0
176
     1
290
     0
176
     1
290
     0
176
     1
290
     0
176
     1
 90
       50
176
     1
 40
0.0
176
     1
 40
1.0
176
     1
 90
        0
176
     1
 62
    18
420
        0
176
     1
 90
       50
176
     1
 90
        3
176
     1
 62
     5
420
      255
176
     1
290
     0
176
     1
 90
       50
176
     1
 90
       50
176
     1
 90
       50
176
     1
290
     0
176
     1
 90
       50
176
     1
 62
   256
176
     0
 40
1.0
176
     0
 90
        2
176
     1
  1
strokes_ogs.tif
176
     1
290
     0
176
     1
 40
1.0
176
     1
 40
1.0
176
     1
  0
VISUALSTYLE
  5
F4
102
{ACAD_REACTORS
330
E6
102
}
330
E6
100
AcDbVisualStyle
  2
Linepattern
 70
    14
177
     3
291
     1
 70
    58
 90
        2
176
     1
 90
        2
176
     1
 90
        1
176
     1
 90
        0
176
     1
 40
0.6
176
     1
 40
30.0
176
     1
 62
     7
420
 16777215
176
     1
 90
        1
176
     1
 90
        4
176
     1
 62
     7
176
     1
 62
   257
176
     1
 90
        7
176
     1
 90
        7
176
     1
 40
1.0
176
     1
 90
        8
176
     1
 62
     7
176
     1
 40
1.0
176
     1
 90
        1
176
     1
 90
        6
176
     1
 90
        2
176
     1
 62
     7
176
     1
 90
        5
176
     1
 90
        0
176
     1
 90
        0
176
     1
290
     0
176
     1
 90
        1
176
     1
 40
0.0
176
     1
 90
        0
176
     1
290
     0
176
     1
290
     1
176
     1
290
     1
176
     1
290
     0
176
     1
290
     0
176
     1
290
     0
176
     1
290
     0
176
     1
290
     0
176
     1
290
     0
176
     1
 90
       50
176
     1
 40
0.0
176
     1
 40
1.0
176
     1
 90
        0
176
     1
 62
    18
420
        0
176
     1
 90
       50
176
     1
 90
        3
176
     1
 62
     5
420
      255
176
     1
290
     0
176
     1
 90
       50
176
     1
 90
       50
176
     1
 90
       50
176
     1
290
     0
176
     1
 90
       50
176
     1
 62
   256
176
     0
 40
1.0
176
     0
 90
        2
176
     1
  1
strokes_ogs.tif
176
     1
290
     0
176
     1
 40
1.0
176
     1
 40
1.0
176
     1
  0
VISUALSTYLE
  5
1DC
102
{ACAD_REACTORS
330
E6
102
}
330
E6
100
AcDbVisualStyle
  2
OverhangOff
 70
    21
177
     3
291
     1
 70
    58
 90
        2
176
     0
 90
        2
176
     0
 90
        0
176
     0
 90
        0
176
     0
 40
0.6
176
     0
 40
30.0
176
     0
 62
     7
420
 16777215
176
     0
 90
        1
176
     0
 90
        4
176
     0
 62
     7
176
     0
 62
   257
176
     0
 90
        1
176
     0
 90
        1
176
     0
 40
1.0
176
     0
 90
        9
176
     2
 62
     7
176
     0
 40
1.0
176
     0
 90
        1
176
     0
 90
        6
176
     0
 90
        2
176
     0
 62
     7
176
     0
 90
        5
176
     0
 90
        0
176
     0
 90
        0
176
     0
290
     0
176
     0
 90
        1
176
     0
 40
0.0
176
     0
 90
        0
176
     0
290
     0
176
     1
290
     1
176
     1
290
     1
176
     1
290
     0
176
     1
290
     0
176
     1
290
     0
176
     1
290
     0
176
     1
290
     0
176
     1
290
     0
176
     1
 90
       50
176
     1
 40
0.0
176
     1
 40
1.0
176
     1
 90
        0
176
     1
 62
    18
420
        0
176
     1
 90
       50
176
     1
 90
        3
176
     1
 62
     5
420
      255
176
     1
290
     0
176
     1
 90
       50
176
     1
 90
       50
176
     1
 90
       50
176
     1
290
     0
176
     1
 90
       50
176
     1
 62
   256
176
     0
 40
1.0
176
     0
 90
        2
176
     1
  1
strokes_ogs.tif
176
     1
290
     0
176
     1
 40
1.0
176
     1
 40
1.0
176
     1
  0
VISUALSTYLE
  5
F0
102
{ACAD_REACTORS
330
E6
102
}
330
E6
100
AcDbVisualStyle
  2
Realistic
 70
     8
177
     3
291
     0
 70
    58
 90
        2
176
     1
 90
        3
176
     1
 90
        0
176
     1
 90
        2
176
     1
 40
0.6
176
     1
 40
30.0
176
     1
 62
     7
420
 16777215
176
     1
 90
        0
176
     1
 90
        0
176
     1
 62
     7
176
     1
 62
   257
176
     1
 90
        1
176
     1
 90
        1
176
     1
 40
1.0
176
     1
 90
        8
176
     1
 62
   257
176
     1
 40
1.0
176
     1
 90
        1
176
     1
 90
        6
176
     1
 90
        2
176
     1
 62
     7
176
     1
 90
        3
176
     1
 90
        0
176
     1
 90
        0
176
     1
290
     0
176
     1
 90
       13
176
     1
 40
0.0
176
     1
 90
        0
176
     1
290
     0
176
     1
290
     1
176
     1
290
     1
176
     1
290
     0
176
     1
290
     0
176
     1
290
     0
176
     1
290
     0
176
     1
290
     0
176
     1
290
     0
176
     1
 90
       50
176
     1
 40
0.0
176
     1
 40
1.0
176
     1
 90
        0
176
     1
 62
    18
420
        0
176
     1
 90
       50
176
     1
 90
        3
176
     1
 62
     5
420
      255
176
     1
290
     0
176
     1
 90
       50
176
     1
 90
       50
176
     1
 90
       50
176
     1
290
     0
176
     1
 90
       50
176
     1
 62
   256
176
     0
 40
1.0
176
     0
 90
        2
176
     1
  1
strokes_ogs.tif
176
     1
290
     0
176
     1
 40
1.0
176
     1
 40
1.0
176
     1
  0
VISUALSTYLE
  5
1EA
102
{ACAD_REACTORS
330
E6
102
}
330
E6
100
AcDbVisualStyle
  2
Shaded
 70
    27
177
     3
291
     0
 70
    58
 90
        2
176
     1
 90
        2
176
     1
 90
        1
176
     1
 90
        2
176
     1
 40
0.6
176
     1
 40
30.0
176
     1
 62
     7
420
 16777215
176
     1
 90
        0
176
     1
 90
        4
176
     1
 62
     7
176
     1
 62
   257
176
     1
 90
        1
176
     1
 90
        1
176
     1
 40
1.0
176
     1
 90
        8
176
     1
 62
   257
176
     1
 40
1.0
176
     1
 90
        1
176
     1
 90
        6
176
     1
 90
        2
176
     1
 62
     8
420
  7895160
176
     1
 90
        3
176
     1
 90
        0
176
     1
 90
        0
176
     1
290
     0
176
     1
 90
        5
176
     1
 40
0.0
176
     1
 90
        0
176
     1
290
     0
176
     1
290
     1
176
     1
290
     1
176
     1
290
     0
176
     1
290
     0
176
     1
290
     0
176
     1
290
     0
176
     1
290
     0
176
     1
290
     0
176
     1
 90
       50
176
     1
 40
0.0
176
     1
 40
1.0
176
     1
 90
        0
176
     1
 62
    18
420
        0
176
     1
 90
       50
176
     1
 90
        3
176
     1
 62
     5
420
      255
176
     1
290
     0
176
     1
 90
       50
176
     1
 90
       50
176
     1
 90
       50
176
     1
290
     0
176
     1
 90
       50
176
     1
 62
   256
176
     0
 40
1.0
176
     0
 90
        2
176
     1
  1
strokes_ogs.tif
176
     1
290
     0
176
     1
 40
1.0
176
     1
 40
1.0
176
     1
  0
VISUALSTYLE
  5
1E9
102
{ACAD_REACTORS
330
E6
102
}
330
E6
100
AcDbVisualStyle
  2
Shaded with edges
 70
    26
177
     3
291
     0
 70
    58
 90
        2
176
     1
 90
        2
176
     1
 90
        1
176
     1
 90
        2
176
     1
 40
0.6
176
     1
 40
30.0
176
     1
 62
     7
420
 16777215
176
     1
 90
        1
176
     1
 90
       10
176
     1
 62
     7
176
     1
 62
   257
176
     1
 90
        2
176
     1
 90
        1
176
     1
 40
1.0
176
     1
 90
        8
176
     1
 62
   257
176
     1
 40
1.0
176
     1
 90
        1
176
     1
 90
        6
176
     1
 90
        2
176
     1
 62
     7
176
     1
 90
        3
176
     1
 90
        0
176
     1
 90
        0
176
     1
290
     0
176
     1
 90
        5
176
     1
 40
0.0
176
     1
 90
        0
176
     1
290
     0
176
     1
290
     1
176
     1
290
     1
176
     1
290
     0
176
     1
290
     0
176
     1
290
     0
176
     1
290
     0
176
     1
290
     0
176
     1
290
     0
176
     1
 90
       50
176
     1
 40
0.0
176
     1
 40
1.0
176
     1
 90
        0
176
     1
 62
    18
420
        0
176
     1
 90
       50
176
     1
 90
        3
176
     1
 62
     5
420
      255
176
     1
290
     0
176
     1
 90
       50
176
     1
 90
       50
176
     1
 90
       50
176
     1
290
     0
176
     1
 90
       50
176
     1
 62
   256
176
     0
 40
1.0
176
     0
 90
        2
176
     1
  1
strokes_ogs.tif
176
     1
290
     0
176
     1
 40
1.0
176
     1
 40
1.0
176
     1
  0
VISUALSTYLE
  5
1E6
102
{ACAD_REACTORS
330
E6
102
}
330
E6
100
AcDbVisualStyle
  2
Shades of Gray
 70
    23
177
     3
291
     0
 70
    58
 90
        2
176
     1
 90
        2
176
     1
 90
        3
176
     1
 90
        0
176
     1
 40
0.6
176
     1
 40
30.0
176
     1
 62
     7
420
 16777215
176
     1
 90
        2
176
     1
 90
        2
176
     1
 62
     7
176
     1
 62
     7
176
     1
 90
        1
176
     1
 90
        1
176
     1
 40
40.0
176
     1
 90
        8
176
     1
 62
     7
176
     1
 40
1.0
176
     1
 90
        1
176
     1
 90
        6
176
     1
 90
        2
176
     1
 62
     7
176
     1
 90
        3
176
     1
 90
        0
176
     1
 90
        0
176
     1
290
     0
176
     1
 90
        1
176
     1
 40
0.0
176
     1
 90
        0
176
     1
290
     0
176
     1
290
     1
176
     1
290
     1
176
     1
290
     0
176
     1
290
     0
176
     1
290
     0
176
     1
290
     0
176
     1
290
     0
176
     1
290
     0
176
     1
 90
       50
176
     1
 40
0.0
176
     1
 40
1.0
176
     1
 90
        0
176
     1
 62
    18
420
        0
176
     1
 90
       50
176
     1
 90
        3
176
     1
 62
     5
420
      255
176
     1
290
     0
176
     1
 90
       50
176
     1
 90
       50
176
     1
 90
       50
176
     1
290
     0
176
     1
 90
       50
176
     1
 62
   256
176
     0
 40
1.0
176
     0
 90
        2
176
     1
  1
strokes_ogs.tif
176
     1
290
     0
176
     1
 40
1.0
176
     1
 40
1.0
176
     1
  0
VISUALSTYLE
  5
1E7
102
{ACAD_REACTORS
330
E6
102
}
330
E6
100
AcDbVisualStyle
  2
Sketchy
 70
    24
177
     3
291
     0
 70
    58
 90
        1
176
     1
 90
        2
176
     1
 90
        2
176
     1
 90
        0
176
     1
 40
0.6
176
     1
 40
30.0
176
     1
 62
     7
420
 16777215
176
     1
 90
        2
176
     1
 90
        2
176
     1
 62
     7
176
     1
 62
     7
176
     1
 90
        1
176
     1
 90
        1
176
     1
 40
40.0
176
     1
 90
       11
176
     1
 62
     7
176
     1
 40
1.0
176
     1
 90
        1
176
     1
 90
        6
176
     1
 90
        2
176
     1
 62
     7
176
     1
 90
        6
176
     1
 90
        0
176
     1
 90
        0
176
     1
290
     0
176
     1
 90
        1
176
     1
 40
0.0
176
     1
 90
        0
176
     1
290
     0
176
     1
290
     1
176
     1
290
     1
176
     1
290
     0
176
     1
290
     0
176
     1
290
     0
176
     1
290
     0
176
     1
290
     0
176
     1
290
     0
176
     1
 90
       50
176
     1
 40
0.0
176
     1
 40
1.0
176
     1
 90
        0
176
     1
 62
    18
420
        0
176
     1
 90
       50
176
     1
 90
        3
176
     1
 62
     5
420
      255
176
     1
290
     0
176
     1
 90
       50
176
     1
 90
       50
176
     1
 90
       50
176
     1
290
     0
176
     1
 90
       50
176
     1
 62
   256
176
     0
 40
1.0
176
     0
 90
        2
176
     1
  1
strokes_ogs.tif
176
     1
290
     0
176
     1
 40
1.0
176
     1
 40
1.0
176
     1
  0
VISUALSTYLE
  5
F3
102
{ACAD_REACTORS
330
E6
102
}
330
E6
100
AcDbVisualStyle
  2
Thicken
 70
    13
177
     3
291
     1
 70
    58
 90
        2
176
     1
 90
        2
176
     1
 90
        1
176
     1
 90
        0
176
     1
 40
0.6
176
     1
 40
30.0
176
     1
 62
     7
420
 16777215
176
     1
 90
        1
176
     1
 90
        4
176
     1
 62
     7
176
     1
 62
   257
176
     1
 90
        1
176
     1
 90
        1
176
     1
 40
1.0
176
     1
 90
       12
176
     1
 62
     7
176
     1
 40
1.0
176
     1
 90
        1
176
     1
 90
        6
176
     1
 90
        2
176
     1
 62
     7
176
     1
 90
        5
176
     1
 90
        0
176
     1
 90
        0
176
     1
290
     0
176
     1
 90
        1
176
     1
 40
0.0
176
     1
 90
        0
176
     1
290
     0
176
     1
290
     1
176
     1
290
     1
176
     1
290
     0
176
     1
290
     0
176
     1
290
     0
176
     1
290
     0
176
     1
290
     0
176
     1
290
     0
176
     1
 90
       50
176
     1
 40
0.0
176
     1
 40
1.0
176
     1
 90
        0
176
     1
 62
    18
420
        0
176
     1
 90
       50
176
     1
 90
        3
176
     1
 62
     5
420
      255
176
     1
290
     0
176
     1
 90
       50
176
     1
 90
       50
176
     1
 90
       50
176
     1
290
     0
176
     1
 90
       50
176
     1
 62
   256
176
     0
 40
1.0
176
     0
 90
        2
176
     1
  1
strokes_ogs.tif
176
     1
290
     0
176
     1
 40
1.0
176
     1
 40
1.0
176
     1
  0
VISUALSTYLE
  5
ED
102
{ACAD_REACTORS
330
E6
102
}
330
E6
100
AcDbVisualStyle
  2
Wireframe
 70
     5
177
     3
291
     0
 70
    58
 90
        0
176
     1
 90
        2
176
     1
 90
        0
176
     1
 90
        0
176
     1
 40
0.6
176
     1
 40
30.0
176
     1
 62
     7
420
 16777215
176
     1
 90
        1
176
     1
 90
        4
176
     1
 62
     7
176
     1
 62
   257
176
     1
 90
        1
176
     1
 90
        1
176
     1
 40
1.0
176
     1
 90
        0
176
     1
 62
   257
176
     1
 40
1.0
176
     1
 90
        1
176
     1
 90
        6
176
     1
 90
        2
176
     1
 62
     7
176
     1
 90
        3
176
     1
 90
        0
176
     1
 90
        0
176
     1
290
     0
176
     1
 90
        1
176
     1
 40
0.0
176
     1
 90
        0
176
     1
290
     0
176
     1
290
     1
176
     1
290
     1
176
     1
290
     0
176
     1
290
     0
176
     1
290
     0
176
     1
290
     0
176
     1
290
     0
176
     1
290
     0
176
     1
 90
       50
176
     1
 40
0.0
176
     1
 40
1.0
176
     1
 90
        0
176
     1
 62
    18
420
        0
176
     1
 90
       50
176
     1
 90
        3
176
     1
 62
     5
420
      255
176
     1
290
     0
176
     1
 90
       50
176
     1
 90
       50
176
     1
 90
       50
176
     1
290
     0
176
     1
 90
       50
176
     1
 62
   256
176
     0
 40
1.0
176
     0
 90
        2
176
     1
  1
strokes_ogs.tif
176
     1
290
     0
176
     1
 40
1.0
176
     1
 40
1.0
176
     1
  0
VISUALSTYLE
  5
1E8
102
{ACAD_REACTORS
330
E6
102
}
330
E6
100
AcDbVisualStyle
  2
X-Ray
 70
    25
177
     3
291
     0
 70
    58
 90
        2
176
     1
 90
        2
176
     1
 90
        1
176
     1
 90
        1
176
     1
 40
0.5
176
     1
 40
30.0
176
     1
 62
     7
420
 16777215
176
     1
 90
        1
176
     1
 90
        0
176
     1
 62
     7
176
     1
 62
   257
176
     1
 90
        1
176
     1
 90
        1
176
     1
 40
1.0
176
     1
 90
        8
176
     1
 62
     7
176
     1
 40
1.0
176
     1
 90
        1
176
     1
 90
        6
176
     1
 90
        2
176
     1
 62
     7
176
     1
 90
        3
176
     1
 90
        0
176
     1
 90
        0
176
     1
290
     0
176
     1
 90
       13
176
     1
 40
0.0
176
     1
 90
        0
176
     1
290
     0
176
     1
290
     1
176
     1
290
     1
176
     1
290
     0
176
     1
290
     0
176
     1
290
     0
176
     1
290
     0
176
     1
290
     0
176
     1
290
     0
176
     1
 90
       50
176
     1
 40
0.0
176
     1
 40
1.0
176
     1
 90
        0
176
     1
 62
    18
420
        0
176
     1
 90
       50
176
     1
 90
        3
176
     1
 62
     5
420
      255
176
     1
290
     0
176
     1
 90
       50
176
     1
 90
       50
176
     1
 90
       50
176
     1
290
     0
176
     1
 90
       50
176
     1
 62
   256
176
     0
 40
1.0
176
     0
 90
        2
176
     1
  1
strokes_ogs.tif
176
     1
290
     0
176
     1
 40
1.0
176
     1
 40
1.0
176
     1
  0
DICTIONARYVAR
  5
13D
102
{ACAD_REACTORS
330
67
102
}
330
67
100
DictionaryVariables
280
     0
  1
1:1
  0
DICTIONARYVAR
  5
13C
102
{ACAD_REACTORS
330
67
102
}
330
67
100
DictionaryVariables
280
     0
  1
STANDARD
  0
DICTIONARYVAR
  5
C5
102
{ACAD_REACTORS
330
67
102
}
330
67
100
DictionaryVariables
280
     0
  1
STANDARD
  0
DICTIONARYVAR
  5
21E
102
{ACAD_REACTORS
330
67
102
}
330
67
100
DictionaryVariables
280
     0
  1
Metric50
  0
DICTIONARYVAR
  5
21F
102
{ACAD_REACTORS
330
67
102
}
330
67
100
DictionaryVariables
280
     0
  1
Metric50
  0
DICTIONARYVAR
  5
68
102
{ACAD_REACTORS
330
67
102
}
330
67
100
DictionaryVariables
280
     0
  1
2
  0
DICTIONARYVAR
  5
DA8
102
{ACAD_REACTORS
330
67
102
}
330
67
100
DictionaryVariables
280
     0
  1
2
  0
DICTIONARYVAR
  5
6C
102
{ACAD_REACTORS
330
67
102
}
330
67
100
DictionaryVariables
280
     0
  1
1
  0
DICTIONARYVAR
  5
1A5
102
{ACAD_REACTORS
330
67
102
}
330
67
100
DictionaryVariables
280
     0
  1
0
  0
DICTIONARYVAR
  5
1A6
102
{ACAD_REACTORS
330
67
102
}
330
67
100
DictionaryVariables
280
     0
  1
0
  0
DICTIONARY
  5
22D
330
213
100
AcDbDictionary
280
     1
281
     1
  3
ACAD_XREC_ROUNDTRIP
360
19A8
  0
DICTIONARY
  5
1FC
330
22
100
AcDbDictionary
280
     1
281
     1
  3
AcPublish_PlotSettingsOverride
360
DA7
  0
DICTIONARY
  5
1F0
330
E4
100
AcDbDictionary
280
     1
281
     1
  3
FBXASSET
360
1F1
  0
DICTIONARY
  5
1EE
330
E3
100
AcDbDictionary
280
     1
281
     1
  3
FBXASSET
360
1EF
  0
DICTIONARY
  5
16A
330
E5
100
AcDbDictionary
280
     1
281
     1
  3
BUMPTILE
360
16C
  3
DIFFUSETILE
360
16B
  3
FBXASSET
360
1F2
  3
OPACITYTILE
360
16D
  3
REFLECTIONTILE
360
16E
  0
DICTIONARY
  5
22B
330
211
100
AcDbDictionary
280
     1
281
     1
  3
ACAD_XREC_ROUNDTRIP
360
19A7
  0
DICTIONARY
  5
159
330
98
100
AcDbDictionary
280
     1
281
     1
  3
ACAD_ROUNDTRIP_2008_TABLESTYLE_CELLSTYLEMAP
360
19A6
  0
XRECORD
  5
19A8
102
{ACAD_REACTORS
330
22D
102
}
330
22D
100
AcDbXrecord
280
     1
102
DISPLAYNAME
  1
Metric50
102
FLAGS
 90
        0
  0
PLOTSETTINGS
  5
DA7
102
{ACAD_REACTORS
330
1FC
102
}
330
1FC
100
AcDbPlotSettings
  1

  2
Kyocera TASKalfa 3050ci(J) KX
  4
ANSI_A_(8.50_x_11.00_Inches)
  6

 40
4.984749794006347
 41
5.111724853515625
 42
5.154083251953125
 43
4.9847412109375
 44
297.0106506347656
 45
419.9889831542968
 46
0.0
 47
0.0
 48
33316.24093491148
 49
28289.23237812787
140
34996.24093491148
141
29477.23237812787
142
1.0
143
1.0
 70
 11952
 72
     1
 73
     1
 74
     4
  7

 75
    16
147
1.0
 76
     0
 77
     2
 78
   300
148
-33316.24093491148
149
-28289.23237812787
1001
ACAD_PSEXT
1000
Kyocera TASKalfa 3050ci(J) KX
1000
Kyocera TASKalfa 3050ci(J) KX
1000
192.168.11.123
1000

1070
     0
  0
XRECORD
  5
1F1
102
{ACAD_REACTORS
330
1F0
102
}
330
1F0
100
AcDbXrecord
280
     1
 70
     1
 90
429727718
  1
F226E010-5D7B-4EF0-9E0F-00A2E58668EA
310
504B03040A0000080000C270623B3DEE336E79000000790000001B0000006175746F6465736B2D64657369676E2D7061636B6167652E786D6C3C3F786D6C2076657273696F6E3D22312E302220656E636F64696E673D227574662D3822203F3E3C666F726D6174733E3C666F726D61743E687474703A2F2F736368656D612E
310
6175746F6465736B2E636F6D2F64657369676E2D7061636B6167652F323030393C2F666F726D61743E3C2F666F726D6174733E504B0304140006080800C270623BD486FD9CA0000000F4000000130000005B436F6E74656E745F54797065735D2E786D6C7D8EC10E82300C865F65E91D8A1E8C310C0EEA1BF002731658846E
310
D98AC1B77784ABF1D8FE5FBFBF75BBCE937A534CCEB38643598122B6FEE978D0B0485F9C41B54DDD7D022595594E1A469170414C76A4D9A4D207E29CF43ECE46F218070CC6BECC4078ACAA135ACF422C856C0E68EA1BF5669944DDD7BCDE7B1F8E415D77AECB980613C2E4AC91FC167A2B244592486606FC29C8FD7F045B9A
310
EF7053A7E60B504B0304140006080800C270623B132FA9F8EA0000007C01000008000000636F72652E786D6C8D90DD6EC3200C855F05F976223169D2D18850ADDDF6047B010434436D200A30EDF147FA236D77BBB2757C3EDB3A62FF3D5DC8975DA20B7E00562110EB7530CE8F03E474A21CC85E8A2584F4CB06C4ABC90EB0
310
CA20C5B8843CDF251D7CB23E15D50763EFA28AD12620FA529A01A2FEB493AA544EC511CFD5ACF4598DB6628FAEC0393B436E479C29FBDCC9D905E486BFBF1D5ED8336D78D7D2961F90F2233FD2572C8316D9B6EB1A51AFB014C94D8FFB7AB12A5903B241DC51C628361FACED71DB63FB84BC4714F56AFF03E5D9FC13CACEA7
310
4D737FF7864590AC3C721D4851AF5994720DAAD43537F903504B0304140006080800C270623B55019EA25F0000007C00000007000000636E782E786D6C4DCB3B0E80201045D1AD90E915ED2CF8AC45050C11660C8261F98AB1B07AC9C97D42D718D865D3E909258CFD00CCE24AC6E326A164D74DC0B4128928FF326038472B
310
A13128B1252AC747C6BAB984FC68F0B87FE8960A5C09FE86CFB69FBA01504B0304140006080800C270623B0B97CEAB6F010000D40300000C0000006662782F636F72652E786D6CC553ED6E8320147D15C2DF05416B3BD720CDDA6D4FB017A04A1DA98241307DFC5D3F9AAE4BB774BFE60F25E7DCCB3DE7207C736A6AD42BD7
310
696B721C470C23650A5B6A53E538F803C930DA08EEACF55FCA3032B251391E602C78E56C6867A8B0C62BE30135B6543328BB4E798C8A1A1639EE8A0FD5C848060F15DD316A657194958AE20868A813BCF30E04A069C8F0C6E2B03F713AE18287A0CB99D5254CD307AD1C168BECED75FB1C3F92245BA624CDB68C64BB6C475E
310
1810298B57CB65C2E9D02CB8D7CD595DE194F4AAC42261EC89C43161C97B9CAED96ACDD20796AD19E37428BF6A0A6D796753D0C62F9259EED4D66111839091F8E61622F2A8933DE8A182D32144F88C095F070D8140C85EEEEBB38F2340BD2ABC752930A50D17AA9775503095456C7CD0CF0B4EA74E983A6E0EAE6FCE48EE9E
310
F1FB8E70D4D25460427A58EE831F74F249C31C5AAB1CE9FD0919EB1A59DF67E317877FA22EE26F4A2A6C6DDD7F29A2F301D1F9F7A0C37D149F504B0304140006080800C270623BD9317DDA7D0000009D0000000B0000006662782F636E782E786D6C4DCCD10AC2201886E15B91FFDC966B53037588D27D8CE686E4344CA3CB
310
6F8B1D74F4C1C3C72B86CF1AD0DBE5974F5102399D01B9784F938F8B845A66CC010D4AE494CADF0D501C572761675062C9A93E0F9ADC3CD650360D3E3E0E34BDE1DA901EDFAE96E18ED00E6BC65A6C29B78651DEB28B864689E657DA760FAB2F504B0304140006080800C270623B609261632A010000120200003100000066
310
62782F43354338414331352D463944372D343136342D413737322D4436384443373638323733412F636F72652E786D6C8D515B6EC32010BC0AE22B55850D0E7E24C24491A39EA0172086A42831583CAA1CBF503B52FB971F16CDCECC0E2C3B3CA63BF856CE6B6B7A480A0C8132A395DA5C7B18C30575101C3873D6863F3408
310
8C98540F330C39BB3A1BE7151AAD09CA84841A2BD50A0AEF558060BCA74B0FFDF8A52651881812C3DF8A598C3771550529523BF138F3C1A5006019924FC8877AE88E03A9D1C7EED4224A1A8A8E6D5BA153D39D86B6E9AA767B64E522E42C462D57B996298EBE68E55E35C962CE829E9EF147A7445012F20AE31D2204E1EA93
310
D03D6EF698BEE36E8F312B33FD9F28CEF24551D4266CAB35EE22F39013562E0DCEA48DE7FB338C7ACCD60590E76DBC1ADF20C705C635D951562EC4F4FCE4D8D0D5D107EBD2F76E6EE7C425F562DB50CECABCA1547ED7976ADE26FF01504B0304140006080800C270623BAB1CAE584E01000033030000300000006662782F43
310
354338414331352D463944372D343136342D413737322D4436384443373638323733412F636E782E786D6CD593CD6EC32010845F0571AD6CE3D48AD20813A9873E410FBD12D82434182C7EAAE6EDBB2424CD25871E7B41D6EC30B3FA84F9E67BB2E40B4234DE8DB46F1925E094D7C6ED479AD3AE5951B2113C789FEE6C9438
310
39C1488B4C05DF079FE72A69D8C96C13AAD6B8631503449F83828872B949AC57D26200B826A308D316B4064D6E46FCDA41C05550DC9E483A00797BFD207EFB092A45DE9514C1BBD22178396BD39D891265658C238DEA00936C654E5E433CB65A26D9F6EDB5EBC14EBF49A45CB856E66048291F6939A9A81BB5C8917738143C
310
A680F4AA299D66A042CEB3354A2684DC9D8D178FE0D9B8B41CAAD720F880EE7EF93C0C18769E099ECC04D5A102C8049A8A05632F4DDF376CF1DE0F6BB65CB3E189ADD68CF1AED805DF7A6FEB258C81E067A2BC4BE012153DEFCAF811BEEA23DA0464EDC3E90F2011406DBDD0B965FC673EDDF97D23AE807F81F801504B0304
310
140006080800C270623BCB23EE24670500003C100000340000006662782F43354338414331352D463944372D343136342D413737322D4436384443373638323733412F6F626A656374732E786D6CAD575B8F9B3818FD2B887DE69664A6332B866A72ABA26ADAAA51AB7D182932E030EC0046B69966F6D7EF31180224D3662F
310
7908D8D8DFF57CC79FFDF7873C335E2817292BEE4CCF764D8316118BD322B9332BB9B76E4CE37DE073C6646F99691424A777A69A36033FE1AC2AF5544CF7A4CAE468763DFFC310112DA869441911E2CE14D113CD894D2AC9622A9EED98486227FB83EDD9CDC2A1D88493F26924B4249C16129662BE8014A331CA1B0E5DD309
310
7C477D0F7CF5AF574DDF5EE5D4FE0CF5A78590A4884E948DC44CBDD97235B9BAB5AE66B3A935BB9E78D67C3D5F5ADEBBA9BBB85E2C6EEF57B7502C2487246D09A77B33F880D8F034F29DE65367B136FC9C49112B0A1AD5FEC3C3DA662D31A6252D62E431A502DA7A5EBBC3A1A762D3FB3C5563ADB23F7D9957FD1D3D41ADED
310
EDB36F290BFF840BE21254704115AA9AF868471BFCB9C7A8858C65FA5B2A8C9C48CA539219591A72C25FCD004BD592C01F8851E8E40AE1CA0333F08EF2FAB6A2347E8DDD7356EEAB2C53D034831AD93BE09F4A515B96FE45F9796DB009B9AAD242DE6887E46B49CDE0D677EAC9C0578FE9447F6C0269EC339220E570B3F93A
310
7274A16A6FB334838FEBF0B055F5785E79C95949B954F001B4DAC4B54F1525ADD6BB28736A039C19C4FC1894AF88FC2794EFD114E48DA787D961A6B5484E0AB1673C476E6CB7FE196EFB62756FA72FE0B3D1EAD335DDCCBF5AEC3B9DB143C2782B7F00974ACDCD7FCFDF30667DA4F6D217F82F2830C6A73A94DB8864A09E87
310
B4404214288D8C610A5CBE0F0F66B0015382D9B18B644117909317DF79C177FC37B2C156B5FADEB34042477C7B01F323967559C0B637C072C293B562EDDC5B31BFFA5F6AE67EB9FDB8ADF89E44F44113CB92EED32295383B8FE0ED1B3448C4C0A367FAFA83F1188E9E2661DB4F42AE5509445BC55C053E690F0B35386A1E28
310
88B02F618AF3FC5F6878484544B38C149455AD96EE185258ED4846F709A8C226A0D3C908C59CBEA4AA9318AC189885B33EE269A942D61D7A1D4FDB6FF8F26DF309A03483F9EB1C687D3EAE0A8F741FB18CF15DF8BA6B98D004F8B06788EEEF4378EB883A4A0A105F63B9A51C1DE25D9CEEF79500EF9E89E2F7CDA29FA98E48
310
4E5FDA026A35363539033BA3F608D7F06D75A221E004073B2B76298E7194E559E57DDD6305A296FB86FCB0CACB1DC95955C84BC2E4B6FEB4D677C2FB5D8CF84164F46406DBFA69CD41D9318D8FA91AA0401D41677C1AA4673D995CAF5CCFB5AE96EFE6D66CB576ADDB95BBB65CF77EB2BABAB9BEBE59DD7716D596047E7B42
310
F56B10D1C489E8573CD561FEB63996AD193C10299C0F4D413949F3FCB6B1D116FB0EF600E0DDC64D5E6634A785240ABE0FEA25FB4AD0550C6434F39B9C24F402299F3F6C473660E6827D5F54A9D11FA3BD7A76A16AE1AC10F954E56141D26CB4513B6E9745A2DD6E43D93D1B466F876AA4E3893E54B02C8D4138B191509653
310
09DAB980ED794E0510D3EFCA637D7BB860F74BD30F4A1266B4B5E489A025CE04500DB855911CCE1BBFA185535DD49D89C3CE7EC69F2E44D340AAEF4CF09B4C232AEC10C7A36A7C6AE18000BAB08E0401355224193AEB665337EE76A9D8807E70026AFDDD924BBA25EDD7807873529638B507B45ADBA61544FFC8F1D61C8348
310
BC8695EC7C394E74CED46A50598D53FA6E8016E259AB3EA0BE7EEE9667D76B0611B9E89EF4531034522D497852DF0B947DDAA4FBE51707AD80B1F96C9459952097974BB23805982B55E0401150A165964402AA8BDF1FBF7086BB686EAC5340E071C1F29C157A70AFEFB2C6F60937D3F811B440D5F5434C5CCF7BACBB7E7D11
310
D98544509BC4E219136DC1290F465803204F8E539D0247E560B47CB334F4813183D01AB4274D69730D37503CEAE6A84AA54F96E54F1B7FA75E0A3070B4ECC1DF504B0304140006080000C270623B000000000000000000000000350000006662782F43354338414331352D463944372D343136342D413737322D4436384443
310
373638323733412F76657274696365732E62696E504B0304140006080800C270623BF270F1330600000004000000360000006662782F43354338414331352D463944372D343136342D413737322D4436384443373638323733412F747269616E676C65732E62696E636660600000504B0304140006080000C270623B000000
310
000000000000000000370000006662782F43354338414331352D463944372D343136342D413737322D4436384443373638323733412F617474726962757465732E62696E504B0304140006080800C270623B08DA0BD19000000041010000360000006662782F43354338414331352D463944372D343136342D413737322D44
310
36384443373638323733412F6469726563746F72792E786D6C858F410AC3201045AF22B36F53E9A60B35CBEEBAE80D244E44489C6234F4F835464A48035D0DF398FF9F8AF63D0E6CC63039F212F8F9020C7D47C6792B21C5FE7403D62A1188E2E60C98D7234A5830286103A55745067B9D86B8A3CF9C7F90C11DE607FB1443
310
96D7B6A82D282E9A152AD114D5EF2CB866EEE831B8EEA07A7BB5A8D7D61A2BAAEB7FD5F70921FF497D00504B0304140006080800C270623B00848760FC000000A00100003B0000006662782F43354338414331352D463944372D343136342D413737322D4436384443373638323733412F7265736F75726365732F636F7265
310
2E786D6C8D504B6E833010BD0A9A6D65B009201719474DDA9EA017B0CC84580936F2A7EAF16B0295DA5D3733A3F7D13C3D71FC9AEFC527FA609C1D8095140AB4DA8DC64E03A478211C8AA314DEB9F84B068555330EB0C220C5E45D5A76483B1BD1C68C5A37E20EAA103042A1EFF91820E82BCEAA54296645B8958BD2373561
310
C9CA4C679D1421FA1CA0D89EAC13A4C7E092D71844B5B152A464C65D63C6FCD35C0C7A9007FEFE767A611DA979DB90869F28E1677E26AF34130D655DDBD6A25ACD524433FF64D41E55C411644DE933618CD0FA83353DED7ADA3C51DE532AAA55FEC79496F19FA6646C3CD47BDCCD1640B21CE4414851AD7DE5F52833EFB55B
310
F90D504B010214000A0000080000C270623B3DEE336E79000000790000001B00000000000000000000000000000000006175746F6465736B2D64657369676E2D7061636B6167652E786D6C504B01021400140006080800C270623BD486FD9CA0000000F40000001300000000000000000000000000B20000005B436F6E7465
310
6E745F54797065735D2E786D6C504B01021400140006080800C270623B132FA9F8EA0000007C010000080000000000000000000000000083010000636F72652E786D6C504B01021400140006080800C270623B55019EA25F0000007C000000070000000000000000000000000093020000636E782E786D6C504B0102140014
310
0006080800C270623B0B97CEAB6F010000D40300000C00000000000000000000000000170300006662782F636F72652E786D6C504B01021400140006080800C270623BD9317DDA7D0000009D0000000B00000000000000000000000000B00400006662782F636E782E786D6C504B01021400140006080800C270623B609261
310
632A010000120200003100000000000000000000000000560500006662782F43354338414331352D463944372D343136342D413737322D4436384443373638323733412F636F72652E786D6C504B01021400140006080800C270623BAB1CAE584E010000330300003000000000000000000000000000CF0600006662782F43
310
354338414331352D463944372D343136342D413737322D4436384443373638323733412F636E782E786D6C504B01021400140006080800C270623BCB23EE24670500003C10000034000000000000000000000000006B0800006662782F43354338414331352D463944372D343136342D413737322D44363844433736383237
310
33412F6F626A656374732E786D6C504B01021400140006080000C270623B0000000000000000000000003500000000000000000000000000240E00006662782F43354338414331352D463944372D343136342D413737322D4436384443373638323733412F76657274696365732E62696E504B01021400140006080800C270
310
623BF270F13306000000040000003600000000000000000000000000770E00006662782F43354338414331352D463944372D343136342D413737322D4436384443373638323733412F747269616E676C65732E62696E504B01021400140006080000C270623B00000000000000000000000037000000000000000000000000
310
00D10E00006662782F43354338414331352D463944372D343136342D413737322D4436384443373638323733412F617474726962757465732E62696E504B01021400140006080800C270623B08DA0BD190000000410100003600000000000000000000000000260F00006662782F43354338414331352D463944372D343136
310
342D413737322D4436384443373638323733412F6469726563746F72792E786D6C504B01021400140006080800C270623B00848760FC000000A00100003B000000000000000000000000000A1000006662782F43354338414331352D463944372D343136342D413737322D4436384443373638323733412F7265736F757263
310
65732F636F72652E786D6C504B0506000000000E000E00800400005F1100000000
  0
XRECORD
  5
1EF
102
{ACAD_REACTORS
330
1EE
102
}
330
1EE
100
AcDbXrecord
280
     1
 70
     1
 90
429727718
  1
E2304D28-6187-4406-84E4-1B0A0969D8AC
310
504B03040A0000080000C270623B3DEE336E79000000790000001B0000006175746F6465736B2D64657369676E2D7061636B6167652E786D6C3C3F786D6C2076657273696F6E3D22312E302220656E636F64696E673D227574662D3822203F3E3C666F726D6174733E3C666F726D61743E687474703A2F2F736368656D612E
310
6175746F6465736B2E636F6D2F64657369676E2D7061636B6167652F323030393C2F666F726D61743E3C2F666F726D6174733E504B0304140006080800C270623BD486FD9CA0000000F4000000130000005B436F6E74656E745F54797065735D2E786D6C7D8EC10E82300C865F65E91D8A1E8C310C0EEA1BF002731658846E
310
D98AC1B77784ABF1D8FE5FBFBF75BBCE937A534CCEB38643598122B6FEE978D0B0485F9C41B54DDD7D022595594E1A469170414C76A4D9A4D207E29CF43ECE46F218070CC6BECC4078ACAA135ACF422C856C0E68EA1BF5669944DDD7BCDE7B1F8E415D77AECB980613C2E4AC91FC167A2B244592486606FC29C8FD7F045B9A
310
EF7053A7E60B504B0304140006080800C270623B6C505844EA0000007C01000008000000636F72652E786D6C8D90416EC3201045AF82665B61834B1DC7C244B5EB1BF402088883128365A0EAF18B13476A775DCDE8CF7F33A3CF4FDFF30D7D993558EF3AA00501649CF2DABAA98314CFB80174127CF53EFEB2017272361D6C
310
32083EAD3E2DBBA4BC8BC6C5AC3AAFCD2ECA104C04A46EB9E920A88B99652153CC8E702D16A9AE7232057D76194EC96AF4386275DE67CFD6AC20081DC7633D50FCC1688F197BA3F8FD30F6781846D2B3C3D83475C5CB0D163CDAF9795FAD4646A34154841C31A598549F94B5A46E097B214D4B082F37FB1F282DFA9F50B22E
310
BE56FBBB0F2C80A0F991FB40F072CB22977B50B96EB9891F504B0304140006080800C270623B55019EA25F0000007C00000007000000636E782E786D6C4DCB3B0E80201045D1AD90E915ED2CF8AC45050C11660C8261F98AB1B07AC9C97D42D718D865D3E909258CFD00CCE24AC6E326A164D74DC0B4128928FF326038472B
310
A13128B1252AC747C6BAB984FC68F0B87FE8960A5C09FE86CFB69FBA01504B0304140006080800C270623B85AE40E170010000D40300000C0000006662782F636F72652E786D6CC553ED6E8320147D15C2DF4501E7FA15A4593BDF602F40913A53058360FAF8BB7E345D976EE97ECD1F4ACEB9977BCE41F8F6DCD4A8D7AEAB
310
ACC9308B2946DA285B54A6CC70F0C76885D1567067ADFF528691918DCEF00063C14B67433B43CA1AAF8D07D4D842CFA0EC3AED3152352C32DCA90FDDC858060F15DD296EA53AC952C72C061AEA04EFBC0301681A32BCB1381ECE9C4CB8E02154C5CC56054CAB8E9576585096E7EBC59E456F29DB4569FAC2A2D765BE8BF6FB
310
9CEED265BE5A2D124E8666C17DD55CD429A7A5D7051609A5EB88B18826EF2CDDD0C586A64F74B5A19493A1FCA629B4C5834DA132FE3999E54E6D1D160C848CC437B71091479DEC410F119C0C21C2674CF83668080442F6F2505F7C9C00EAB5F2D6A5C014365CA95ED641C3541AD3F1413F2F38993A61EAB839B8BE3B237978
310
C6EF3BC2514B538209E96179087ED0C9270D7368AD7651EFCFC858D7C8FA311BBF38FC1375157F5792B2B575FFA588CC0744E6DF830CF7517C02504B0304140006080800C270623BD959F09C7C0000009D0000000B0000006662782F636E782E786D6C4DCCD10A83201886E15B91FFDC4A2BF0400D0BBD8F581632D3E13476
310
F9ABD1C18E3E78F878F9F0D93D3A6C7ABB180490AA0164C3232E2E6C024A5E310334489E62CC7F374061DEAD808B41F22DC5F2BA69B1EB5C7C3ED5BBF0BCB11F29514A1BACD44471C74C8BC7C968CC28D13D316DC71A06B5E4F5AF74EE15965F504B0304140006080800C270623BD97BE6F829010000120200003100000066
310
62782F35423231414145462D414143322D343846332D424346452D3832314535314633343830382F636F72652E786D6C8D515B6EC32010BC0AE22B55850D0E8EDC081339517C825E8018E2A2C460F1A872FC42ED48ED5F7E58343B333BB0ECF098EEE05B39AFAD6921293004CA0C566A33B630862B6A203870E6AC0D7F6810
310
1831A916661872363A1BE7151AAC09CA84841A2BD50A0AEF558060B8A74B0BFDF0A52651881812C3DF8A590C3731AA8214A99D789CF9E05200B00CC927E4F5B1225D77EE51D79D2A449B7E8B8EA7FE8C9A8A9C6BD26F69831B562E42CE62D472956B99E2E8AB56EE55932CE62CE8E9197F704A042521AF30FE4084205C7D12
310
BAC7BB3DA6EFB8D963CCCA4CFF278AB37C5114B509DB6A8DBBC83CE484954B833369E3E5FE0CA31EB37501E4791BAF8637C87181714D680AB110D3F393E38EAE8E3E5897BE7773BB242EA917DB1DE5ACCC1B4AE5777DA9E66DF21F504B0304140006080800C270623BAB1CAE584E01000033030000300000006662782F3542
310
3231414145462D414143322D343846332D424346452D3832314535314633343830382F636E782E786D6CD593CD6EC32010845F0571AD6CE3D48AD20813A9873E410FBD12D82434182C7EAAE6EDBB2424CD25871E7B41D6EC30B3FA84F9E67BB2E40B4234DE8DB46F1925E094D7C6ED479AD3AE5951B2113C789FEE6C943839
310
C1488B4C05DF079FE72A69D8C96C13AAD6B8631503449F83828872B949AC57D26200B826A308D316B4064D6E46FCDA41C05550DC9E483A00797BFD207EFB092A45DE9514C1BBD22178396BD39D891265658C238DEA00936C654E5E433CB65A26D9F6EDB5EBC14EBF49A45CB856E66048291F6939A9A81BB5C8917738143CA6
310
80F4AA299D66A042CEB3354A2684DC9D8D178FE0D9B8B41CAAD720F880EE7EF93C0C18769E099ECC04D5A102C8049A8A05632F4DDF376CF1DE0F6BB65CB3E189ADD68CF1AED805DF7A6FEB258C81E067A2BC4BE012153DEFCAF811BEEA23DA0464EDC3E90F2011406DBDD0B965FC673EDDF97D23AE807F81F801504B030414
310
0006080800C270623B086A6785630500003C100000340000006662782F35423231414145462D414143322D343846332D424346452D3832314535314633343830382F6F626A656374732E786D6CAD575D739B3814FD2B0CFB0C189BA4CE0EA193D849C6D34DDBA9A79D7DC88C47804CD8006224913AFDF57B040203B65BEF87
310
1F0C12D2FD3CF7E8CA7FBFCB33E3957291B2E2DA74ED8969D02262715A24D76625B7D6DC34DE073E674CF696994641727A6DAA6933F013CEAA524FC5744BAA4C8E66EF6FFF3444440B6A1A514684B83645F44C7362934AB2988A173B2692D8C97667BB76B3702836E1A47C1E092D09A78584A5982F20C5688C7287C389E904
310
BEA3BE07BEFAD7AB66A75739B53F43FD69212429A20365233133D75BDE4D2FAEAC0BCF9B59DEE5D4B56EEF6F9796FB6E36595C2E1657377757502C2487246D09A75B3378406C781AF94EF3A9B3581B7ECCA48815058D6AFFE1616DB39618D3921631F29852016D3DAF27C3A1AB62D3FB3C5363ADB23F7D9E57FD1D3D41ADED
310
EDB36F290BFF820BE21C54704115AA9AF868471BFC4DF6510B19CBF4B75418399194A72433B234E484BF990196AA25813F10A3D0C915C2950766E0EEE5F56D4569FC1ABBC7ACDC5659A6A0690635B237C03F95A2B62CFD41F9716DB009B9AAD242CEB543F2ADA46670E53BF564E0ABC76CAA3F368134B619499072B8D97C1D
310
39BA50B5B75A9AC187FB70B756F5785C79C95949B954F001B4DAC4B54F1525ADD63D2B736A039C19C47C1F942F88FC4794EFDE14E48DA73B6FE7692D9293426C19CF911B7B52FF8C49FB62756F872FE0B3D1EAC335DDCCBF5AEC3B9DB143C238953F804BA566FEDFF3378C591FA9BDF405FE2B0A8CF1990EE53A2219A8E731
310
2D9010054A23639802976FC39D19ACC0946076EC2259D005E4E0C5775EF11DFF8D6CB055ADBEF72C90D011DF9EC1FC88655D16B0ED04580E78B256AC9D3B15F38BFFA5666E96EB0FEB8A6F49441F35B12CE9362D5289B3730FDEBE4183440C3C7AA16FDF198FE1E86112D6FD24E45A9540B455CC55E093F6B05083BDE68182
310
08FB12A638CFFF8586C7544434CB484159D56AE98E2185D58E64749F802A6C023A9B8E50CCE96BAA3A89C18A815938EB239E962A64DDA1D7F1B47DC297AFAB8F00A519DCBEFD41DEFA8419EEE93E6219E39BF06DD330A109F061CF10DDDF86F0D61175941420BEC6724B393AC49B38DD6E2B01DE3D12C56FAB453F531D911C
310
BEB405D46A6C6AD2033BA3F608D7F06D75A221E004073B2B36298E7194E551E57DDD6305A2967B427E58E5E586E4AC2AE439619AB4FEB4D677C2FB5D8CF84E64F46C06EBFA69DD82B2631A9F48A83A828EF83448CFDD7436F196D3B975E9CEDF599E37B9B4E6DE9D67B9B7939BC9D5E5D5727E83F00F2BA03DA1FA358868E2
310
44F42B9EEA307F5DEDCBD60C1E8914CE4353504ED23CBFAE6CB4C5BE833D0078B771959719CD69218982EFA37AC9BE1074150319CDFC2A27093D43CAA787F5C806CC9CB1EFB32A35FA7DB457CF2E542D1C15229FAB3C2C489A8D366AC7EDB248B4DB6D28BB67C3E8ED508D743CD1870A96A53108273612CA722A413B67B03D
310
CFA90062FA5D79AC6F0F67EC7E6DFA4149C28CB6963C13B4C49900AA413A552487F3C66F68E15417756DE2B0B35FF0A70BD13490EA6B13FC26D3880A3BC4F1A81A9F5A3820802EAC2341809E144986CEBAD9D48DBB5D2A36A01F9C805A7FB7E49C6E49FB3520DE9C94254EED01ADD6B66905D13F72BC35C72012AF61253B5F
310
F6139D33B59A005C0377BA075A8817AD7A87FAFAB95BAE5DAF1944E4AC7BD24F41D048B524E1497D2F5041D726DD2C3F3B68058CD527A3CCAA04B93C5F92C529C05CA902078A800A2DB32412505DFCFEF49933DC4573E33E05049E162CCF59A10737FA2E6BAC9F71338D9F400B545D3FC474E2BA4F75D7AF2F229B90086A93
310
58BC60A22D38E5C1086B00E4C171AAAF678ECAC168F96A69E803C383D01AB4074D69730D37503CEAE6A84AA54F96E54F1B7FA75E0A1470B4ECC1DF504B0304140006080000C270623B000000000000000000000000350000006662782F35423231414145462D414143322D343846332D424346452D38323145353146333438
310
30382F76657274696365732E62696E504B0304140006080800C270623BF270F1330600000004000000360000006662782F35423231414145462D414143322D343846332D424346452D3832314535314633343830382F747269616E676C65732E62696E636660600000504B0304140006080000C270623B0000000000000000
310
00000000370000006662782F35423231414145462D414143322D343846332D424346452D3832314535314633343830382F617474726962757465732E62696E504B0304140006080800C270623B08DA0BD19000000041010000360000006662782F35423231414145462D414143322D343846332D424346452D383231453531
310
4633343830382F6469726563746F72792E786D6C858F410AC3201045AF22B36F53E9A60B35CBEEBAE80D244E44489C6234F4F835464A48035D0DF398FF9F8AF63D0E6CC63039F212F8F9020C7D47C6792B21C5FE7403D62A1188E2E60C98D7234A5830286103A55745067B9D86B8A3CF9C7F90C11DE607FB144396D7B6A82D
310
282E9A152AD114D5EF2CB866EEE831B8EEA07A7BB5A8D7D61A2BAAEB7FD5F70921FF497D00504B0304140006080800C270623B7FFB76DCFC000000A00100003B0000006662782F35423231414145462D414143322D343846332D424346452D3832314535314633343830382F7265736F75726365732F636F72652E786D6C8D
310
504B6E833010BD0A9A6D65B029250419478572835EC032136A25D8C89FAAC7AF09546A77DDCC8CDE47F3F4F8E56BB9679FE8BCB6A6039653C8D0283B69337710C39534905D0477D6865F32C88C5CB0830D06C16767E37A40CA9A802624D4D8090F507A8F0132754F47075E7DE02273194352F85BBE4A759333E62C4F74D209
310
EE834B01B2FDC9364138F4363A859E173B2B788C7A3A347A4A3FF555A30341D9389EEB8192B78AF5A4AA5E18793D8D3D198691F6D5696C9ABAE4C566163CE8E527A37228034E204A4ACF843142CB7756B5B46E69F5449B96525E6CF23FA6B84EFF34456DC27379C4DD6D1E044B411E84E0C5D6575A8F32D3DEBA15DF504B01
310
0214000A0000080000C270623B3DEE336E79000000790000001B00000000000000000000000000000000006175746F6465736B2D64657369676E2D7061636B6167652E786D6C504B01021400140006080800C270623BD486FD9CA0000000F40000001300000000000000000000000000B20000005B436F6E74656E745F5479
310
7065735D2E786D6C504B01021400140006080800C270623B6C505844EA0000007C010000080000000000000000000000000083010000636F72652E786D6C504B01021400140006080800C270623B55019EA25F0000007C000000070000000000000000000000000093020000636E782E786D6C504B01021400140006080800
310
C270623B85AE40E170010000D40300000C00000000000000000000000000170300006662782F636F72652E786D6C504B01021400140006080800C270623BD959F09C7C0000009D0000000B00000000000000000000000000B10400006662782F636E782E786D6C504B01021400140006080800C270623BD97BE6F829010000
310
120200003100000000000000000000000000560500006662782F35423231414145462D414143322D343846332D424346452D3832314535314633343830382F636F72652E786D6C504B01021400140006080800C270623BAB1CAE584E010000330300003000000000000000000000000000CE0600006662782F354232314141
310
45462D414143322D343846332D424346452D3832314535314633343830382F636E782E786D6C504B01021400140006080800C270623B086A6785630500003C10000034000000000000000000000000006A0800006662782F35423231414145462D414143322D343846332D424346452D3832314535314633343830382F6F62
310
6A656374732E786D6C504B01021400140006080000C270623B00000000000000000000000035000000000000000000000000001F0E00006662782F35423231414145462D414143322D343846332D424346452D3832314535314633343830382F76657274696365732E62696E504B01021400140006080800C270623BF270F1
310
3306000000040000003600000000000000000000000000720E00006662782F35423231414145462D414143322D343846332D424346452D3832314535314633343830382F747269616E676C65732E62696E504B01021400140006080000C270623B0000000000000000000000003700000000000000000000000000CC0E0000
310
6662782F35423231414145462D414143322D343846332D424346452D3832314535314633343830382F617474726962757465732E62696E504B01021400140006080800C270623B08DA0BD190000000410100003600000000000000000000000000210F00006662782F35423231414145462D414143322D343846332D424346
310
452D3832314535314633343830382F6469726563746F72792E786D6C504B01021400140006080800C270623B7FFB76DCFC000000A00100003B00000000000000000000000000051000006662782F35423231414145462D414143322D343846332D424346452D3832314535314633343830382F7265736F75726365732F636F
310
72652E786D6C504B0506000000000E000E00800400005A1100000000
  0
XRECORD
  5
16C
102
{ACAD_REACTORS
330
16A
102
}
330
16A
100
AcDbXrecord
280
     1
270
     1
271
     1
  0
XRECORD
  5
16B
102
{ACAD_REACTORS
330
16A
102
}
330
16A
100
AcDbXrecord
280
     1
270
     1
271
     1
  0
XRECORD
  5
1F2
102
{ACAD_REACTORS
330
16A
102
}
330
16A
100
AcDbXrecord
280
     1
 70
     0
 90
1673772943
  1
AEB1D1DA-B7DF-4CBA-830A-738AA2653737
310
504B03040A0000080000C270623B3DEE336E79000000790000001B0000006175746F6465736B2D64657369676E2D7061636B6167652E786D6C3C3F786D6C2076657273696F6E3D22312E302220656E636F64696E673D227574662D3822203F3E3C666F726D6174733E3C666F726D61743E687474703A2F2F736368656D612E
310
6175746F6465736B2E636F6D2F64657369676E2D7061636B6167652F323030393C2F666F726D61743E3C2F666F726D6174733E504B0304140006080800C270623BD486FD9CA0000000F4000000130000005B436F6E74656E745F54797065735D2E786D6C7D8EC10E82300C865F65E91D8A1E8C310C0EEA1BF002731658846E
310
D98AC1B77784ABF1D8FE5FBFBF75BBCE937A534CCEB38643598122B6FEE978D0B0485F9C41B54DDD7D022595594E1A469170414C76A4D9A4D207E29CF43ECE46F218070CC6BECC4078ACAA135ACF422C856C0E68EA1BF5669944DDD7BCDE7B1F8E415D77AECB980613C2E4AC91FC167A2B244592486606FC29C8FD7F045B9A
310
EF7053A7E60B504B0304140006080800C270623BC5983BD0EB0000007C01000008000000636F72652E786D6C8D904D6EC3201085AF82665B6103F1BF3091AB2427E80510262E4A0C9681AAC72F4E1CA9DD7535A337EF9B193D7EFC9EEFE84BAFDE38DB03CD08206D951B8D9D7A88E18A1B4047C157E7C22F1B202B67DDC326
310
83E0D3EAE2B24BCAD9A06D48AA75A3DE45E9BD0E80D43D353D78F5A96799C91892C3DFB245AA9B9C74465F5D826334237A1E3163DA67AE46AF20CABAA887E1FD82D9401A5C9CCA136ED8E58CEBF650B2BAA8CE557BE6F9060B1ECCFCBAAF562D831E4130425A4C2926EC83161DA93A52BC91A62384E79BFD0F1497F19F5034
310
361CD8FEEE13F320687AE431103CDFB248E51154AA5B6EE207504B0304140006080800C270623B55019EA25F0000007C00000007000000636E782E786D6C4DCB3B0E80201045D1AD90E915ED2CF8AC45050C11660C8261F98AB1B07AC9C97D42D718D865D3E909258CFD00CCE24AC6E326A164D74DC0B4128928FF32603847
310
2BA13128B1252AC747C6BAB984FC68F0B87FE8960A5C09FE86CFB69FBA01504B0304140006080800C270623BEE35DAD072010000D40300000C0000006662782F636F72652E786D6CC553ED6E8230147D95A67F1768411435A5C6457D82BD4085CA1AA125A5253EFE2E1FC6B938E37E8D1FD09C736FEF39A7946D2E75853A69
310
5B657486A3906224756E0AA5CB0C7B770A96186D38B3C6B86F65186951CB0CF730E6ACB4C63713941BEDA476806A53C809146D2B1D4679058B0CB7F9A7AC4528BC838AF61C36223F8B5286510834D471D63A0B02D038A47F637E3A5E181971CEBC57C5C4AA02A6A9939216F3799AA4DBEDFB2188B7741924BBF92E58C6877D
310
90AE66F3384D16FBC56ACF48DFCC9953F5555D6EA570B2C03CA67415445140E38F2859D3C59A266F74B9A69491BEFCAEC937C58B4D5E69378B27B9635B8B79044206E2875B88C8A15674A0877046FA10E133247C1F340402213B71ACAE3ECE00753277C626C014C6DFA84E545EC2541AD2E141BF2F18193B61EAB039B87E38
310
237E79C6F31DE1A8852EC18470B03C7AD7EB64A38629B446DAA07317A48DAD45F59A8D270EFF44DDC43F94949BCAD8FF5244A60322D3EF41FAFBC8BF00504B0304140006080800C270623BD65DADFA7E0000009D0000000B0000006662782F636E782E786D6C4DCCD10A83201886E15B91FFDC651665A0C64C771FB12C62A6
310
C3E9D8E5AF46073BFAE0E1E3E5FD6773E86DE36B0D5E40792180ACBF8769F58B809C66CC00F592C710D2DF0D901F372BE060907C89213F4F9AEC3C66977675AB7F9C488DBA1A4309AE06D6E25ADD4ADCB5BAC2A4D1BAA135EBD440A190BCF895F63DC2F20B504B0304140006080800C270623B16D345222A01000012020000
310
310000006662782F32454241454532302D334338372D344246312D393744332D3036444436323438394243322F636F72652E786D6C8D515B6EC32010BC0AE2AB55850DC4719C0813358F9EA01720405294182C1E558E5FA81DA9FDCB0F8B66676607966DEFC30D7C6B1F8CB33D241586405BE994B1971EA678461D045BCEBC
310
73F10F0D022B06DDC30243CE2EDEA57186A4B351DB9851EB949E4111828E10C85BBEF430C82F3D884AA49819E15A8D425EC54557A4CAEDCCE32C449F038069483921A7C7DDFBF148315AECBB156A761F04AD578705C2EDE1D0D2A65BEFF694D59390B3948C9AE546E538E66CB47FD6A488398B6678C4975E8BA855D663BC46
310
84204C3F49B3C1ED06376FB8DB60CCEA42FF274AA37A52948C8D0B3AC79D640172C2EAA9C19972E9747B84D1F7D1F908CABC97A0E52BE4B8C2784968CBEA89989F9F1DDB66760CD1F9FCBD2FD753E692E564DB369CD56543B9FCAE2FD7B24DFE03504B0304140006080800C270623BAB1CAE584E0100003303000030000000
310
6662782F32454241454532302D334338372D344246312D393744332D3036444436323438394243322F636E782E786D6CD593CD6EC32010845F0571AD6CE3D48AD20813A9873E410FBD12D82434182C7EAAE6EDBB2424CD25871E7B41D6EC30B3FA84F9E67BB2E40B4234DE8DB46F1925E094D7C6ED479AD3AE5951B2113C78
310
9FEE6C943839C1488B4C05DF079FE72A69D8C96C13AAD6B8631503449F83828872B949AC57D26200B826A308D316B4064D6E46FCDA41C05550DC9E483A00797BFD207EFB092A45DE9514C1BBD22178396BD39D891265658C238DEA00936C654E5E433CB65A26D9F6EDB5EBC14EBF49A45CB856E66048291F6939A9A81BB5C8
310
917738143CA680F4AA299D66A042CEB3354A2684DC9D8D178FE0D9B8B41CAAD720F880EE7EF93C0C18769E099ECC04D5A102C8049A8A05632F4DDF376CF1DE0F6BB65CB3E189ADD68CF1AED805DF7A6FEB258C81E067A2BC4BE012153DEFCAF811BEEA23DA0464EDC3E90F2011406DBDD0B965FC673EDDF97D23AE807F81F8
310
01504B0304140006080800C270623B849BF81A650500003B100000340000006662782F32454241454532302D334338372D344246312D393744332D3036444436323438394243322F6F626A656374732E786D6CAD575B739B3814FE2B0CFB0C98D869921D42C797A6E3E9A4CDD4D3CE3E64C62340266C406224913AFBEBF713
310
080CD869BD173F18248ECEF53B1705EFF7456EBD502133CE6E6DDF9DD81665314F3296DEDA95DA39D7B6F53E0C04E7AA47665B8C14F4D6D6DB7618A48257A5D94AE88E54B91AEDDE2DFEB0644C19B5AD382752DEDA327EA2057149A57842E5B39B1045DC74B7777DB7211CB24D05299F464C4B222853D014FB0C5CAC46297F
310
B89CD85E1878FA7B18E87F43357D9BCAABED19CACF985484C547C2466CA6FE6CF5E1E2F2C6B99CCDA6CEECDD85EF2CEE162BC7BF9A4E96EF96CB9BF9871B08964A8093D144D09D1D7E846F4416075EF3A9D3D8287E4AA5983346E3DA7E5858EB6C3826B4A42C411C332A21AD67F564B8F4B56F7A9FA77A6D44F6B7CFB3AA7F
310
A2C7A8D5BD7DF635E5D19F30419E830A21A94655E31F636883BFC9C16B11E7B9F99649AB208A8A8CE4569E458288573B04A9260983011B8D4EA111AE2DB043FFC0AFAF2B52E3D7D83DA5E5AECA730D4D3BAC91BD05FEA992B566D95F549C96069D10AB2A63EADA18A45E4B6A873781576F86817E4C2FCCC7C691D62E272942
310
0E339BAF2343973AF7D62B3BFC7417ED373A1F4F0B2F052FA9501A3E80561BB8F6A9BD64C4FA67454E1F8031039F1F9CF2159EFF8CF43DA882B8896C3FDBCF8C142508933B2E0AC4C69DD43F6BD2BE38DDDBF10BEAD988FA98A6DBF957C481D7293B2C186FC50FE0D2A1B9FEEFF11BFAAC8FD45EF8C2E00509C6C5D4B87213
310
931CA5E73E63088806A595736CA196EFA2BD1DAE512951D9718AE461E790A397C07BC177FC37BC51AD6AF1BD27434047F5F68CCA0F5FD66901DDDE00CB519DAC051BE3DEF2F9E5FF9233F3D5E6D3A6123B12D37B5358567497B14CA1771EC0DB576810888145CFF4F50717090C3D0EC2A61F84C28892F0B6F6B9767CDA360B
310
BD38481E0888712EE5BAE605BF90709FC998E639619457AD94AE0D69AC7645C6CC09C8C2C6A1D38B118A057DC9F42431A018A8855E1F8BACD42EEB9A5E57A7DD376CF9B6FE0C50823EE711C90F44D1A1DAC73CE7621BBD6E9B4268037B383204F7F721BA8D433DCD0580AFA1DC561CE3E16D92ED769544D93DE1C4EFEB653F
310
505D1D397E69F3A795D8A4E40CC519A94784416F2B13F38020E8EB9C6D33747164E549E17DD96301B2E6FB06FFA82ACA2D2978C5D4396E9AB4F6B4DA77CCFB438CFC4154FC64879BFAE92C50B1139A1C42350081EE40276C1A8467FE61E1AFFCD5DC595CADEE9CD9723177AEA793B97335BD9ECF2FDE5D4EAFA6579D46B526
310
61D036A87E0AC29B6888412532E3E66FEB43D6DAE13D51D2FBD8E4939736CF6F6B175371E0E10CF0DD1D5C17654E0BCA14D1E8BDD72FF95782A162C0A3D95F1724A56770F9F27133D2013B679C7BD099467F8CCE9ADDA5CE85934CD45355448C64F9E8A031DC2D596ACC6E5DD93D9B82DE2EF5CAF81363A8E47996A0DE2456
310
4A794115AACE19C55E14540231FDA13C319787334EBF34E3A022514E5B4D9E0826E25C02D5805B15ABE1BEF51B26383D44DDDAE875EE33FE4C22DA16427D6BA3BCA92CA6D28DD01DF5DC53330704308475351050232CCD31583787BA75774AFB06E5070DD0C8EF48CE19968C5D83BA5B90B244D31E54D55A372320FE4786B7
310
EA5844E135AA5467CB61A333A61683CC6A8C3257034C10CF46F41EF9F573B37CB7A61978E4AC6BD24F41D070751411697D2DD0FA1995E6AB070F9380B5FE629579952296E773720405982B9DE04011506178964401AACBDF1F1F04C755B4B0EE3240E071C98B8233B3989BABACB579C2C534794459A0FAF6212F26BEFF580F
310
FDE61EB28D88A42E49E43336DA84D3168CB006401E755313024FC76044BE5E59A661CCC0B406EDD14CDADCC22D248FBE38EA54E917CBF2A773BF5793020C02137BF837504B0304140006080000C270623B000000000000000000000000350000006662782F32454241454532302D334338372D344246312D393744332D3036
310
444436323438394243322F76657274696365732E62696E504B0304140006080800C270623BF270F1330600000004000000360000006662782F32454241454532302D334338372D344246312D393744332D3036444436323438394243322F747269616E676C65732E62696E636660600000504B0304140006080000C270623B
310
000000000000000000000000370000006662782F32454241454532302D334338372D344246312D393744332D3036444436323438394243322F617474726962757465732E62696E504B0304140006080800C270623B08DA0BD19000000041010000360000006662782F32454241454532302D334338372D344246312D393744
310
332D3036444436323438394243322F6469726563746F72792E786D6C858F410AC3201045AF22B36F53E9A60B35CBEEBAE80D244E44489C6234F4F835464A48035D0DF398FF9F8AF63D0E6CC63039F212F8F9020C7D47C6792B21C5FE7403D62A1188E2E60C98D7234A5830286103A55745067B9D86B8A3CF9C7F90C11DE607
310
FB144396D7B6A82D282E9A152AD114D5EF2CB866EEE831B8EEA07A7BB5A8D7D61A2BAAEB7FD5F70921FF497D00504B0304140006080800C270623BAD7266E1FD000000A00100003B0000006662782F32454241454532302D334338372D344246312D393744332D3036444436323438394243322F7265736F75726365732F63
310
6F72652E786D6C8D50596E833010BD0A9ADFCA6008BB8C23AAD013F4029699502BC1465EAA1EBF26A152FBD79F99D15B344F8F9DBFD67BF289D629A307C8530A096A6966A5970182BF9216923367D618FF4B0689162B0EB0C3C0D9624DD80E481AED51FB886A33E3010AE7D04322EFF118C0C90F5C452A828F0A774B37216F
310
62C1344F231D759C396F6380E4F9649FC02D3A13AC44C7B227CB59086A3E346A8E3FD555A1055E3565338EAF132946DA92F2525D485BBC4DA4E94E55D194F5547713CB7633675EAD3F19A545E171065E50DA913C27B478CFCB9ED63D2D5F68DB53CAB25DFEC714B6F99FA6A0B43F1547DCA7CD01CF639007C159B6F715D7A3
310
CCB8F76EF937504B010214000A0000080000C270623B3DEE336E79000000790000001B00000000000000000000000000000000006175746F6465736B2D64657369676E2D7061636B6167652E786D6C504B01021400140006080800C270623BD486FD9CA0000000F40000001300000000000000000000000000B20000005B43
310
6F6E74656E745F54797065735D2E786D6C504B01021400140006080800C270623BC5983BD0EB0000007C010000080000000000000000000000000083010000636F72652E786D6C504B01021400140006080800C270623B55019EA25F0000007C000000070000000000000000000000000094020000636E782E786D6C504B01
310
021400140006080800C270623BEE35DAD072010000D40300000C00000000000000000000000000180300006662782F636F72652E786D6C504B01021400140006080800C270623BD65DADFA7E0000009D0000000B00000000000000000000000000B40400006662782F636E782E786D6C504B01021400140006080800C27062
310
3B16D345222A0100001202000031000000000000000000000000005B0500006662782F32454241454532302D334338372D344246312D393744332D3036444436323438394243322F636F72652E786D6C504B01021400140006080800C270623BAB1CAE584E010000330300003000000000000000000000000000D406000066
310
62782F32454241454532302D334338372D344246312D393744332D3036444436323438394243322F636E782E786D6C504B01021400140006080800C270623B849BF81A650500003B1000003400000000000000000000000000700800006662782F32454241454532302D334338372D344246312D393744332D303644443632
310
3438394243322F6F626A656374732E786D6C504B01021400140006080000C270623B0000000000000000000000003500000000000000000000000000270E00006662782F32454241454532302D334338372D344246312D393744332D3036444436323438394243322F76657274696365732E62696E504B0102140014000608
310
0800C270623BF270F133060000000400000036000000000000000000000000007A0E00006662782F32454241454532302D334338372D344246312D393744332D3036444436323438394243322F747269616E676C65732E62696E504B01021400140006080000C270623B000000000000000000000000370000000000000000
310
0000000000D40E00006662782F32454241454532302D334338372D344246312D393744332D3036444436323438394243322F617474726962757465732E62696E504B01021400140006080800C270623B08DA0BD190000000410100003600000000000000000000000000290F00006662782F32454241454532302D33433837
310
2D344246312D393744332D3036444436323438394243322F6469726563746F72792E786D6C504B01021400140006080800C270623BAD7266E1FD000000A00100003B000000000000000000000000000D1000006662782F32454241454532302D334338372D344246312D393744332D3036444436323438394243322F726573
310
6F75726365732F636F72652E786D6C504B0506000000000E000E0080040000631100000000
  0
XRECORD
  5
16D
102
{ACAD_REACTORS
330
16A
102
}
330
16A
100
AcDbXrecord
280
     1
270
     1
271
     1
  0
XRECORD
  5
16E
102
{ACAD_REACTORS
330
16A
102
}
330
16A
100
AcDbXrecord
280
     1
270
     1
271
     1
  0
XRECORD
  5
19A7
102
{ACAD_REACTORS
330
22B
102
}
330
22B
100
AcDbXrecord
280
     1
102
DISPLAYNAME
  1
Metric50
102
FLAGS
 90
        0
  0
CELLSTYLEMAP
  5
19A6
102
{ACAD_REACTORS
330
159
102
}
330
159
100
AcDbCellStyleMap
 90
        3
300
CELLSTYLE
  1
TABLEFORMAT_BEGIN
 90
        5
170
     1
 91
        0
 92
    32768
 62
   257
 93
        1
300
CONTENTFORMAT
  1
CONTENTFORMAT_BEGIN
 90
        0
 91
        0
 92
      512
 93
        0
300

 40
0.0
140
1.0
 94
        5
 62
     0
340
11
144
6.0
309
CONTENTFORMAT_END
171
     1
301
MARGIN
  1
CELLMARGIN_BEGIN
 40
1.5
 40
1.5
 40
1.5
 40
1.5
 40
4.5
 40
4.5
309
CELLMARGIN_END
 94
        6
 95
        1
302
GRIDFORMAT
  1
GRIDFORMAT_BEGIN
 90
        0
 91
        1
 62
     0
 92
       -2
340
14
 93
        0
 40
1.125
309
GRIDFORMAT_END
 95
        2
302
GRIDFORMAT
  1
GRIDFORMAT_BEGIN
 90
        0
 91
        1
 62
     0
 92
       -2
340
14
 93
        0
 40
1.125
309
GRIDFORMAT_END
 95
        4
302
GRIDFORMAT
  1
GRIDFORMAT_BEGIN
 90
        0
 91
        1
 62
     0
 92
       -2
340
14
 93
        0
 40
1.125
309
GRIDFORMAT_END
 95
        8
302
GRIDFORMAT
  1
GRIDFORMAT_BEGIN
 90
        0
 91
        1
 62
     0
 92
       -2
340
14
 93
        0
 40
1.125
309
GRIDFORMAT_END
 95
       16
302
GRIDFORMAT
  1
GRIDFORMAT_BEGIN
 90
        0
 91
        1
 62
     0
 92
       -2
340
14
 93
        0
 40
1.125
309
GRIDFORMAT_END
 95
       32
302
GRIDFORMAT
  1
GRIDFORMAT_BEGIN
 90
        0
 91
        1
 62
     0
 92
       -2
340
14
 93
        0
 40
1.125
309
GRIDFORMAT_END
309
TABLEFORMAT_END
  1
CELLSTYLE_BEGIN
 90
        1
 91
        1
300
_TITLE
309
CELLSTYLE_END
300
CELLSTYLE
  1
TABLEFORMAT_BEGIN
 90
        5
170
     1
 91
        0
 92
        0
 62
   257
 93
        1
300
CONTENTFORMAT
  1
CONTENTFORMAT_BEGIN
 90
        0
 91
        0
 92
      512
 93
        0
300

 40
0.0
140
1.0
 94
        5
 62
     0
340
11
144
4.5
309
CONTENTFORMAT_END
171
     1
301
MARGIN
  1
CELLMARGIN_BEGIN
 40
1.5
 40
1.5
 40
1.5
 40
1.5
 40
4.5
 40
4.5
309
CELLMARGIN_END
 94
        6
 95
        1
302
GRIDFORMAT
  1
GRIDFORMAT_BEGIN
 90
        0
 91
        1
 62
     0
 92
       -2
340
14
 93
        0
 40
1.125
309
GRIDFORMAT_END
 95
        2
302
GRIDFORMAT
  1
GRIDFORMAT_BEGIN
 90
        0
 91
        1
 62
     0
 92
       -2
340
14
 93
        0
 40
1.125
309
GRIDFORMAT_END
 95
        4
302
GRIDFORMAT
  1
GRIDFORMAT_BEGIN
 90
        0
 91
        1
 62
     0
 92
       -2
340
14
 93
        0
 40
1.125
309
GRIDFORMAT_END
 95
        8
302
GRIDFORMAT
  1
GRIDFORMAT_BEGIN
 90
        0
 91
        1
 62
     0
 92
       -2
340
14
 93
        0
 40
1.125
309
GRIDFORMAT_END
 95
       16
302
GRIDFORMAT
  1
GRIDFORMAT_BEGIN
 90
        0
 91
        1
 62
     0
 92
       -2
340
14
 93
        0
 40
1.125
309
GRIDFORMAT_END
 95
       32
302
GRIDFORMAT
  1
GRIDFORMAT_BEGIN
 90
        0
 91
        1
 62
     0
 92
       -2
340
14
 93
        0
 40
1.125
309
GRIDFORMAT_END
309
TABLEFORMAT_END
  1
CELLSTYLE_BEGIN
 90
        2
 91
        1
300
_HEADER
309
CELLSTYLE_END
300
CELLSTYLE
  1
TABLEFORMAT_BEGIN
 90
        5
170
     1
 91
        0
 92
        0
 62
   257
 93
        1
300
CONTENTFORMAT
  1
CONTENTFORMAT_BEGIN
 90
        0
 91
        0
 92
      512
 93
        0
300

 40
0.0
140
1.0
 94
        2
 62
     0
340
11
144
4.5
309
CONTENTFORMAT_END
171
     1
301
MARGIN
  1
CELLMARGIN_BEGIN
 40
1.5
 40
1.5
 40
1.5
 40
1.5
 40
4.5
 40
4.5
309
CELLMARGIN_END
 94
        6
 95
        1
302
GRIDFORMAT
  1
GRIDFORMAT_BEGIN
 90
        0
 91
        1
 62
     0
 92
       -2
340
14
 93
        0
 40
1.125
309
GRIDFORMAT_END
 95
        2
302
GRIDFORMAT
  1
GRIDFORMAT_BEGIN
 90
        0
 91
        1
 62
     0
 92
       -2
340
14
 93
        0
 40
1.125
309
GRIDFORMAT_END
 95
        4
302
GRIDFORMAT
  1
GRIDFORMAT_BEGIN
 90
        0
 91
        1
 62
     0
 92
       -2
340
14
 93
        0
 40
1.125
309
GRIDFORMAT_END
 95
        8
302
GRIDFORMAT
  1
GRIDFORMAT_BEGIN
 90
        0
 91
        1
 62
     0
 92
       -2
340
14
 93
        0
 40
1.125
309
GRIDFORMAT_END
 95
       16
302
GRIDFORMAT
  1
GRIDFORMAT_BEGIN
 90
        0
 91
        1
 62
     0
 92
       -2
340
14
 93
        0
 40
1.125
309
GRIDFORMAT_END
 95
       32
302
GRIDFORMAT
  1
GRIDFORMAT_BEGIN
 90
        0
 91
        1
 62
     0
 92
       -2
340
14
 93
        0
 40
1.125
309
GRIDFORMAT_END
309
TABLEFORMAT_END
  1
CELLSTYLE_BEGIN
 90
        3
 91
        2
300
_DATA
309
CELLSTYLE_END
  0
ENDSEC
  0
SECTION
  2
ACDSDATA
 70
     2
 71
     8
  0
ACDSSCHEMA
 90
        0
  1
AcDb_Thumbnail_Schema
  2
AcDbDs::ID
280
    10
 91
        8
  2
Thumbnail_Data
280
    15
 91
        0
101
ACDSRECORD
 95
        0
 90
        1
  2
AcDbDs::TreatedAsObjectData
280
     1
291
     1
101
ACDSRECORD
 95
        0
 90
        2
  2
AcDbDs::Legacy
280
     1
291
     1
101
ACDSRECORD
  1
AcDbDs::ID
 90
        3
  2
AcDs:Indexable
280
     1
291
     1
101
ACDSRECORD
  1
AcDbDs::ID
 90
        4
  2
AcDbDs::HandleAttribute
280
     7
282
     1
  0
ACDSSCHEMA
 90
        1
  1
AcDbDs::TreatedAsObjectDataSchema
  2
AcDbDs::TreatedAsObjectData
280
     1
 91
        0
  0
ACDSSCHEMA
 90
        2
  1
AcDbDs::LegacySchema
  2
AcDbDs::Legacy
280
     1
 91
        0
  0
ACDSSCHEMA
 90
        3
  1
AcDbDs::IndexedPropertySchema
  2
AcDs:Indexable
280
     1
 91
        0
  0
ACDSSCHEMA
 90
        4
  1
AcDbDs::HandleAttributeSchema
  2
AcDbDs::HandleAttribute
280
     7
 91
        1
284
     1
  0
ACDSRECORD
 90
        0
  2
AcDbDs::ID
280
    10
320
22
  2
Thumbnail_Data
280
    15
 94
     3270
310
89504E470D0A1A0A0000000D49484452000001340000010008030000000AB47A1600000300504C5445212830000000C8C8C80000000000000000000000000000000000000000000000000000330000660000990000CC0000FF0033000033330033660033990033CC0033FF0066000066330066660066990066CC0066FF0099
310
000099330099660099990099CC0099FF00CC0000CC3300CC6600CC9900CCCC00CCFF00FF0000FF3300FF6600FF9900FFCC00FFFF3300003300333300663300993300CC3300FF3333003333333333663333993333CC3333FF3366003366333366663366993366CC3366FF3399003399333399663399993399CC3399FF33CC00
310
33CC3333CC6633CC9933CCCC33CCFF33FF0033FF3333FF6633FF9933FFCC33FFFF6600006600336600666600996600CC6600FF6633006633336633666633996633CC6633FF6666006666336666666666996666CC6666FF6699006699336699666699996699CC6699FF66CC0066CC3366CC6666CC9966CCCC66CCFF66FF0066
310
FF3366FF6666FF9966FFCC66FFFF9900009900339900669900999900CC9900FF9933009933339933669933999933CC9933FF9966009966339966669966999966CC9966FF9999009999339999669999999999CC9999FF99CC0099CC3399CC6699CC9999CCCC99CCFF99FF0099FF3399FF6699FF9999FFCC99FFFFCC0000CC00
310
33CC0066CC0099CC00CCCC00FFCC3300CC3333CC3366CC3399CC33CCCC33FFCC6600CC6633CC6666CC6699CC66CCCC66FFCC9900CC9933CC9966CC9999CC99CCCC99FFCCCC00CCCC33CCCC66CCCC99CCCCCCCCCCFFCCFF00CCFF33CCFF66CCFF99CCFFCCCCFFFFFF0000FF0033FF0066FF0099FF00CCFF00FFFF3300FF3333
310
FF3366FF3399FF33CCFF33FFFF6600FF6633FF6666FF6699FF66CCFF66FFFF9900FF9933FF9966FF9999FF99CCFF99FFFFCC00FFCC33FFCC66FFCC99FFCCCCFFCCFFFFFF00FFFF33FFFF66FFFF99FFFFCCFFFFFF0000000D0D0D1A1A1A2828283535354343435050505D5D5D6B6B6B787878868686939393A1A1A1AEAEAEBB
310
BBBBC9C9C9D6D6D6E4E4E4F1F1F1FFFFFF000000000000000000000000000000000000000000000000000000000000B21171F6000006B34944415478DAED9D6D762A2B104519CE99FF787A1AF9FFDE8D4A574181604C04DDE7DEB54CE247EBF64015D534A454E848333A2E4F9092FEFDFAEFE6FB67A5DBEDEDAE8B74BBFFFB
310
7F72F73D45B7B7FFE5FEFA957E57CF8266FEE944F6AD7C9BA4CF8576F1CC3780028BF47C33BD8BD3D611D0800634A001EDC747DD5C3B3AADC830FE38E1D8AD796A1A9AD22F10DD125A48477908E099BD25B4FAC3AA0FED1C1DC5A00A6635348507CAAF737DF9C2DB8B412BDF56C5C140BBDDA3984248478DBF976DDC1A53F9
310
B9DA025AFD2EAF634F835275C715D8AE66E39177A139784A6B430B9C1404828ED1E401B92A47075AF5CDAD0DCD1AE4DA9BA8DFA7A50168AE5B2AF9A9D1A84B688A63C98AD1539A8A9E1133A930947437405847A6DDA06932E508920CA56E2B6CA66F2AA02A7EE8ABA1D9FCA1956FF5A1B503E9C3D0CAC8B91C34FF959E35D8
310
51689DE4630A9AAAC8BD0BB4F8A376A0155D95D220B446345198FB2A6D0DAD68BCEE93AB1555C7A0E51181AA0C7A77681421C340907A8100688FD7D38006B4D1A352EEC6694003DA3B42B3996A956636925BF7533054B559AA7BA8A914B9A73493D865F3349FDF8615FF0C4D0A073C0AC74371293648A377871617B04E68E5
310
685BD3D042D89A63B64AF3B44668566ED5AF66B40A6345716C7F68DE698A4FCB45D0AA1328ED6E4AD59751419A3C3DBA08345FC56A94BB55952562A71567AD4E68B942169D69DD079A6932B994AFB270D380D66B578AA0A9194036739A6F4CE643EA09D014478622F9B8F97B53688D19198F45CFCA6ECD94633F68452DB69F
310
729C69C4FD3C2D3CB514F5A293A17337A70523823840F844D98F089252708CADA1759DC6D8D33BAB3D94041A550EA0FD2D34CADD380D6840FB8494A3AEFB002DAC72D82A51BFDC0D340FAD37C9156825B4FA244167A232D01C23998134B386C69AA73DE9D12C7703CDC0B2FD59AFDC0D34EBB45C72EE97BB81E6A019A7511A
310
1A6E9EA41C732987BFB606A74D8F0870DA23634F9C469503682F8746B97B1BA71D4F7B1DA009689F0A4D7F09ED38741CF73AE0D5A0B9D42C2CA8C5D03405BE05EDB8AC3619623B7BFDF5A0D95B0D37CF3B4B8A6A14DAF5A047D75EEB431B1A46DD9985A73403AD63A63DA00D97BBD5FF6D0CDAF1DDA70547581D9AEBD3C607
310
ECEA776823D034AE059D5697877E044DE9ED9D965A2B9A3D0A4D33D173E33ECD746CEAAC9F3608ADB512DD5CF4DC095A6D94DFCDD38EFF1F7A1C4737A95D0D5AB01A877E1C08C6A1FDFBAB8E7E396659687EF12E4DF7697A1CDADDB1E772C3A862EF85BC8CE5AF9CF7A4CA413D0D680347A5DCBD8DD39EFDF68106B48F82D6
310
5A2A1B68772E9205DAF888A0FA0568A3D0A2AA1FD07AD084D3A6A189E6F9482050587605DADD4020A0018D94036840FBE8E899EAF5DE81469503687F098D72F76B9D76F7DECE7DC763EF116840FB0C68E77564C9DE02EDFE1B52778DE41168664F4997F90D40B353CBCD8CC275A1F955A8CF2B18E7A1E9B251978A61C598D3
310
147C7F7B384D3F71DAAD3A92574ED620B4DBA668CA4E4B3B382DBBEC6697B9C54C1A4E539A699EF5CE9EFB45CFC7FAB4BC80804E78D37D5A3E53B1BCD3CA2DB71EECD3AC6F87A1A971A9C60E7D5A677DE3C194E35C49469A689EEE027AB36ACFEA4E333DF10F9C56EE773C1808CCE1938DDD0B43731B2A8773BB87A3E70DDB
310
6C9EE676343E43D0FAD0EA1D511811DC83A62738ED83A05D9AC4B59188B127550EA0BD1E1AE5EED73AED05021AD0800634A0010D6840031AD0800634A0010D6840031AD08006B4778446B91BA7AD0DCD6F099D6FAB25175A5381F21DD5EEF6EE01E5418A551CB68156ED91D1F85C294F856C5133DB79E5D9930E9ADD7C7C6F
310
68C547B773263DCFDBC446A57261EB727712FB22B5B9EC2C89E2CCFF4ED0DCBC5295CD49CE3BDE696A5AC93CBFDAEEE5FA67DB0D6C082D6829E7BC329939C7C670451B5674A964D93C9399B365F6B5CACFDBD56995E35CD32D7BF4C6FA91B689C70F4DEFD4A7259999C9D5F2FCD53A324A95D5F28B24F33DA8B17E75B114D2
310
3ED07C8F9EAA753C94DCB5049D39BC3E3816C1F46C9F266298E36D06ADCAB50C34978BA8DA9056759766AC1A420BB3C21DA1D906D459CF23CFBD4D71F4541D3DC35C57E92DA0A57A659DD688A071D990DF75B59CB56A2FD472C77947A7D579DA99ADF974D6702E88D81430B7FD22ABDDB74FF31FA34CC192DD72BB9B3FC479
310
5A91A4D9B6BF659E469503684003DA1AD08E37D34B9CF626021AD0800634A0010D686B41FB7A53E1B4E7FA0E010D6840031AD048396613108410420821841042082184104208218410420821841042082184104208218410420821841042082184104208218410420821841042082184104208A14AFF0144CEDE7A4A135DA3
310
0000000049454E44AE4260822A58734F536B1A5586467A7DB67A7022EE2DD93CF7D7879B90D167BCB52595A1157604B7BC5FC09C51D8B2950B395A0C0D292FC73A94D715DF4B90E485B8BA9152794DAB1E729CC4A3CE1EF15E2AAE7AFDCC87C569479A5621AEB862D3E428472FD088AFE52F6B024D3FB38E7A04DCE7A6C63F
310
6562002D029AB2A9F5A0F1D939F65777116D06D1DC70A81A3822BE9FE4F230E4980782920683EE0D0DC97173173B5F80D6769023D67B1E6A6114B46BE36181758497A1512F4343F633FE2965BD07EDBAAA04A0E96059F50F8A35CFFD6E5428BD88C1F3DFA737473F8B3E019AD73C2FEC43A0DA32B78840AE41E30DB4F07DA6
310
D8346FB8E47CE3C016562C0D1AEF6BDA2F49D354D87FE25177A06D1A6BE1F1A0A8510E3EB3699464D3889A05F4B587861CB45CC1EDF39075306B280EDA8EF9A7BA1DD187BD8DDA8DD3A8B623783E3497E098A9A2F714EF979EF4B23810E52994258786C8BDD07CD71BF6C29A2626FF3C0A1A35A026A03DA679921E0C09EC96
310
2576D22AED089E010D71DA43A11D871CE2F8B773C51735EDB81B2556AF84CF021AA0011AA03D0A1A1C01428E2F8E72001AA0011AA0011AA0011AE234681A342D0E1A8BD7536A4D31919BA7BF1CDBD1E7E9DACF678011934A99E454CDD0CB33B27DF76F6B1AD166AD33BB8D80486C6E29DFD1029ACB4C40FEFA2392EFB4EDCA
310
928F3B02F102ECE2CBB0A8E6F9837C2FE4C82C80560CDA0851024DBBA36E90CCD0D02077DA2804028140201008040281402010080402814020EF963F294604A98DA3964E0000000049454E44AE42608240D2C46D12811D11498041F220691E9A9434CAEE7888BA2874DA4CEE3E23953C3D4494C9A6FF4D810A34A47E9783DE
310
27691B0DE8766E09D000ED3268480D29814690B40E7953909FDE54BA3290B4A6CF01B45E6648DD0992064983A4C110001AA0011AA0011AA0011AA0011AA0011AA0011AA0011AA00D85F6071FF2081925625F020000000049454E44AE426082
  0
ACDSRECORD
 90
        0
  2
AcDbDs::ID
280
    10
320
D3
  2
Thumbnail_Data
280
    15
 94
     1155
310
89504E470D0A1A0A0000000D4948445200000100000000B5080300000087DCD12600000300504C5445FFFFFF000000C8C8C80000000000000000000000000000000000000000000000000000330000660000990000CC0000FF0033000033330033660033990033CC0033FF0066000066330066660066990066CC0066FF0099
310
000099330099660099990099CC0099FF00CC0000CC3300CC6600CC9900CCCC00CCFF00FF0000FF3300FF6600FF9900FFCC00FFFF3300003300333300663300993300CC3300FF3333003333333333663333993333CC3333FF3366003366333366663366993366CC3366FF3399003399333399663399993399CC3399FF33CC00
310
33CC3333CC6633CC9933CCCC33CCFF33FF0033FF3333FF6633FF9933FFCC33FFFF6600006600336600666600996600CC6600FF6633006633336633666633996633CC6633FF6666006666336666666666996666CC6666FF6699006699336699666699996699CC6699FF66CC0066CC3366CC6666CC9966CCCC66CCFF66FF0066
310
FF3366FF6666FF9966FFCC66FFFF9900009900339900669900999900CC9900FF9933009933339933669933999933CC9933FF9966009966339966669966999966CC9966FF9999009999339999669999999999CC9999FF99CC0099CC3399CC6699CC9999CCCC99CCFF99FF0099FF3399FF6699FF9999FFCC99FFFFCC0000CC00
310
33CC0066CC0099CC00CCCC00FFCC3300CC3333CC3366CC3399CC33CCCC33FFCC6600CC6633CC6666CC6699CC66CCCC66FFCC9900CC9933CC9966CC9999CC99CCCC99FFCCCC00CCCC33CCCC66CCCC99CCCCCCCCCCFFCCFF00CCFF33CCFF66CCFF99CCFFCCCCFFFFFF0000FF0033FF0066FF0099FF00CCFF00FFFF3300FF3333
310
FF3366FF3399FF33CCFF33FFFF6600FF6633FF6666FF6699FF66CCFF66FFFF9900FF9933FF9966FF9999FF99CCFF99FFFFCC00FFCC33FFCC66FFCC99FFCCCCFFCCFFFFFF00FFFF33FFFF66FFFF99FFFFCCFFFFFF0000000D0D0D1A1A1A2828283535354343435050505D5D5D6B6B6B787878868686939393A1A1A1AEAEAEBB
310
BBBBC9C9C9D6D6D6E4E4E4F1F1F1FFFFFF000000000000000000000000000000000000000000000000000000000000B0E2D2350000013E4944415478DAEDDDB11184301443C1DF7F998A5D0483134A30A07540018FB1F6A26356F99935D547801D20C97EB43D9F009D6F3FAE8000AE8000020860040570050410800214A080
310
0D1040000A508002364000012840010AD8000104A000052860030410800214A0800D1040000A508002364000012840010AD8000104A000052860030410800214A0800D104080BF2A9093E70D0AE4F05B39AE404B80082080004650005740000104A000056C80000250800214B001020840010A50C006082000052840011B20
310
800014A000056C80000250800214B001020840010A50C006082000052840011B20800014A000056C80000250800214B001020840010A50C006082000052840011B20800014A000056C80000250800214B0015F0F50F2EFF2BE2F303EB222802B208000021841016C407D80FD1BBCEF690304B803949F0B2119936F10150AC9
310
0000000049454E44AE426082
  0
ENDSEC
  0
EOF
