  0
SECTION
  2
HEADER
  9
$ACADVER
  1
AC1027
  9
$ACADMAINTVER
 70
   106
  9
$DWGCODEPAGE
  3
ANSI_932
  9
$LASTSAVEDBY
  1
takamura205
  9
$REQUIREDVERSIONS
160
                 0
  9
$INSBASE
 10
0.0
 20
0.0
 30
0.0
  9
$EXTMIN
 10
33316.24093491148
 20
26699.16216210576
 30
0.0
  9
$EXTMAX
 10
34996.24093491148
 20
29477.23237812787
 30
0.0
  9
$LIMMIN
 10
0.0
 20
0.0
  9
$LIMMAX
 10
420.0
 20
297.0
  9
$ORTHOMODE
 70
     0
  9
$REGENMODE
 70
     1
  9
$FILLMODE
 70
     1
  9
$QTEXTMODE
 70
     0
  9
$MIRRTEXT
 70
     0
  9
$LTSCALE
 40
1.0
  9
$ATTMODE
 70
     1
  9
$TEXTSIZE
 40
2.5
  9
$TRACEWID
 40
1.0
  9
$TEXTSTYLE
  7
Standard
  9
$CLAYER
  8
寸法線
  9
$CELTYPE
  6
ByLayer
  9
$CECOLOR
 62
   256
  9
$CELTSCALE
 40
1.0
  9
$DISPSILH
 70
     0
  9
$DIMSCALE
 40
1.0
  9
$DIMASZ
 40
2.5
  9
$DIMEXO
 40
0.625
  9
$DIMDLI
 40
3.75
  9
$DIMRND
 40
0.0
  9
$DIMDLE
 40
0.0
  9
$DIMEXE
 40
1.25
  9
$DIMTP
 40
0.0
  9
$DIMTM
 40
0.0
  9
$DIMTXT
 40
20.0
  9
$DIMCEN
 40
2.5
  9
$DIMTSZ
 40
0.0
  9
$DIMTOL
 70
     0
  9
$DIMLIM
 70
     0
  9
$DIMTIH
 70
     0
  9
$DIMTOH
 70
     0
  9
$DIMSE1
 70
     0
  9
$DIMSE2
 70
     0
  9
$DIMTAD
 70
     1
  9
$DIMZIN
 70
     8
  9
$DIMBLK
  1

  9
$DIMASO
 70
     1
  9
$DIMSHO
 70
     1
  9
$DIMPOST
  1

  9
$DIMAPOST
  1

  9
$DIMALT
 70
     0
  9
$DIMALTD
 70
     3
  9
$DIMALTF
 40
0.03937007874016
  9
$DIMLFAC
 40
1.0
  9
$DIMTOFL
 70
     1
  9
$DIMTVP
 40
0.0
  9
$DIMTIX
 70
     0
  9
$DIMSOXD
 70
     0
  9
$DIMSAH
 70
     0
  9
$DIMBLK1
  1

  9
$DIMBLK2
  1

  9
$DIMSTYLE
  2
ISO-25
  9
$DIMCLRD
 70
     0
  9
$DIMCLRE
 70
     0
  9
$DIMCLRT
 70
     0
  9
$DIMTFAC
 40
1.0
  9
$DIMGAP
 40
0.625
  9
$DIMJUST
 70
     0
  9
$DIMSD1
 70
     0
  9
$DIMSD2
 70
     0
  9
$DIMTOLJ
 70
     0
  9
$DIMTZIN
 70
     8
  9
$DIMALTZ
 70
     0
  9
$DIMALTTZ
 70
     0
  9
$DIMUPT
 70
     0
  9
$DIMDEC
 70
     2
  9
$DIMTDEC
 70
     2
  9
$DIMALTU
 70
     2
  9
$DIMALTTD
 70
     3
  9
$DIMTXSTY
  7
Standard
  9
$DIMAUNIT
 70
     0
  9
$DIMADEC
 70
     0
  9
$DIMALTRND
 40
0.0
  9
$DIMAZIN
 70
     0
  9
$DIMDSEP
 70
    44
  9
$DIMATFIT
 70
     3
  9
$DIMFRAC
 70
     0
  9
$DIMLDRBLK
  1

  9
$DIMLUNIT
 70
     2
  9
$DIMLWD
 70
    -2
  9
$DIMLWE
 70
    -2
  9
$DIMTMOVE
 70
     0
  9
$DIMFXL
 40
1.0
  9
$DIMFXLON
 70
     0
  9
$DIMJOGANG
 40
0.7853981633974483
  9
$DIMTFILL
 70
     0
  9
$DIMTFILLCLR
 70
     0
  9
$DIMARCSYM
 70
     0
  9
$DIMLTYPE
  6

  9
$DIMLTEX1
  6

  9
$DIMLTEX2
  6

  9
$DIMTXTDIRECTION
 70
     0
  9
$LUNITS
 70
     2
  9
$LUPREC
 70
     4
  9
$SKETCHINC
 40
1.0
  9
$FILLETRAD
 40
1.0
  9
$AUNITS
 70
     0
  9
$AUPREC
 70
     0
  9
$MENU
  1
.
  9
$ELEVATION
 40
0.0
  9
$PELEVATION
 40
0.0
  9
$THICKNESS
 40
0.0
  9
$LIMCHECK
 70
     0
  9
$CHAMFERA
 40
0.0
  9
$CHAMFERB
 40
0.0
  9
$CHAMFERC
 40
0.0
  9
$CHAMFERD
 40
0.0
  9
$SKPOLY
 70
     0
  9
$TDCREATE
 40
2457175.672123785
  9
$TDUCREATE
 40
2457175.297123785
  9
$TDUPDATE
 40
2457871.478538148
  9
$TDUUPDATE
 40
2457871.103538148
  9
$TDINDWG
 40
0.9433676852
  9
$TDUSRTIMER
 40
0.9433675810
  9
$USRTIMER
 70
     1
  9
$ANGBASE
 50
0.0
  9
$ANGDIR
 70
     0
  9
$PDMODE
 70
     0
  9
$PDSIZE
 40
0.0
  9
$PLINEWID
 40
0.0
  9
$SPLFRAME
 70
     0
  9
$SPLINETYPE
 70
     6
  9
$SPLINESEGS
 70
     8
  9
$HANDSEED
  5
1EF2
  9
$SURFTAB1
 70
     6
  9
$SURFTAB2
 70
     6
  9
$SURFTYPE
 70
     6
  9
$SURFU
 70
     6
  9
$SURFV
 70
     6
  9
$UCSBASE
  2

  9
$UCSNAME
  2

  9
$UCSORG
 10
0.0
 20
0.0
 30
0.0
  9
$UCSXDIR
 10
1.0
 20
0.0
 30
0.0
  9
$UCSYDIR
 10
0.0
 20
1.0
 30
0.0
  9
$UCSORTHOREF
  2

  9
$UCSORTHOVIEW
 70
     0
  9
$UCSORGTOP
 10
0.0
 20
0.0
 30
0.0
  9
$UCSORGBOTTOM
 10
0.0
 20
0.0
 30
0.0
  9
$UCSORGLEFT
 10
0.0
 20
0.0
 30
0.0
  9
$UCSORGRIGHT
 10
0.0
 20
0.0
 30
0.0
  9
$UCSORGFRONT
 10
0.0
 20
0.0
 30
0.0
  9
$UCSORGBACK
 10
0.0
 20
0.0
 30
0.0
  9
$PUCSBASE
  2

  9
$PUCSNAME
  2

  9
$PUCSORG
 10
0.0
 20
0.0
 30
0.0
  9
$PUCSXDIR
 10
1.0
 20
0.0
 30
0.0
  9
$PUCSYDIR
 10
0.0
 20
1.0
 30
0.0
  9
$PUCSORTHOREF
  2

  9
$PUCSORTHOVIEW
 70
     0
  9
$PUCSORGTOP
 10
0.0
 20
0.0
 30
0.0
  9
$PUCSORGBOTTOM
 10
0.0
 20
0.0
 30
0.0
  9
$PUCSORGLEFT
 10
0.0
 20
0.0
 30
0.0
  9
$PUCSORGRIGHT
 10
0.0
 20
0.0
 30
0.0
  9
$PUCSORGFRONT
 10
0.0
 20
0.0
 30
0.0
  9
$PUCSORGBACK
 10
0.0
 20
0.0
 30
0.0
  9
$USERI1
 70
     0
  9
$USERI2
 70
     0
  9
$USERI3
 70
     0
  9
$USERI4
 70
     0
  9
$USERI5
 70
     0
  9
$USERR1
 40
0.0
  9
$USERR2
 40
0.0
  9
$USERR3
 40
0.0
  9
$USERR4
 40
0.0
  9
$USERR5
 40
0.0
  9
$WORLDVIEW
 70
     1
  9
$SHADEDGE
 70
     3
  9
$SHADEDIF
 70
    70
  9
$TILEMODE
 70
     1
  9
$MAXACTVP
 70
    64
  9
$PINSBASE
 10
0.0
 20
0.0
 30
0.0
  9
$PLIMCHECK
 70
     0
  9
$PEXTMIN
 10
25.69999999999999
 20
19.5
 30
0.0
  9
$PEXTMAX
 10
231.3
 20
175.5
 30
0.0
  9
$PLIMMIN
 10
-4.9847412109375
 20
-4.984749794006347
  9
$PLIMMAX
 10
415.0042419433593
 20
292.0259008407593
  9
$UNITMODE
 70
     0
  9
$VISRETAIN
 70
     1
  9
$PLINEGEN
 70
     0
  9
$PSLTSCALE
 70
     1
  9
$TREEDEPTH
 70
  3020
  9
$CMLSTYLE
  2
Standard
  9
$CMLJUST
 70
     0
  9
$CMLSCALE
 40
20.0
  9
$PROXYGRAPHICS
 70
     1
  9
$MEASUREMENT
 70
     1
  9
$CELWEIGHT
370
    -1
  9
$ENDCAPS
280
     0
  9
$JOINSTYLE
280
     0
  9
$LWDISPLAY
290
     0
  9
$INSUNITS
 70
     4
  9
$HYPERLINKBASE
  1

  9
$STYLESHEET
  1
monochrome.stb
  9
$XEDIT
290
     1
  9
$CEPSNTYPE
380
     0
  9
$PSTYLEMODE
290
     0
  9
$FINGERPRINTGUID
  2
{083708C7-F509-4151-B42C-06F3721D7F80}
  9
$VERSIONGUID
  2
{15FDEFDC-8D6C-4973-973E-BB8DF7A6364F}
  9
$EXTNAMES
290
     1
  9
$PSVPSCALE
 40
0.0
  9
$OLESTARTUP
290
     0
  9
$SORTENTS
280
   127
  9
$INDEXCTL
280
     0
  9
$HIDETEXT
280
     1
  9
$XCLIPFRAME
280
     2
  9
$HALOGAP
280
     0
  9
$OBSCOLOR
 70
   257
  9
$OBSLTYPE
280
     0
  9
$INTERSECTIONDISPLAY
280
     0
  9
$INTERSECTIONCOLOR
 70
   257
  9
$DIMASSOC
280
     2
  9
$PROJECTNAME
  1

  9
$CAMERADISPLAY
290
     0
  9
$LENSLENGTH
 40
50.0
  9
$CAMERAHEIGHT
 40
1524.0
  9
$STEPSPERSEC
 40
2.0
  9
$STEPSIZE
 40
6.0
  9
$3DDWFPREC
 40
2.0
  9
$PSOLWIDTH
 40
5.0
  9
$PSOLHEIGHT
 40
80.0
  9
$LOFTANG1
 40
1.570796326794896
  9
$LOFTANG2
 40
1.570796326794896
  9
$LOFTMAG1
 40
0.0
  9
$LOFTMAG2
 40
0.0
  9
$LOFTPARAM
 70
     7
  9
$LOFTNORMALS
280
     1
  9
$LATITUDE
 40
37.795
  9
$LONGITUDE
 40
-122.394
  9
$NORTHDIRECTION
 40
0.0
  9
$TIMEZONE
 70
 -8000
  9
$LIGHTGLYPHDISPLAY
280
     1
  9
$TILEMODELIGHTSYNCH
280
     1
  9
$CMATERIAL
347
E3
  9
$SOLIDHIST
280
     0
  9
$SHOWHIST
280
     1
  9
$DWFFRAME
280
     2
  9
$DGNFRAME
280
     0
  9
$REALWORLDSCALE
290
     1
  9
$INTERFERECOLOR
 62
     1
  9
$INTERFEREOBJVS
345
F0
  9
$INTERFEREVPVS
346
ED
  9
$CSHADOW
280
     0
  9
$SHADOWPLANELOCATION
 40
0.0
  0
ENDSEC
  0
SECTION
  2
CLASSES
  0
CLASS
  1
ACDBDICTIONARYWDFLT
  2
AcDbDictionaryWithDefault
  3
ObjectDBX Classes
 90
        0
 91
        1
280
     0
281
     0
  0
CLASS
  1
DICTIONARYVAR
  2
AcDbDictionaryVar
  3
ObjectDBX Classes
 90
        0
 91
       10
280
     0
281
     0
  0
CLASS
  1
TABLESTYLE
  2
AcDbTableStyle
  3
ObjectDBX Classes
 90
     4095
 91
        1
280
     0
281
     0
  0
CLASS
  1
MATERIAL
  2
AcDbMaterial
  3
ObjectDBX Classes
 90
     1153
 91
        3
280
     0
281
     0
  0
CLASS
  1
VISUALSTYLE
  2
AcDbVisualStyle
  3
ObjectDBX Classes
 90
     4095
 91
       24
280
     0
281
     0
  0
CLASS
  1
SCALE
  2
AcDbScale
  3
ObjectDBX Classes
 90
     1153
 91
       17
280
     0
281
     0
  0
CLASS
  1
MLEADERSTYLE
  2
AcDbMLeaderStyle
  3
ACDB_MLEADERSTYLE_CLASS
 90
     4095
 91
        2
280
     0
281
     0
  0
CLASS
  1
CELLSTYLEMAP
  2
AcDbCellStyleMap
  3
ObjectDBX Classes
 90
     1152
 91
        1
280
     0
281
     0
  0
CLASS
  1
EXACXREFPANELOBJECT
  2
ExAcXREFPanelObject
  3
EXAC_ESW
 90
     1025
 91
        0
280
     0
281
     0
  0
CLASS
  1
NPOCOLLECTION
  2
AcDbImpNonPersistentObjectsCollection
  3
ObjectDBX Classes
 90
     1153
 91
        0
280
     0
281
     0
  0
CLASS
  1
LAYER_INDEX
  2
AcDbLayerIndex
  3
ObjectDBX Classes
 90
        0
 91
        0
280
     0
281
     0
  0
CLASS
  1
SPATIAL_INDEX
  2
AcDbSpatialIndex
  3
ObjectDBX Classes
 90
        0
 91
        0
280
     0
281
     0
  0
CLASS
  1
IDBUFFER
  2
AcDbIdBuffer
  3
ObjectDBX Classes
 90
        0
 91
        0
280
     0
281
     0
  0
CLASS
  1
ACDBSECTIONVIEWSTYLE
  2
AcDbSectionViewStyle
  3
ObjectDBX Classes
 90
     1025
 91
        1
280
     0
281
     0
  0
CLASS
  1
ACDBDETAILVIEWSTYLE
  2
AcDbDetailViewStyle
  3
ObjectDBX Classes
 90
     1025
 91
        1
280
     0
281
     0
  0
CLASS
  1
DIMASSOC
  2
AcDbDimAssoc
  3
"AcDbDimAssoc|Product Desc:     AcDim ARX App For Dimension|Company:          Autodesk, Inc.|WEB Address:      www.autodesk.com"
 90
        0
 91
        9
280
     0
281
     0
  0
CLASS
  1
SORTENTSTABLE
  2
AcDbSortentsTable
  3
ObjectDBX Classes
 90
        0
 91
        1
280
     0
281
     0
  0
CLASS
  1
PLOTSETTINGS
  2
AcDbPlotSettings
  3
ObjectDBX Classes
 90
        0
 91
        1
280
     0
281
     0
  0
ENDSEC
  0
SECTION
  2
TABLES
  0
TABLE
  2
VPORT
  5
8
330
0
100
AcDbSymbolTable
 70
     1
  0
VPORT
  5
E1
330
8
100
AcDbSymbolTableRecord
100
AcDbViewportTableRecord
  2
*Active
 70
     0
 10
0.0
 20
0.0
 11
1.0
 21
1.0
 12
34459.92096798291
 22
29130.34328710844
 13
0.0
 23
0.0
 14
10.0
 24
10.0
 15
10.0
 25
10.0
 16
0.0
 26
0.0
 36
1.0
 17
0.0
 27
0.0
 37
0.0
 40
4307.581915799723
 41
1.203585147247119
 42
50.0
 43
0.0
 44
0.0
 50
0.0
 51
0.0
 71
     0
 72
  1000
 73
     1
 74
     3
 75
     0
 76
     1
 77
     0
 78
     0
281
     0
 65
     1
110
0.0
120
0.0
130
0.0
111
1.0
121
0.0
131
0.0
112
0.0
122
1.0
132
0.0
 79
     0
146
0.0
348
EC
 60
     3
 61
     5
292
     1
282
     1
141
0.0
142
0.0
 63
   250
421
  3355443
1001
ACAD_NAV_VCDISPLAY
1070
     3
  0
ENDTAB
  0
TABLE
  2
LTYPE
  5
5
330
0
100
AcDbSymbolTable
 70
     4
  0
LTYPE
  5
14
330
5
100
AcDbSymbolTableRecord
100
AcDbLinetypeTableRecord
  2
ByBlock
 70
     0
  3

 72
    65
 73
     0
 40
0.0
  0
LTYPE
  5
15
330
5
100
AcDbSymbolTableRecord
100
AcDbLinetypeTableRecord
  2
ByLayer
 70
     0
  3

 72
    65
 73
     0
 40
0.0
  0
LTYPE
  5
16
330
5
100
AcDbSymbolTableRecord
100
AcDbLinetypeTableRecord
  2
Continuous
 70
     0
  3
Solid line
 72
    65
 73
     0
 40
0.0
  0
LTYPE
  5
25A
330
5
100
AcDbSymbolTableRecord
100
AcDbLinetypeTableRecord
  2
ACAD_ISO04W100
 70
     0
  3
ISO long-dash dot ____ . ____ . ____ . ____ . _
 72
    65
 73
     4
 40
30.0
 49
24.0
 74
     0
 49
-3.0
 74
     0
 49
0.0
 74
     0
 49
-3.0
 74
     0
  0
LTYPE
  5
25E
330
5
100
AcDbSymbolTableRecord
100
AcDbLinetypeTableRecord
  2
ACAD_ISO02W100
 70
     0
  3
ISO dash __ __ __ __ __ __ __ __ __ __ __ __ __
 72
    65
 73
     2
 40
15.0
 49
12.0
 74
     0
 49
-3.0
 74
     0
  0
LTYPE
  5
260
330
5
100
AcDbSymbolTableRecord
100
AcDbLinetypeTableRecord
  2
ACAD_ISO07W100
 70
     0
  3
ISO dot . . . . . . . . . . . . . . . . . . . .
 72
    65
 73
     2
 40
3.0
 49
0.0
 74
     0
 49
-3.0
 74
     0
  0
ENDTAB
  0
TABLE
  2
LAYER
  5
2
102
{ACAD_XDICTIONARY
360
1F6
102
}
330
0
100
AcDbSymbolTable
 70
    14
  0
LAYER
  5
10
102
{ACAD_XDICTIONARY
360
133
102
}
330
2
100
AcDbSymbolTableRecord
100
AcDbLayerTableRecord
  2
0
 70
     0
 62
     7
  6
Continuous
370
    -3
390
F
347
E5
348
0
  0
LAYER
  5
255
330
2
100
AcDbSymbolTableRecord
100
AcDbLayerTableRecord
  2
中心線
 70
     0
 62
     3
  6
ACAD_ISO04W100
370
     9
390
F
347
E5
348
0
1001
AcAecLayerStandard
1000

1000

1001
AcCmTransparency
1071
        0
  0
LAYER
  5
25B
330
2
100
AcDbSymbolTableRecord
100
AcDbLayerTableRecord
  2
外形線②
 70
     0
 62
     7
  6
Continuous
370
    15
390
F
347
E5
348
0
1001
AcAecLayerStandard
1000

1000

1001
AcCmTransparency
1071
        0
  0
LAYER
  5
25C
330
2
100
AcDbSymbolTableRecord
100
AcDbLayerTableRecord
  2
寸法線
 70
     0
 62
     3
  6
Continuous
370
    13
390
F
347
E5
348
0
1001
AcAecLayerStandard
1000

1000

1001
AcCmTransparency
1071
        0
  0
LAYER
  5
25D
330
2
100
AcDbSymbolTableRecord
100
AcDbLayerTableRecord
  2
点線
 70
     0
 62
     4
  6
ACAD_ISO02W100
370
     9
390
F
347
E5
348
0
1001
AcAecLayerStandard
1000

1000

1001
AcCmTransparency
1071
        0
  0
LAYER
  5
25F
330
2
100
AcDbSymbolTableRecord
100
AcDbLayerTableRecord
  2
オフセット
 70
     0
 62
    -6
  6
Continuous
370
    13
390
F
347
E5
348
0
1001
AcAecLayerStandard
1000

1000

1001
AcCmTransparency
1071
        0
  0
LAYER
  5
271
330
2
100
AcDbSymbolTableRecord
100
AcDbLayerTableRecord
  2
Defpoints
 70
     0
 62
     7
  6
Continuous
290
     0
370
    -3
390
F
347
E5
348
0
  0
LAYER
  5
2F1
330
2
100
AcDbSymbolTableRecord
100
AcDbLayerTableRecord
  2
ビューポート
 70
     0
 62
     3
  6
Continuous
370
    15
390
F
347
E5
348
0
1001
AcAecLayerStandard
1000

1000

1001
AcCmTransparency
1071
        0
  0
LAYER
  5
382
330
2
100
AcDbSymbolTableRecord
100
AcDbLayerTableRecord
  2
外形線
 70
     0
 62
     7
  6
Continuous
370
    15
390
F
347
E5
348
0
1001
AcAecLayerStandard
1000

1000

1001
AcCmTransparency
1071
        0
  0
LAYER
  5
430
330
2
100
AcDbSymbolTableRecord
100
AcDbLayerTableRecord
  2
LED器具
 70
     0
 62
     4
  6
Continuous
370
    13
390
F
347
E5
348
0
1001
AcAecLayerStandard
1000

1000

1001
AcCmTransparency
1071
        0
  0
LAYER
  5
44D
330
2
100
AcDbSymbolTableRecord
100
AcDbLayerTableRecord
  2
孔
 70
     0
 62
     4
  6
Continuous
370
    15
390
F
347
E5
348
0
1001
AcAecLayerStandard
1000

1000

1001
AcCmTransparency
1071
        0
  0
LAYER
  5
AAC
330
2
100
AcDbSymbolTableRecord
100
AcDbLayerTableRecord
  2
枠線
 70
     0
 62
     2
  6
Continuous
370
     9
390
F
347
E5
348
0
1001
AcAecLayerStandard
1000

1000

1001
AcCmTransparency
1071
        0
  0
LAYER
  5
CEA
102
{ACAD_XDICTIONARY
360
CEB
102
}
330
2
100
AcDbSymbolTableRecord
100
AcDbLayerTableRecord
  2
1
 70
     0
 62
     7
  6
Continuous
370
    -3
390
F
347
E5
348
0
  0
LAYER
  5
DBB
330
2
100
AcDbSymbolTableRecord
100
AcDbLayerTableRecord
  2
○
 70
     0
 62
     3
  6
Continuous
370
     9
390
F
347
E5
348
0
1001
AcAecLayerStandard
1000

1000

1001
AcCmTransparency
1071
        0
  0
ENDTAB
  0
TABLE
  2
STYLE
  5
3
330
0
100
AcDbSymbolTable
 70
     4
  0
STYLE
  5
11
330
3
100
AcDbSymbolTableRecord
100
AcDbTextStyleTableRecord
  2
Standard
 70
     0
 40
0.0
 41
1.0
 50
0.0
 71
     0
 42
2.5
  3
arial.ttf
  4

1001
ACAD
1000
Arial
1071
       34
  0
STYLE
  5
129
330
3
100
AcDbSymbolTableRecord
100
AcDbTextStyleTableRecord
  2
Annotative
 70
     0
 40
0.0
 41
1.0
 50
0.0
 71
     0
 42
2.5
  3
arial.ttf
  4

1001
AcadAnnotative
1000
AnnotativeData
1002
{
1070
     1
1070
     1
1002
}
1001
ACAD
1000
Arial
1071
       34
  0
STYLE
  5
259
330
3
100
AcDbSymbolTableRecord
100
AcDbTextStyleTableRecord
  2

 70
     1
 40
0.0
 41
1.0
 50
0.0
 71
     0
 42
2.5
  3
ltypeshp.shx
  4

  0
STYLE
  5
CEC
330
3
100
AcDbSymbolTableRecord
100
AcDbTextStyleTableRecord
  2
BIGFONT
 70
     0
 40
1.0
 41
1.0
 50
0.0
 71
     0
 42
1.0
  3
TXT
  4
BIGFONT
  0
ENDTAB
  0
TABLE
  2
VIEW
  5
6
330
0
100
AcDbSymbolTable
 70
     0
  0
ENDTAB
  0
TABLE
  2
UCS
  5
7
330
0
100
AcDbSymbolTable
 70
     0
  0
ENDTAB
  0
TABLE
  2
APPID
  5
9
330
0
100
AcDbSymbolTable
 70
    13
  0
APPID
  5
12
330
9
100
AcDbSymbolTableRecord
100
AcDbRegAppTableRecord
  2
ACAD
 70
     0
  0
APPID
  5
A0
330
9
100
AcDbSymbolTableRecord
100
AcDbRegAppTableRecord
  2
ACAD_PSEXT
 70
     0
  0
APPID
  5
12A
330
9
100
AcDbSymbolTableRecord
100
AcDbRegAppTableRecord
  2
AcadAnnoPO
 70
     0
  0
APPID
  5
12B
330
9
100
AcDbSymbolTableRecord
100
AcDbRegAppTableRecord
  2
AcadAnnotative
 70
     0
  0
APPID
  5
12C
330
9
100
AcDbSymbolTableRecord
100
AcDbRegAppTableRecord
  2
ACAD_DSTYLE_DIMJAG
 70
     0
  0
APPID
  5
12D
330
9
100
AcDbSymbolTableRecord
100
AcDbRegAppTableRecord
  2
ACAD_DSTYLE_DIMTALN
 70
     0
  0
APPID
  5
15C
330
9
100
AcDbSymbolTableRecord
100
AcDbRegAppTableRecord
  2
ACAD_MLEADERVER
 70
     0
  0
APPID
  5
20E
330
9
100
AcDbSymbolTableRecord
100
AcDbRegAppTableRecord
  2
ACAD_NAV_VCDISPLAY
 70
     0
  0
APPID
  5
256
330
9
100
AcDbSymbolTableRecord
100
AcDbRegAppTableRecord
  2
AcAecLayerStandard
 70
     0
  0
APPID
  5
257
330
9
100
AcDbSymbolTableRecord
100
AcDbRegAppTableRecord
  2
AcCmTransparency
 70
     0
  0
APPID
  5
264
330
9
100
AcDbSymbolTableRecord
100
AcDbRegAppTableRecord
  2
ACAD_EXEMPT_FROM_CAD_STANDARDS
 70
     0
  0
APPID
  5
26F
330
9
100
AcDbSymbolTableRecord
100
AcDbRegAppTableRecord
  2
ACAD_DSTYLE_DIMRADIAL_EXTENSION
 70
     0
  0
APPID
  5
A2B
330
9
100
AcDbSymbolTableRecord
100
AcDbRegAppTableRecord
  2
AcadAnnoMonitorAlertIconDisabled
 70
     0
  0
ENDTAB
  0
TABLE
  2
DIMSTYLE
  5
A
330
0
100
AcDbSymbolTable
 70
     3
100
AcDbDimStyleTable
 71
     2
340
27
340
12E
  0
DIMSTYLE
105
1A7
330
A
100
AcDbSymbolTableRecord
100
AcDbDimStyleTableRecord
  2
Standard
 70
     0
340
11
  0
DIMSTYLE
105
12E
330
A
100
AcDbSymbolTableRecord
100
AcDbDimStyleTableRecord
  2
Annotative
 70
     0
 40
0.0
 41
2.5
 42
0.625
 43
3.75
 44
1.25
 73
     0
 74
     0
 77
     1
 78
     8
140
2.5
141
2.5
143
0.03937007874016
147
0.625
171
     3
172
     1
271
     2
272
     2
274
     3
278
    44
283
     0
284
     8
340
11
1001
AcadAnnotative
1000
AnnotativeData
1002
{
1070
     1
1070
     1
1002
}
1001
ACAD_DSTYLE_DIMJAG
1070
   388
1040
1.5
1001
ACAD_DSTYLE_DIMTALN
1070
   392
1070
     0
  0
DIMSTYLE
105
27
102
{ACAD_REACTORS
330
C6E
330
C86
330
CBA
330
CD2
330
1314
330
1D33
330
1D4B
330
1D63
330
1D87
102
}
330
A
100
AcDbSymbolTableRecord
100
AcDbDimStyleTableRecord
  2
ISO-25
 70
     0
 41
2.5
 42
0.625
 43
3.75
 44
1.25
 73
     0
 74
     0
 77
     1
 78
     8
140
20.0
141
2.5
143
0.03937007874016
147
0.625
171
     3
172
     1
271
     2
272
     2
274
     3
278
    44
283
     0
284
     8
340
11
1001
ACAD_DSTYLE_DIMJAG
1070
   388
1040
1.5
1001
ACAD_DSTYLE_DIMTALN
1070
   392
1070
     0
  0
ENDTAB
  0
TABLE
  2
BLOCK_RECORD
  5
1
330
0
100
AcDbSymbolTable
 70
    11
  0
BLOCK_RECORD
  5
1F
102
{ACAD_XDICTIONARY
360
1C5
102
}
330
1
100
AcDbSymbolTableRecord
100
AcDbBlockTableRecord
  2
*Model_Space
340
22
 70
     0
280
     1
281
     0
  0
BLOCK_RECORD
  5
D2
330
1
100
AcDbSymbolTableRecord
100
AcDbBlockTableRecord
  2
*Paper_Space
340
D3
 70
     0
280
     1
281
     0
  0
BLOCK_RECORD
  5
D6
330
1
100
AcDbSymbolTableRecord
100
AcDbBlockTableRecord
  2
*Paper_Space0
340
D7
 70
     0
280
     1
281
     0
  0
BLOCK_RECORD
  5
C6F
330
1
100
AcDbSymbolTableRecord
100
AcDbBlockTableRecord
  2
*D1
340
0
 70
     0
280
     1
281
     0
  0
BLOCK_RECORD
  5
C87
330
1
100
AcDbSymbolTableRecord
100
AcDbBlockTableRecord
  2
*D2
340
0
 70
     0
280
     1
281
     0
  0
BLOCK_RECORD
  5
CBB
330
1
100
AcDbSymbolTableRecord
100
AcDbBlockTableRecord
  2
*D3
340
0
 70
     0
280
     1
281
     0
  0
BLOCK_RECORD
  5
CD3
330
1
100
AcDbSymbolTableRecord
100
AcDbBlockTableRecord
  2
*D4
340
0
 70
     0
280
     1
281
     0
  0
BLOCK_RECORD
  5
1315
330
1
100
AcDbSymbolTableRecord
100
AcDbBlockTableRecord
  2
*D5
340
0
 70
     0
280
     1
281
     0
  0
BLOCK_RECORD
  5
1D34
330
1
100
AcDbSymbolTableRecord
100
AcDbBlockTableRecord
  2
*D6
340
0
 70
     0
280
     1
281
     0
  0
BLOCK_RECORD
  5
1D4C
330
1
100
AcDbSymbolTableRecord
100
AcDbBlockTableRecord
  2
*D7
340
0
 70
     0
280
     1
281
     0
  0
BLOCK_RECORD
  5
1D64
330
1
100
AcDbSymbolTableRecord
100
AcDbBlockTableRecord
  2
*D8
340
0
 70
     0
280
     1
281
     0
  0
BLOCK_RECORD
  5
1D88
330
1
100
AcDbSymbolTableRecord
100
AcDbBlockTableRecord
  2
*D9
340
0
 70
     0
280
     1
281
     0
  0
ENDTAB
  0
ENDSEC
  0
SECTION
  2
BLOCKS
  0
BLOCK
  5
20
330
1F
100
AcDbEntity
  8
0
100
AcDbBlockBegin
  2
*Model_Space
 70
     0
 10
0.0
 20
0.0
 30
0.0
  3
*Model_Space
  1

  0
ENDBLK
  5
21
330
1F
100
AcDbEntity
  8
0
100
AcDbBlockEnd
  0
BLOCK
  5
D4
330
D2
100
AcDbEntity
 67
     1
  8
0
100
AcDbBlockBegin
  2
*Paper_Space
 70
     0
 10
0.0
 20
0.0
 30
0.0
  3
*Paper_Space
  1

  0
ENDBLK
  5
D5
330
D2
100
AcDbEntity
 67
     1
  8
0
100
AcDbBlockEnd
  0
BLOCK
  5
D8
330
D6
100
AcDbEntity
 67
     1
  8
0
100
AcDbBlockBegin
  2
*Paper_Space0
 70
     0
 10
0.0
 20
0.0
 30
0.0
  3
*Paper_Space0
  1

  0
VIEWPORT
  5
1DC6
102
{ACAD_XDICTIONARY
360
1DC7
102
}
330
D6
100
AcDbEntity
 67
     1
  8
0
100
AcDbViewport
 10
128.5
 20
97.5
 30
0.0
 40
314.2260000000001
 41
261.0750063829788
 68
     0
 69
     0
 12
128.5
 22
97.5
 13
0.0
 23
0.0
 14
10.0
 24
10.0
 15
10.0
 25
10.0
 16
0.0
 26
0.0
 36
1.0
 17
0.0
 27
0.0
 37
0.0
 42
50.0
 43
0.0
 44
0.0
 45
261.0750063829788
 50
0.0
 51
0.0
 72
  1000
 90
   557088
  1

281
     0
 71
     1
 74
     0
110
0.0
120
0.0
130
0.0
111
1.0
121
0.0
131
0.0
112
0.0
122
1.0
132
0.0
 79
     0
146
0.0
170
     0
 61
     5
348
EC
292
     1
282
     1
141
0.0
142
0.0
 63
   250
421
  3355443
  0
VIEWPORT
  5
1DCA
102
{ACAD_XDICTIONARY
360
1DCB
102
}
330
D6
100
AcDbEntity
 67
     1
  8
寸法線
100
AcDbViewport
 10
128.5
 20
97.5
 30
0.0
 40
205.6
 41
156.0
 68
     0
 69
     0
 12
34156.24093491147
 22
28028.60257583398
 13
0.0
 23
0.0
 14
10.0
 24
10.0
 15
10.0
 25
10.0
 16
0.0
 26
0.0
 36
1.0
 17
0.0
 27
0.0
 37
0.0
 42
50.0
 43
0.0
 44
0.0
 45
2934.563376320673
 50
0.0
 51
0.0
 72
  1000
 90
   819808
  1

281
     0
 71
     1
 74
     0
110
0.0
120
0.0
130
0.0
111
1.0
121
0.0
131
0.0
112
0.0
122
1.0
132
0.0
 79
     0
146
0.0
170
     0
 61
     5
348
EC
292
     1
282
     1
141
0.0
142
0.0
 63
   250
421
  3355443
  0
ENDBLK
  5
D9
330
D6
100
AcDbEntity
 67
     1
  8
0
100
AcDbBlockEnd
  0
BLOCK
  5
C70
330
C6F
100
AcDbEntity
  8
0
100
AcDbBlockBegin
  2
*D1
 70
     1
 10
0.0
 20
0.0
 30
0.0
  3
*D1
  1

  0
LINE
  5
1DEB
330
C6F
100
AcDbEntity
  8
寸法線
 62
     0
440
 16777216
370
    -2
100
AcDbLine
 10
34387.21068823858
 20
28799.28133112583
 30
0.0
 11
34387.21068823858
 21
28919.3734814532
 31
0.0
  0
LINE
  5
1DEC
330
C6F
100
AcDbEntity
  8
寸法線
 62
     0
440
 16777216
370
    -2
100
AcDbLine
 10
34432.21068823858
 20
28799.28133112583
 30
0.0
 11
34432.21068823858
 21
28919.3734814532
 31
0.0
  0
LINE
  5
1DED
330
C6F
100
AcDbEntity
  8
寸法線
 62
     0
440
 16777216
370
    -2
100
AcDbLine
 10
34389.71068823858
 20
28918.1234814532
 30
0.0
 11
34429.71068823858
 21
28918.1234814532
 31
0.0
  0
SOLID
  5
1DEE
330
C6F
100
AcDbEntity
  8
寸法線
 62
     0
440
 16777216
100
AcDbTrace
 10
34389.71068823858
 20
28918.54014811987
 30
0.0
 11
34389.71068823858
 21
28917.70681478653
 31
0.0
 12
34387.21068823858
 22
28918.1234814532
 32
0.0
 13
34387.21068823858
 23
28918.1234814532
 33
0.0
  0
SOLID
  5
1DEF
330
C6F
100
AcDbEntity
  8
寸法線
 62
     0
440
 16777216
100
AcDbTrace
 10
34429.71068823858
 20
28918.54014811987
 30
0.0
 11
34429.71068823858
 21
28917.70681478653
 31
0.0
 12
34432.21068823858
 22
28918.1234814532
 32
0.0
 13
34432.21068823858
 23
28918.1234814532
 33
0.0
  0
MTEXT
  5
1DF0
330
C6F
100
AcDbEntity
  8
寸法線
 62
     0
440
 16777216
100
AcDbMText
 10
34409.71068823858
 20
28928.91901351323
 30
0.0
 40
20.0
 41
0.0
 46
0.0
 71
     5
 72
     1
  1
45
 73
     1
 44
1.0
  0
POINT
  5
1DF1
330
C6F
100
AcDbEntity
  8
Defpoints
 62
     0
440
 16777216
100
AcDbPoint
 10
34387.21068823858
 20
28798.65633112583
 30
0.0
  0
POINT
  5
1DF2
330
C6F
100
AcDbEntity
  8
Defpoints
 62
     0
440
 16777216
100
AcDbPoint
 10
34432.21068823858
 20
28798.65633112583
 30
0.0
  0
POINT
  5
1DF3
330
C6F
100
AcDbEntity
  8
Defpoints
 62
     0
440
 16777216
100
AcDbPoint
 10
34432.21068823858
 20
28918.1234814532
 30
0.0
  0
ENDBLK
  5
C71
330
C6F
100
AcDbEntity
  8
0
100
AcDbBlockEnd
  0
BLOCK
  5
C88
330
C87
100
AcDbEntity
  8
0
100
AcDbBlockBegin
  2
*D2
 70
     1
 10
0.0
 20
0.0
 30
0.0
  3
*D2
  1

  0
LINE
  5
1DF4
330
C87
100
AcDbEntity
  8
寸法線
 62
     0
440
 16777216
370
    -2
100
AcDbLine
 10
34411.21068823858
 20
28861.78133112583
 30
0.0
 11
34411.21068823858
 21
28892.54755887941
 31
0.0
  0
LINE
  5
1DF5
330
C87
100
AcDbEntity
  8
寸法線
 62
     0
440
 16777216
370
    -2
100
AcDbLine
 10
34387.21068823858
 20
28861.78133112583
 30
0.0
 11
34387.21068823858
 21
28892.54755887941
 31
0.0
  0
LINE
  5
1DF6
330
C87
100
AcDbEntity
  8
寸法線
 62
     0
440
 16777216
370
    -2
100
AcDbLine
 10
34408.71068823859
 20
28891.29755887941
 30
0.0
 11
34389.71068823858
 21
28891.29755887941
 31
0.0
  0
LINE
  5
1DF7
330
C87
100
AcDbEntity
  8
寸法線
 62
     0
440
 16777216
370
    -2
100
AcDbLine
 10
34387.21068823858
 20
28891.29755887941
 30
0.0
 11
34354.55209342276
 21
28891.29755887941
 31
0.0
  0
SOLID
  5
1DF8
330
C87
100
AcDbEntity
  8
寸法線
 62
     0
440
 16777216
100
AcDbTrace
 10
34408.71068823859
 20
28891.71422554608
 30
0.0
 11
34408.71068823859
 21
28890.88089221274
 31
0.0
 12
34411.21068823858
 22
28891.29755887941
 32
0.0
 13
34411.21068823858
 23
28891.29755887941
 33
0.0
  0
SOLID
  5
1DF9
330
C87
100
AcDbEntity
  8
寸法線
 62
     0
440
 16777216
100
AcDbTrace
 10
34389.71068823858
 20
28891.71422554608
 30
0.0
 11
34389.71068823858
 21
28890.88089221274
 31
0.0
 12
34387.21068823858
 22
28891.29755887941
 32
0.0
 13
34387.21068823858
 23
28891.29755887941
 33
0.0
  0
MTEXT
  5
1DFA
330
C87
100
AcDbEntity
  8
寸法線
 62
     0
440
 16777216
100
AcDbMText
 10
34369.63139083066
 20
28901.96348657382
 30
0.0
 40
20.0
 41
0.0
 46
0.0
 71
     5
 72
     1
  1
24
 73
     1
 44
1.0
  0
POINT
  5
1DFB
330
C87
100
AcDbEntity
  8
Defpoints
 62
     0
440
 16777216
100
AcDbPoint
 10
34411.21068823858
 20
28861.15633112583
 30
0.0
  0
POINT
  5
1DFC
330
C87
100
AcDbEntity
  8
Defpoints
 62
     0
440
 16777216
100
AcDbPoint
 10
34387.21068823858
 20
28861.15633112583
 30
0.0
  0
POINT
  5
1DFD
330
C87
100
AcDbEntity
  8
Defpoints
 62
     0
440
 16777216
100
AcDbPoint
 10
34387.21068823858
 20
28891.29755887941
 30
0.0
  0
ENDBLK
  5
C89
330
C87
100
AcDbEntity
  8
0
100
AcDbBlockEnd
  0
BLOCK
  5
CBC
330
CBB
100
AcDbEntity
  8
0
100
AcDbBlockBegin
  2
*D3
 70
     1
 10
0.0
 20
0.0
 30
0.0
  3
*D3
  1

  0
LINE
  5
1DFE
330
CBB
100
AcDbEntity
  8
寸法線
 62
     0
440
 16777216
370
    -2
100
AcDbLine
 10
34395.21068823859
 20
28835.53133112583
 30
0.0
 11
34395.21068823859
 21
28864.99419229671
 31
0.0
  0
LINE
  5
1DFF
330
CBB
100
AcDbEntity
  8
寸法線
 62
     0
440
 16777216
370
    -2
100
AcDbLine
 10
34427.21068823857
 20
28835.53133112583
 30
0.0
 11
34427.21068823857
 21
28864.99419229671
 31
0.0
  0
LINE
  5
1E00
330
CBB
100
AcDbEntity
  8
寸法線
 62
     0
440
 16777216
370
    -2
100
AcDbLine
 10
34397.71068823858
 20
28863.74419229671
 30
0.0
 11
34424.71068823857
 21
28863.74419229671
 31
0.0
  0
SOLID
  5
1E01
330
CBB
100
AcDbEntity
  8
寸法線
 62
     0
440
 16777216
100
AcDbTrace
 10
34397.71068823858
 20
28864.16085896337
 30
0.0
 11
34397.71068823858
 21
28863.32752563004
 31
0.0
 12
34395.21068823859
 22
28863.74419229671
 32
0.0
 13
34395.21068823859
 23
28863.74419229671
 33
0.0
  0
SOLID
  5
1E02
330
CBB
100
AcDbEntity
  8
寸法線
 62
     0
440
 16777216
100
AcDbTrace
 10
34424.71068823857
 20
28864.16085896337
 30
0.0
 11
34424.71068823857
 21
28863.32752563004
 31
0.0
 12
34427.21068823857
 22
28863.74419229671
 32
0.0
 13
34427.21068823857
 23
28863.74419229671
 33
0.0
  0
MTEXT
  5
1E03
330
CBB
100
AcDbEntity
  8
寸法線
 62
     0
440
 16777216
100
AcDbMText
 10
34411.21068823858
 20
28874.58747333354
 30
0.0
 40
20.0
 41
0.0
 46
0.0
 71
     5
 72
     1
  1
32
 73
     1
 44
1.0
  0
POINT
  5
1E04
330
CBB
100
AcDbEntity
  8
Defpoints
 62
     0
440
 16777216
100
AcDbPoint
 10
34395.21068823859
 20
28834.90633112582
 30
0.0
  0
POINT
  5
1E05
330
CBB
100
AcDbEntity
  8
Defpoints
 62
     0
440
 16777216
100
AcDbPoint
 10
34427.21068823857
 20
28834.90633112582
 30
0.0
  0
POINT
  5
1E06
330
CBB
100
AcDbEntity
  8
Defpoints
 62
     0
440
 16777216
100
AcDbPoint
 10
34427.21068823857
 20
28863.74419229671
 30
0.0
  0
ENDBLK
  5
CBD
330
CBB
100
AcDbEntity
  8
0
100
AcDbBlockEnd
  0
BLOCK
  5
CD4
330
CD3
100
AcDbEntity
  8
0
100
AcDbBlockBegin
  2
*D4
 70
     1
 10
0.0
 20
0.0
 30
0.0
  3
*D4
  1

  0
LINE
  5
1E07
330
CD3
100
AcDbEntity
  8
寸法線
 62
     0
440
 16777216
370
    -2
100
AcDbLine
 10
34410.58568823858
 20
28851.15633112583
 30
0.0
 11
34337.93563245819
 21
28851.15633112583
 31
0.0
  0
LINE
  5
1E08
330
CD3
100
AcDbEntity
  8
寸法線
 62
     0
440
 16777216
370
    -2
100
AcDbLine
 10
34410.58568823859
 20
28774.15633112583
 30
0.0
 11
34337.93563245819
 21
28774.15633112583
 31
0.0
  0
LINE
  5
1E09
330
CD3
100
AcDbEntity
  8
寸法線
 62
     0
440
 16777216
370
    -2
100
AcDbLine
 10
34339.18563245819
 20
28848.65633112583
 30
0.0
 11
34339.18563245819
 21
28776.65633112583
 31
0.0
  0
SOLID
  5
1E0A
330
CD3
100
AcDbEntity
  8
寸法線
 62
     0
440
 16777216
100
AcDbTrace
 10
34338.76896579153
 20
28848.65633112583
 30
0.0
 11
34339.60229912485
 21
28848.65633112583
 31
0.0
 12
34339.18563245819
 22
28851.15633112583
 32
0.0
 13
34339.18563245819
 23
28851.15633112583
 33
0.0
  0
SOLID
  5
1E0B
330
CD3
100
AcDbEntity
  8
寸法線
 62
     0
440
 16777216
100
AcDbTrace
 10
34338.76896579153
 20
28776.65633112583
 30
0.0
 11
34339.60229912485
 21
28776.65633112583
 31
0.0
 12
34339.18563245819
 22
28774.15633112583
 32
0.0
 13
34339.18563245819
 23
28774.15633112583
 33
0.0
  0
MTEXT
  5
1E0C
330
CD3
100
AcDbEntity
  8
寸法線
 62
     0
440
 16777216
100
AcDbMText
 10
34328.56063245818
 20
28812.65633112583
 30
0.0
 40
20.0
 41
0.0
 46
0.0
 71
     5
 72
     1
  1
77
 11
0.0000000000000001
 21
1.0
 31
0.0
 73
     1
 44
1.0
  0
POINT
  5
1E0D
330
CD3
100
AcDbEntity
  8
Defpoints
 62
     0
440
 16777216
100
AcDbPoint
 10
34411.21068823858
 20
28851.15633112583
 30
0.0
  0
POINT
  5
1E0E
330
CD3
100
AcDbEntity
  8
Defpoints
 62
     0
440
 16777216
100
AcDbPoint
 10
34411.21068823858
 20
28774.15633112583
 30
0.0
  0
POINT
  5
1E0F
330
CD3
100
AcDbEntity
  8
Defpoints
 62
     0
440
 16777216
100
AcDbPoint
 10
34339.18563245819
 20
28774.15633112583
 30
0.0
  0
ENDBLK
  5
CD5
330
CD3
100
AcDbEntity
  8
0
100
AcDbBlockEnd
  0
BLOCK
  5
1316
330
1315
100
AcDbEntity
  8
0
100
AcDbBlockBegin
  2
*D5
 70
     1
 10
0.0
 20
0.0
 30
0.0
  3
*D5
  1

  0
LINE
  5
1E10
330
1315
100
AcDbEntity
  8
寸法線
 62
     0
440
 16777216
370
    -2
100
AcDbLine
 10
34411.21068823858
 20
28861.78133112583
 30
0.0
 11
34411.21068823858
 21
28892.54755887941
 31
0.0
  0
LINE
  5
1E11
330
1315
100
AcDbEntity
  8
寸法線
 62
     0
440
 16777216
370
    -2
100
AcDbLine
 10
34432.21068823858
 20
28835.53133112583
 30
0.0
 11
34432.21068823858
 21
28892.54755887941
 31
0.0
  0
LINE
  5
1E12
330
1315
100
AcDbEntity
  8
寸法線
 62
     0
440
 16777216
370
    -2
100
AcDbLine
 10
34413.71068823859
 20
28891.29755887941
 30
0.0
 11
34429.71068823858
 21
28891.29755887941
 31
0.0
  0
LINE
  5
1E13
330
1315
100
AcDbEntity
  8
寸法線
 62
     0
440
 16777216
370
    -2
100
AcDbLine
 10
34432.21068823858
 20
28891.29755887941
 30
0.0
 11
34461.0902926042
 21
28891.29755887941
 31
0.0
  0
SOLID
  5
1E14
330
1315
100
AcDbEntity
  8
寸法線
 62
     0
440
 16777216
100
AcDbTrace
 10
34413.71068823859
 20
28891.71422554608
 30
0.0
 11
34413.71068823859
 21
28890.88089221274
 31
0.0
 12
34411.21068823858
 22
28891.29755887941
 32
0.0
 13
34411.21068823858
 23
28891.29755887941
 33
0.0
  0
SOLID
  5
1E15
330
1315
100
AcDbEntity
  8
寸法線
 62
     0
440
 16777216
100
AcDbTrace
 10
34429.71068823858
 20
28891.71422554608
 30
0.0
 11
34429.71068823858
 21
28890.88089221274
 31
0.0
 12
34432.21068823858
 22
28891.29755887941
 32
0.0
 13
34432.21068823858
 23
28891.29755887941
 33
0.0
  0
MTEXT
  5
1E16
330
1315
100
AcDbEntity
  8
寸法線
 62
     0
440
 16777216
100
AcDbMText
 10
34447.90049042139
 20
28901.96348657382
 30
0.0
 40
20.0
 41
0.0
 46
0.0
 71
     5
 72
     1
  1
21
 73
     1
 44
1.0
  0
POINT
  5
1E17
330
1315
100
AcDbEntity
  8
Defpoints
 62
     0
440
 16777216
100
AcDbPoint
 10
34411.21068823858
 20
28861.15633112583
 30
0.0
  0
POINT
  5
1E18
330
1315
100
AcDbEntity
  8
Defpoints
 62
     0
440
 16777216
100
AcDbPoint
 10
34432.21068823858
 20
28834.90633112582
 30
0.0
  0
POINT
  5
1E19
330
1315
100
AcDbEntity
  8
Defpoints
 62
     0
440
 16777216
100
AcDbPoint
 10
34432.21068823858
 20
28891.29755887941
 30
0.0
  0
ENDBLK
  5
1317
330
1315
100
AcDbEntity
  8
0
100
AcDbBlockEnd
  0
BLOCK
  5
1D35
330
1D34
100
AcDbEntity
  8
0
100
AcDbBlockBegin
  2
*D6
 70
     1
 10
0.0
 20
0.0
 30
0.0
  3
*D6
  1

  0
LINE
  5
1E1A
330
1D34
100
AcDbEntity
  8
寸法線
 62
     0
440
 16777216
370
    -2
100
AcDbLine
 10
33560.21068823859
 20
28999.78133112583
 30
0.0
 11
33560.21068823859
 21
29091.30068924812
 31
0.0
  0
LINE
  5
1E1B
330
1D34
100
AcDbEntity
  8
寸法線
 62
     0
440
 16777216
370
    -2
100
AcDbLine
 10
34234.21068823859
 20
28999.78133112583
 30
0.0
 11
34234.21068823859
 21
29091.30068924812
 31
0.0
  0
LINE
  5
1E1C
330
1D34
100
AcDbEntity
  8
寸法線
 62
     0
440
 16777216
370
    -2
100
AcDbLine
 10
33562.71068823859
 20
29090.05068924812
 30
0.0
 11
34231.71068823859
 21
29090.05068924812
 31
0.0
  0
SOLID
  5
1E1D
330
1D34
100
AcDbEntity
  8
寸法線
 62
     0
440
 16777216
100
AcDbTrace
 10
33562.71068823859
 20
29090.46735591479
 30
0.0
 11
33562.71068823859
 21
29089.63402258145
 31
0.0
 12
33560.21068823859
 22
29090.05068924812
 32
0.0
 13
33560.21068823859
 23
29090.05068924812
 33
0.0
  0
SOLID
  5
1E1E
330
1D34
100
AcDbEntity
  8
寸法線
 62
     0
440
 16777216
100
AcDbTrace
 10
34231.71068823859
 20
29090.46735591479
 30
0.0
 11
34231.71068823859
 21
29089.63402258145
 31
0.0
 12
34234.21068823859
 22
29090.05068924812
 32
0.0
 13
34234.21068823859
 23
29090.05068924812
 33
0.0
  0
MTEXT
  5
1E1F
330
1D34
100
AcDbEntity
  8
寸法線
 62
     0
440
 16777216
100
AcDbMText
 10
33897.21068823859
 20
29100.88714900255
 30
0.0
 40
20.0
 41
0.0
 46
0.0
 71
     5
 72
     1
  1
674
 73
     1
 44
1.0
  0
POINT
  5
1E20
330
1D34
100
AcDbEntity
  8
Defpoints
 62
     0
440
 16777216
100
AcDbPoint
 10
33560.21068823859
 20
28999.15633112583
 30
0.0
  0
POINT
  5
1E21
330
1D34
100
AcDbEntity
  8
Defpoints
 62
     0
440
 16777216
100
AcDbPoint
 10
34234.21068823859
 20
28999.15633112583
 30
0.0
  0
POINT
  5
1E22
330
1D34
100
AcDbEntity
  8
Defpoints
 62
     0
440
 16777216
100
AcDbPoint
 10
34234.21068823859
 20
29090.05068924812
 30
0.0
  0
ENDBLK
  5
1D36
330
1D34
100
AcDbEntity
  8
0
100
AcDbBlockEnd
  0
BLOCK
  5
1D4D
330
1D4C
100
AcDbEntity
  8
0
100
AcDbBlockBegin
  2
*D7
 70
     1
 10
0.0
 20
0.0
 30
0.0
  3
*D7
  1

  0
LINE
  5
1E23
330
1D4C
100
AcDbEntity
  8
寸法線
 62
     0
440
 16777216
370
    -2
100
AcDbLine
 10
34233.83568823858
 20
28851.15633112583
 30
0.0
 11
34285.51309905079
 21
28851.15633112583
 31
0.0
  0
LINE
  5
1E24
330
1D4C
100
AcDbEntity
  8
寸法線
 62
     0
440
 16777216
370
    -2
100
AcDbLine
 10
34233.83568823858
 20
28799.15633112583
 30
0.0
 11
34285.51309905079
 21
28799.15633112583
 31
0.0
  0
LINE
  5
1E25
330
1D4C
100
AcDbEntity
  8
寸法線
 62
     0
440
 16777216
370
    -2
100
AcDbLine
 10
34284.26309905079
 20
28848.65633112583
 30
0.0
 11
34284.26309905079
 21
28801.65633112583
 31
0.0
  0
SOLID
  5
1E26
330
1D4C
100
AcDbEntity
  8
寸法線
 62
     0
440
 16777216
100
AcDbTrace
 10
34283.84643238413
 20
28848.65633112583
 30
0.0
 11
34284.67976571746
 21
28848.65633112583
 31
0.0
 12
34284.26309905079
 22
28851.15633112583
 32
0.0
 13
34284.26309905079
 23
28851.15633112583
 33
0.0
  0
SOLID
  5
1E27
330
1D4C
100
AcDbEntity
  8
寸法線
 62
     0
440
 16777216
100
AcDbTrace
 10
34283.84643238413
 20
28801.65633112583
 30
0.0
 11
34284.67976571746
 21
28801.65633112583
 31
0.0
 12
34284.26309905079
 22
28799.15633112583
 32
0.0
 13
34284.26309905079
 23
28799.15633112583
 33
0.0
  0
MTEXT
  5
1E28
330
1D4C
100
AcDbEntity
  8
寸法線
 62
     0
440
 16777216
100
AcDbMText
 10
34273.42663929635
 20
28825.15633112583
 30
0.0
 40
20.0
 41
0.0
 46
0.0
 71
     5
 72
     1
  1
52
 11
0.0000000000000001
 21
1.0
 31
0.0
 73
     1
 44
1.0
  0
POINT
  5
1E29
330
1D4C
100
AcDbEntity
  8
Defpoints
 62
     0
440
 16777216
100
AcDbPoint
 10
34233.21068823859
 20
28851.15633112583
 30
0.0
  0
POINT
  5
1E2A
330
1D4C
100
AcDbEntity
  8
Defpoints
 62
     0
440
 16777216
100
AcDbPoint
 10
34233.21068823859
 20
28799.15633112583
 30
0.0
  0
POINT
  5
1E2B
330
1D4C
100
AcDbEntity
  8
Defpoints
 62
     0
440
 16777216
100
AcDbPoint
 10
34284.26309905079
 20
28799.15633112583
 30
0.0
  0
ENDBLK
  5
1D4E
330
1D4C
100
AcDbEntity
  8
0
100
AcDbBlockEnd
  0
BLOCK
  5
1D65
330
1D64
100
AcDbEntity
  8
0
100
AcDbBlockBegin
  2
*D8
 70
     1
 10
0.0
 20
0.0
 30
0.0
  3
*D8
  1

  0
LINE
  5
1E2C
330
1D64
100
AcDbEntity
  8
寸法線
 62
     0
440
 16777216
370
    -2
100
AcDbLine
 10
34233.83568823858
 20
28799.15633112583
 30
0.0
 11
34285.51309905079
 21
28799.15633112583
 31
0.0
  0
LINE
  5
1E2D
330
1D64
100
AcDbEntity
  8
寸法線
 62
     0
440
 16777216
370
    -2
100
AcDbLine
 10
33962.03568823859
 20
28774.15633112583
 30
0.0
 11
34285.51309905079
 21
28774.15633112583
 31
0.0
  0
LINE
  5
1E2E
330
1D64
100
AcDbEntity
  8
寸法線
 62
     0
440
 16777216
370
    -2
100
AcDbLine
 10
34284.26309905079
 20
28796.65633112582
 30
0.0
 11
34284.26309905079
 21
28776.65633112583
 31
0.0
  0
LINE
  5
1E2F
330
1D64
100
AcDbEntity
  8
寸法線
 62
     0
440
 16777216
370
    -2
100
AcDbLine
 10
34284.26309905079
 20
28774.15633112583
 30
0.0
 11
34284.26309905079
 21
28741.26581270836
 31
0.0
  0
SOLID
  5
1E30
330
1D64
100
AcDbEntity
  8
寸法線
 62
     0
440
 16777216
100
AcDbTrace
 10
34283.84643238413
 20
28796.65633112582
 30
0.0
 11
34284.67976571746
 21
28796.65633112582
 31
0.0
 12
34284.26309905079
 22
28799.15633112583
 32
0.0
 13
34284.26309905079
 23
28799.15633112583
 33
0.0
  0
SOLID
  5
1E31
330
1D64
100
AcDbEntity
  8
寸法線
 62
     0
440
 16777216
100
AcDbTrace
 10
34283.84643238413
 20
28776.65633112583
 30
0.0
 11
34284.67976571746
 21
28776.65633112583
 31
0.0
 12
34284.26309905079
 22
28774.15633112583
 32
0.0
 13
34284.26309905079
 23
28774.15633112583
 33
0.0
  0
MTEXT
  5
1E32
330
1D64
100
AcDbEntity
  8
寸法線
 62
     0
440
 16777216
100
AcDbMText
 10
34273.42663929635
 20
28756.4610719171
 30
0.0
 40
20.0
 41
0.0
 46
0.0
 71
     5
 72
     1
  1
25
 11
0.0000000000000001
 21
1.0
 31
0.0
 73
     1
 44
1.0
  0
POINT
  5
1E33
330
1D64
100
AcDbEntity
  8
Defpoints
 62
     0
440
 16777216
100
AcDbPoint
 10
34233.21068823859
 20
28799.15633112583
 30
0.0
  0
POINT
  5
1E34
330
1D64
100
AcDbEntity
  8
Defpoints
 62
     0
440
 16777216
100
AcDbPoint
 10
33961.41068823859
 20
28774.15633112583
 30
0.0
  0
POINT
  5
1E35
330
1D64
100
AcDbEntity
  8
Defpoints
 62
     0
440
 16777216
100
AcDbPoint
 10
34284.26309905079
 20
28774.15633112583
 30
0.0
  0
ENDBLK
  5
1D66
330
1D64
100
AcDbEntity
  8
0
100
AcDbBlockEnd
  0
BLOCK
  5
1D89
330
1D88
100
AcDbEntity
  8
0
100
AcDbBlockBegin
  2
*D9
 70
     1
 10
0.0
 20
0.0
 30
0.0
  3
*D9
  1

  0
LINE
  5
1E3F
330
1D88
100
AcDbEntity
  8
寸法線
 62
     0
440
 16777216
370
    -2
100
AcDbLine
 10
33610.21068823859
 20
26717.43184584568
 30
0.0
 11
33610.21068823859
 21
26702.86697110986
 31
0.0
  0
LINE
  5
1E40
330
1D88
100
AcDbEntity
  8
寸法線
 62
     0
440
 16777216
370
    -2
100
AcDbLine
 10
34184.21068823858
 20
26717.43184584568
 30
0.0
 11
34184.21068823858
 21
26702.86697110986
 31
0.0
  0
LINE
  5
1E41
330
1D88
100
AcDbEntity
  8
寸法線
 62
     0
440
 16777216
370
    -2
100
AcDbLine
 10
33612.71068823858
 20
26704.11697110985
 30
0.0
 11
34181.71068823859
 21
26704.11697110985
 31
0.0
  0
SOLID
  5
1E42
330
1D88
100
AcDbEntity
  8
寸法線
 62
     0
440
 16777216
100
AcDbTrace
 10
33612.71068823858
 20
26704.53363777653
 30
0.0
 11
33612.71068823858
 21
26703.70030444319
 31
0.0
 12
33610.21068823859
 22
26704.11697110985
 32
0.0
 13
33610.21068823859
 23
26704.11697110985
 33
0.0
  0
SOLID
  5
1E43
330
1D88
100
AcDbEntity
  8
寸法線
 62
     0
440
 16777216
100
AcDbTrace
 10
34181.71068823859
 20
26704.53363777653
 30
0.0
 11
34181.71068823859
 21
26703.70030444319
 31
0.0
 12
34184.21068823858
 22
26704.11697110985
 32
0.0
 13
34184.21068823858
 23
26704.11697110985
 33
0.0
  0
MTEXT
  5
1E44
330
1D88
100
AcDbEntity
  8
寸法線
 62
     0
440
 16777216
100
AcDbMText
 10
33897.21068823859
 20
26714.91250316988
 30
0.0
 40
20.0
 41
0.0
 46
0.0
 71
     5
 72
     1
  1
574
 73
     1
 44
1.0
  0
POINT
  5
1E45
330
1D88
100
AcDbEntity
  8
Defpoints
 62
     0
440
 16777216
100
AcDbPoint
 10
33610.21068823859
 20
26718.05684584568
 30
0.0
  0
POINT
  5
1E46
330
1D88
100
AcDbEntity
  8
Defpoints
 62
     0
440
 16777216
100
AcDbPoint
 10
34184.21068823858
 20
26718.05684584568
 30
0.0
  0
POINT
  5
1E47
330
1D88
100
AcDbEntity
  8
Defpoints
 62
     0
440
 16777216
100
AcDbPoint
 10
34184.21068823858
 20
26704.11697110985
 30
0.0
  0
ENDBLK
  5
1D8A
330
1D88
100
AcDbEntity
  8
0
100
AcDbBlockEnd
  0
ENDSEC
  0
SECTION
  2
ENTITIES
  0
LINE
  5
7A2
102
{ACAD_REACTORS
330
CD1
102
}
330
1F
100
AcDbEntity
  8
外形線
100
AcDbLine
 10
34395.21068823859
 20
28834.90633112582
 30
0.0
 11
34395.21068823859
 21
28832.89076668875
 31
0.0
  0
LINE
  5
7A3
330
1F
100
AcDbEntity
  8
外形線
100
AcDbLine
 10
34427.21068823859
 20
28832.06687695293
 30
0.0
 11
34427.21068823859
 21
28834.90633112693
 31
0.0
  0
ARC
  5
7A4
102
{ACAD_REACTORS
330
CE9
102
}
330
1F
100
AcDbEntity
  8
外形線
100
AcDbCircle
 10
34411.21068823858
 20
28835.15440804891
 30
0.0
 40
16.00192307691588
100
AcDbArc
 50
359.1117111338804
 51
180.8882888661196
  0
ARC
  5
7A5
330
1F
100
AcDbEntity
  8
外形線
100
AcDbCircle
 10
34411.21068823858
 20
28834.90633112582
 30
0.0
 40
16.24999999999987
100
AcDbArc
 50
194.1411102338193
 51
217.6271906287984
  0
ARC
  5
7A6
330
1F
100
AcDbEntity
  8
外形線
100
AcDbCircle
 10
34386.46068823858
 20
28815.82754709749
 30
0.0
 40
15.0
100
AcDbArc
 50
0.0
 51
37.6271906287984
  0
ARC
  5
7A7
330
1F
100
AcDbEntity
  8
外形線
100
AcDbCircle
 10
34403.21068823859
 20
28832.89076668875
 30
0.0
 40
8.0
100
AcDbArc
 50
180.0
 51
194.1411102338193
  0
ARC
  5
7A8
330
1F
100
AcDbEntity
  8
外形線
100
AcDbCircle
 10
34411.21068823858
 20
28834.90633112582
 30
0.0
 40
16.24999999999987
100
AcDbArc
 50
322.3728093712016
 51
349.9367255563573
  0
ARC
  5
7A9
330
1F
100
AcDbEntity
  8
外形線
100
AcDbCircle
 10
34435.96068823858
 20
28815.82754709749
 30
0.0
 40
15.0
100
AcDbArc
 50
142.3728093712016
 51
180.0
  0
LINE
  5
7AA
330
1F
100
AcDbEntity
  8
外形線
100
AcDbLine
 10
34401.46068823858
 20
28815.82754709749
 30
0.0
 11
34401.46068823858
 21
28801.15633112583
 31
0.0
  0
LINE
  5
7AB
330
1F
100
AcDbEntity
  8
外形線
100
AcDbLine
 10
34401.46068823858
 20
28801.15633112583
 30
0.0
 11
34408.21068823859
 21
28801.15633112583
 31
0.0
  0
LINE
  5
7AC
330
1F
100
AcDbEntity
  8
外形線
100
AcDbLine
 10
34414.21068823859
 20
28801.15633112583
 30
0.0
 11
34420.96068823859
 21
28801.15633112583
 31
0.0
  0
LINE
  5
7AD
330
1F
100
AcDbEntity
  8
外形線
100
AcDbLine
 10
34420.96068823859
 20
28801.15633112583
 30
0.0
 11
34420.96068823859
 21
28815.82754709749
 31
0.0
  0
LINE
  5
7AE
330
1F
100
AcDbEntity
  8
外形線
100
AcDbLine
 10
34399.41068823858
 20
28809.15633112583
 30
0.0
 11
34399.41068823858
 21
28799.15633112583
 31
0.0
  0
LINE
  5
7AF
330
1F
100
AcDbEntity
  8
外形線
100
AcDbLine
 10
34399.41068823858
 20
28799.15633112583
 30
0.0
 11
34423.01068823859
 21
28799.15633112583
 31
0.0
  0
LINE
  5
7B0
330
1F
100
AcDbEntity
  8
外形線
100
AcDbLine
 10
34423.01068823859
 20
28799.15633112583
 30
0.0
 11
34423.01068823859
 21
28809.15633112583
 31
0.0
  0
LINE
  5
7B1
330
1F
100
AcDbEntity
  8
外形線
100
AcDbLine
 10
34399.41068823858
 20
28809.15633112583
 30
0.0
 11
34401.46068823858
 21
28809.15633112583
 31
0.0
  0
LINE
  5
7B2
330
1F
100
AcDbEntity
  8
外形線
100
AcDbLine
 10
34401.46068823858
 20
28809.15633112583
 30
0.0
 11
34401.46068823858
 21
28804.85633112582
 31
0.0
  0
LINE
  5
7B3
330
1F
100
AcDbEntity
  8
外形線
100
AcDbLine
 10
34401.46068823858
 20
28804.85633112582
 30
0.0
 11
34400.86068823859
 21
28804.85633112582
 31
0.0
  0
LINE
  5
7B4
330
1F
100
AcDbEntity
  8
外形線
100
AcDbLine
 10
34400.86068823859
 20
28804.85633112582
 30
0.0
 11
34400.86068823859
 21
28808.55633112583
 31
0.0
  0
LINE
  5
7B5
330
1F
100
AcDbEntity
  8
外形線
100
AcDbLine
 10
34400.86068823859
 20
28808.55633112583
 30
0.0
 11
34400.01068823858
 21
28808.55633112583
 31
0.0
  0
LINE
  5
7B6
330
1F
100
AcDbEntity
  8
外形線
100
AcDbLine
 10
34400.01068823858
 20
28808.55633112583
 30
0.0
 11
34400.01068823858
 21
28799.75633112582
 31
0.0
  0
LINE
  5
7B7
330
1F
100
AcDbEntity
  8
外形線
100
AcDbLine
 10
34400.01068823858
 20
28799.75633112582
 30
0.0
 11
34408.21068823859
 21
28799.75633112582
 31
0.0
  0
LINE
  5
7B8
330
1F
100
AcDbEntity
  8
外形線
100
AcDbLine
 10
34414.21068823859
 20
28799.75633112582
 30
0.0
 11
34422.41068823859
 21
28799.75633112582
 31
0.0
  0
LINE
  5
7B9
330
1F
100
AcDbEntity
  8
外形線
100
AcDbLine
 10
34422.41068823859
 20
28799.75633112582
 30
0.0
 11
34422.41068823859
 21
28808.55633112583
 31
0.0
  0
LINE
  5
7BA
330
1F
100
AcDbEntity
  8
外形線
100
AcDbLine
 10
34422.41068823859
 20
28808.55633112583
 30
0.0
 11
34421.56068823858
 21
28808.55633112583
 31
0.0
  0
LINE
  5
7BB
330
1F
100
AcDbEntity
  8
外形線
100
AcDbLine
 10
34421.56068823858
 20
28808.55633112583
 30
0.0
 11
34421.56068823858
 21
28804.85633112582
 31
0.0
  0
LINE
  5
7BC
330
1F
100
AcDbEntity
  8
外形線
100
AcDbLine
 10
34421.56068823858
 20
28804.85633112582
 30
0.0
 11
34420.96068823859
 21
28804.85633112582
 31
0.0
  0
LINE
  5
7BD
330
1F
100
AcDbEntity
  8
外形線
100
AcDbLine
 10
34420.96068823859
 20
28804.85633112582
 30
0.0
 11
34420.96068823859
 21
28809.15633112583
 31
0.0
  0
LINE
  5
7BE
330
1F
100
AcDbEntity
  8
外形線
100
AcDbLine
 10
34420.96068823859
 20
28809.15633112583
 30
0.0
 11
34423.01068823859
 21
28809.15633112583
 31
0.0
  0
LINE
  5
7BF
330
1F
100
AcDbEntity
  8
外形線
100
AcDbLine
 10
34408.21068823859
 20
28801.15633112583
 30
0.0
 11
34408.21068823859
 21
28799.15633112583
 31
0.0
  0
LINE
  5
7C0
330
1F
100
AcDbEntity
  8
外形線
100
AcDbLine
 10
34414.21068823859
 20
28801.15633112583
 30
0.0
 11
34414.21068823859
 21
28799.15633112583
 31
0.0
  0
LINE
  5
7C1
330
1F
100
AcDbEntity
  8
外形線
100
AcDbLine
 10
34402.96068823859
 20
28799.15633112583
 30
0.0
 11
34402.96068823859
 21
28795.15633112583
 31
0.0
  0
LINE
  5
7C2
330
1F
100
AcDbEntity
  8
外形線
100
AcDbLine
 10
34402.96068823859
 20
28795.15633112583
 30
0.0
 11
34419.46068823859
 21
28795.15633112583
 31
0.0
  0
LINE
  5
7C3
330
1F
100
AcDbEntity
  8
外形線
100
AcDbLine
 10
34419.46068823859
 20
28795.15633112583
 30
0.0
 11
34419.46068823859
 21
28799.15633112583
 31
0.0
  0
LINE
  5
7C4
330
1F
100
AcDbEntity
  8
孔
100
AcDbLine
 10
34409.56068823858
 20
28847.50633112582
 30
0.0
 11
34409.56068823858
 21
28845.80633112583
 31
0.0
  0
LINE
  5
7C5
330
1F
100
AcDbEntity
  8
孔
100
AcDbLine
 10
34412.86068823859
 20
28847.50633112582
 30
0.0
 11
34412.86068823859
 21
28845.80633112583
 31
0.0
  0
ARC
  5
7C6
330
1F
100
AcDbEntity
  8
孔
100
AcDbCircle
 10
34411.21068823858
 20
28847.50633112583
 30
0.0
 40
1.650000000001455
100
AcDbArc
 50
359.9999999995831
 51
180.0000000004169
  0
ARC
  5
7C7
330
1F
100
AcDbEntity
  8
孔
100
AcDbCircle
 10
34411.21068823858
 20
28845.80633112583
 30
0.0
 40
1.650000000001455
100
AcDbArc
 50
180.0
 51
0.0
  0
CIRCLE
  5
7C8
330
1F
100
AcDbEntity
  8
孔
100
AcDbCircle
 10
34411.21068823858
 20
28836.15633112583
 30
0.0
 40
1.6
  0
LINE
  5
7C9
330
1F
100
AcDbEntity
  8
孔
100
AcDbLine
 10
34409.56068823858
 20
28827.50633112582
 30
0.0
 11
34409.56068823858
 21
28823.80633112583
 31
0.0
  0
LINE
  5
7CA
330
1F
100
AcDbEntity
  8
孔
100
AcDbLine
 10
34412.86068823859
 20
28827.50633112582
 30
0.0
 11
34412.86068823859
 21
28823.80633112583
 31
0.0
  0
ARC
  5
7CB
330
1F
100
AcDbEntity
  8
孔
100
AcDbCircle
 10
34411.21068823859
 20
28827.50633112583
 30
0.0
 40
1.650000000008731
100
AcDbArc
 50
359.9999999995831
 51
180.0000000004169
  0
ARC
  5
7CC
330
1F
100
AcDbEntity
  8
孔
100
AcDbCircle
 10
34411.21068823858
 20
28823.80633112582
 30
0.0
 40
1.650000000001455
100
AcDbArc
 50
179.9999999995831
 51
0.0000000004168817
  0
LINE
  5
7CD
330
1F
100
AcDbEntity
  8
孔
100
AcDbLine
 10
34408.71068823859
 20
28815.65633112582
 30
0.0
 11
34408.71068823859
 21
28808.65633112583
 31
0.0
  0
LINE
  5
7CE
330
1F
100
AcDbEntity
  8
孔
100
AcDbLine
 10
34413.71068823859
 20
28815.65633112582
 30
0.0
 11
34413.71068823859
 21
28808.65633112583
 31
0.0
  0
ARC
  5
7CF
330
1F
100
AcDbEntity
  8
孔
100
AcDbCircle
 10
34411.21068823859
 20
28815.65633112582
 30
0.0
 40
2.500000000007275
100
AcDbArc
 50
0.0
 51
180.0
  0
ARC
  5
7D0
330
1F
100
AcDbEntity
  8
孔
100
AcDbCircle
 10
34411.21068823859
 20
28808.65633112583
 30
0.0
 40
2.499999999992724
100
AcDbArc
 50
180.0
 51
0.0
  0
LINE
  5
7D1
330
1F
100
AcDbEntity
  8
外形線
100
AcDbLine
 10
34401.46068823858
 20
28815.15633112583
 30
0.0
 11
34408.71068823859
 21
28815.15633112583
 31
0.0
  0
LINE
  5
7D2
330
1F
100
AcDbEntity
  8
外形線
100
AcDbLine
 10
34413.71068823859
 20
28815.15633112583
 30
0.0
 11
34420.96068823859
 21
28815.15633112583
 31
0.0
  0
LINE
  5
7D3
330
1F
100
AcDbEntity
  8
外形線
100
AcDbLine
 10
34401.46068823858
 20
28805.15633112583
 30
0.0
 11
34420.96068823859
 21
28805.15633112583
 31
0.0
  0
LINE
  5
7D4
330
1F
100
AcDbEntity
  8
外形線
100
AcDbLine
 10
34402.21068823859
 20
28840.90633112583
 30
0.0
 11
34402.21068823859
 21
28830.40633112583
 31
0.0
  0
LINE
  5
7D5
330
1F
100
AcDbEntity
  8
外形線
100
AcDbLine
 10
34406.71068823859
 20
28840.90633112583
 30
0.0
 11
34406.71068823859
 21
28830.40633112583
 31
0.0
  0
ARC
  5
7D6
330
1F
100
AcDbEntity
  8
外形線
100
AcDbCircle
 10
34404.4606882386
 20
28840.90633112583
 30
0.0
 40
2.250000000007275
100
AcDbArc
 50
0.0
 51
180.0
  0
ARC
  5
7D7
330
1F
100
AcDbEntity
  8
外形線
100
AcDbCircle
 10
34404.4606882386
 20
28830.40633112583
 30
0.0
 40
2.250000000007275
100
AcDbArc
 50
180.0
 51
0.0
  0
LINE
  5
7D8
330
1F
100
AcDbEntity
  8
外形線
100
AcDbLine
 10
34415.71068823858
 20
28840.90633112583
 30
0.0
 11
34415.71068823858
 21
28830.40633112583
 31
0.0
  0
LINE
  5
7D9
330
1F
100
AcDbEntity
  8
外形線
100
AcDbLine
 10
34420.21068823858
 20
28840.90633112583
 30
0.0
 11
34420.21068823858
 21
28830.40633112583
 31
0.0
  0
ARC
  5
7DA
330
1F
100
AcDbEntity
  8
外形線
100
AcDbCircle
 10
34417.96068823859
 20
28840.90633112583
 30
0.0
 40
2.250000000007275
100
AcDbArc
 50
0.0
 51
180.0
  0
ARC
  5
7DB
330
1F
100
AcDbEntity
  8
外形線
100
AcDbCircle
 10
34417.96068823859
 20
28830.40633112583
 30
0.0
 40
2.250000000007275
100
AcDbArc
 50
180.0
 51
0.0
  0
XLINE
  5
7E4
330
1F
100
AcDbEntity
  8
オフセット
100
AcDbXline
 10
32915.44093491146
 20
28102.11527306976
 30
0.0
 11
-1.0
 21
0.0
 31
0.0
  0
LINE
  5
86A
330
1F
100
AcDbEntity
  8
外形線
100
AcDbLine
 10
34431.71068823858
 20
28799.15633112583
 30
0.0
 11
34387.71068823858
 21
28799.15633112583
 31
0.0
  0
ARC
  5
86B
330
1F
100
AcDbEntity
  8
外形線
100
AcDbCircle
 10
34431.71068823858
 20
28798.65633112583
 30
0.0
 40
0.5
100
AcDbArc
 50
0.0
 51
90.0
  0
LINE
  5
86C
330
1F
100
AcDbEntity
  8
外形線
100
AcDbLine
 10
34387.21068823858
 20
28798.65633112583
 30
0.0
 11
34387.21068823858
 21
28779.65633112582
 31
0.0
  0
ARC
  5
86D
102
{ACAD_REACTORS
330
C85
102
}
330
1F
100
AcDbEntity
  8
外形線
100
AcDbCircle
 10
34387.71068823858
 20
28798.65633112583
 30
0.0
 40
0.5
100
AcDbArc
 50
90.0
 51
180.0
  0
LINE
  5
86E
330
1F
100
AcDbEntity
  8
外形線
100
AcDbLine
 10
34387.71068823858
 20
28779.15633112582
 30
0.0
 11
34394.21068823859
 21
28779.15633112582
 31
0.0
  0
ARC
  5
86F
330
1F
100
AcDbEntity
  8
外形線
100
AcDbCircle
 10
34387.71068823858
 20
28779.65633112582
 30
0.0
 40
0.5
100
AcDbArc
 50
180.0
 51
270.0
  0
LINE
  5
870
102
{ACAD_REACTORS
330
C85
102
}
330
1F
100
AcDbEntity
  8
外形線
100
AcDbLine
 10
34432.21068823858
 20
28779.65633112582
 30
0.0
 11
34432.21068823858
 21
28798.65633112583
 31
0.0
  0
ARC
  5
871
330
1F
100
AcDbEntity
  8
外形線
100
AcDbCircle
 10
34431.71068823858
 20
28779.65633112582
 30
0.0
 40
0.5
100
AcDbArc
 50
270.0
 51
0.0
  0
LINE
  5
872
330
1F
100
AcDbEntity
  8
中心線
 48
0.05
100
AcDbLine
 10
34416.21068823859
 20
28796.15633112583
 30
0.0
 11
34416.21068823859
 21
28802.15633112582
 31
0.0
  0
XLINE
  5
873
330
1F
100
AcDbEntity
  8
オフセット
100
AcDbXline
 10
32915.44093491146
 20
28273.73237812786
 30
0.0
 11
-1.0
 21
0.0
 31
0.0
  0
LINE
  5
89C
330
1F
100
AcDbEntity
  8
外形線
100
AcDbLine
 10
33724.21068823861
 20
28979.65633112582
 30
0.0
 11
33724.21068823861
 21
28987.15633112582
 31
0.0
  0
ARC
  5
89D
330
1F
100
AcDbEntity
  8
外形線
100
AcDbCircle
 10
33724.71068823861
 20
28979.65633112582
 30
0.0
 40
0.5
100
AcDbArc
 50
180.0
 51
270.0
  0
ARC
  5
89E
330
1F
100
AcDbEntity
  8
外形線
100
AcDbCircle
 10
33724.71068823861
 20
29023.65633112582
 30
0.0
 40
0.5
100
AcDbArc
 50
90.0
 51
180.0
  0
LINE
  5
89F
330
1F
100
AcDbEntity
  8
外形線
100
AcDbLine
 10
33724.71068823861
 20
29024.15633112583
 30
0.0
 11
33745.71068823861
 21
29024.15633112583
 31
0.0
  0
ARC
  5
8A2
330
1F
100
AcDbEntity
  8
外形線
100
AcDbCircle
 10
33745.71068823861
 20
28979.65633112582
 30
0.0
 40
0.5
100
AcDbArc
 50
270.0
 51
0.0
  0
LINE
  5
8A3
330
1F
100
AcDbEntity
  8
外形線
100
AcDbLine
 10
33745.71068823861
 20
28979.15633112583
 30
0.0
 11
33724.71068823861
 21
28979.15633112583
 31
0.0
  0
ARC
  5
8A7
330
1F
100
AcDbEntity
  8
外形線
100
AcDbCircle
 10
33757.71068823861
 20
29023.65633112582
 30
0.0
 40
0.5
100
AcDbArc
 50
0.0
 51
90.0
  0
LINE
  5
8A8
330
1F
100
AcDbEntity
  8
外形線
100
AcDbLine
 10
33757.71068823861
 20
29024.15633112583
 30
0.0
 11
33745.71068823861
 21
29024.15633112583
 31
0.0
  0
LINE
  5
8C4
330
1F
100
AcDbEntity
  8
外形線
100
AcDbLine
 10
33724.21068823861
 20
29011.15633112583
 30
0.0
 11
33724.21068823861
 21
29023.65633112582
 31
0.0
  0
LINE
  5
8C5
330
1F
100
AcDbEntity
  8
外形線
100
AcDbLine
 10
33746.21068823861
 20
28987.15633112582
 30
0.0
 11
33746.21068823861
 21
28979.65633112582
 31
0.0
  0
LINE
  5
8C6
330
1F
100
AcDbEntity
  8
外形線
100
AcDbLine
 10
33758.21068823861
 20
29011.15633112583
 30
0.0
 11
33758.21068823861
 21
29023.65633112582
 31
0.0
  0
LINE
  5
906
330
1F
100
AcDbEntity
  8
外形線
100
AcDbLine
 10
33835.41068823859
 20
29015.15633112581
 30
0.0
 11
33835.41068823859
 21
29011.15633112581
 31
0.0
  0
ARC
  5
907
330
1F
100
AcDbEntity
  8
外形線
100
AcDbCircle
 10
33836.41068823859
 20
29015.15633112581
 30
0.0
 40
1.0
100
AcDbArc
 50
90.0
 51
180.0
  0
LINE
  5
908
330
1F
100
AcDbEntity
  8
外形線
100
AcDbLine
 10
33836.41068823859
 20
28982.15633112581
 30
0.0
 11
33961.41068823859
 21
28982.15633112581
 31
0.0
  0
ARC
  5
909
330
1F
100
AcDbEntity
  8
外形線
100
AcDbCircle
 10
33836.41068823859
 20
28983.15633112581
 30
0.0
 40
1.0
100
AcDbArc
 50
180.0
 51
270.0
  0
LINE
  5
90A
330
1F
100
AcDbEntity
  8
外形線
100
AcDbLine
 10
33962.41068823859
 20
28983.15633112581
 30
0.0
 11
33962.41068823859
 21
28987.15633112582
 31
0.0
  0
ARC
  5
90B
330
1F
100
AcDbEntity
  8
外形線
100
AcDbCircle
 10
33961.41068823859
 20
28983.15633112581
 30
0.0
 40
1.0
100
AcDbArc
 50
270.0
 51
0.0
  0
LINE
  5
90C
330
1F
100
AcDbEntity
  8
外形線
100
AcDbLine
 10
33961.41068823859
 20
29016.15633112581
 30
0.0
 11
33836.41068823859
 21
29016.15633112581
 31
0.0
  0
ARC
  5
90D
330
1F
100
AcDbEntity
  8
外形線
100
AcDbCircle
 10
33961.41068823859
 20
29015.15633112581
 30
0.0
 40
1.0
100
AcDbArc
 50
0.0
 51
90.0
  0
LINE
  5
93A
330
1F
100
AcDbEntity
  8
外形線
100
AcDbLine
 10
33835.41068823859
 20
28987.15633112582
 30
0.0
 11
33835.41068823859
 21
28983.15633112581
 31
0.0
  0
LINE
  5
93B
330
1F
100
AcDbEntity
  8
外形線
100
AcDbLine
 10
33962.41068823859
 20
29011.15633112581
 30
0.0
 11
33962.41068823859
 21
29015.15633112581
 31
0.0
  0
LINE
  5
981
330
1F
100
AcDbEntity
  8
外形線
100
AcDbLine
 10
34428.21068823858
 20
28799.15633112583
 30
0.0
 11
34428.21068823858
 21
28775.15633112583
 31
0.0
  0
LINE
  5
982
102
{ACAD_REACTORS
330
CE9
102
}
330
1F
100
AcDbEntity
  8
外形線
100
AcDbLine
 10
34427.21068823859
 20
28774.15633112583
 30
0.0
 11
34395.21068823859
 21
28774.15633112583
 31
0.0
  0
ARC
  5
983
330
1F
100
AcDbEntity
  8
外形線
100
AcDbCircle
 10
34395.21068823859
 20
28775.15633112583
 30
0.0
 40
1.0
100
AcDbArc
 50
180.0
 51
270.0
  0
ARC
  5
984
330
1F
100
AcDbEntity
  8
外形線
100
AcDbCircle
 10
34427.21068823859
 20
28775.15633112583
 30
0.0
 40
1.0
100
AcDbArc
 50
270.0
 51
0.0
  0
LINE
  5
985
330
1F
100
AcDbEntity
  8
外形線
100
AcDbLine
 10
34394.21068823859
 20
28775.15633112583
 30
0.0
 11
34394.21068823859
 21
28799.15633112583
 31
0.0
  0
LINE
  5
986
330
1F
100
AcDbEntity
  8
外形線
100
AcDbLine
 10
34394.21068823859
 20
28799.15633112583
 30
0.0
 11
34428.21068823858
 21
28799.15633112583
 31
0.0
  0
ARC
  5
98D
330
1F
100
AcDbEntity
  8
外形線
100
AcDbCircle
 10
34410.06723788991
 20
28795.09690618394
 30
0.0
 40
6.479445445243836
100
AcDbArc
 50
322.5430267977124
 51
0.5254841836972259
  0
LINE
  5
98E
330
1F
100
AcDbEntity
  8
外形線
100
AcDbLine
 10
34415.21068823859
 20
28791.15633112582
 30
0.0
 11
34417.21068823859
 21
28791.15633112582
 31
0.0
  0
LINE
  5
98F
330
1F
100
AcDbEntity
  8
外形線
100
AcDbLine
 10
34417.21068823859
 20
28791.15633112582
 30
0.0
 11
34417.21068823859
 21
28795.15633112582
 31
0.0
  0
LINE
  5
990
330
1F
100
AcDbEntity
  8
外形線
100
AcDbLine
 10
34415.21068823859
 20
28795.15633112582
 30
0.0
 11
34415.21068823859
 21
28791.15633112582
 31
0.0
  0
ARC
  5
991
330
1F
100
AcDbEntity
  8
外形線
100
AcDbCircle
 10
34412.35413858726
 20
28795.09690618394
 30
0.0
 40
6.479445445243836
100
AcDbArc
 50
179.4745158163028
 51
217.456973202255
  0
LINE
  5
992
330
1F
100
AcDbEntity
  8
外形線
100
AcDbLine
 10
34407.21068823858
 20
28791.15633112582
 30
0.0
 11
34405.21068823858
 21
28791.15633112582
 31
0.0
  0
LINE
  5
993
330
1F
100
AcDbEntity
  8
外形線
100
AcDbLine
 10
34405.21068823858
 20
28791.15633112582
 30
0.0
 11
34405.21068823858
 21
28795.15633112582
 31
0.0
  0
LINE
  5
994
330
1F
100
AcDbEntity
  8
外形線
100
AcDbLine
 10
34407.21068823858
 20
28795.15633112582
 30
0.0
 11
34407.21068823858
 21
28791.15633112582
 31
0.0
  0
LINE
  5
99A
330
1F
100
AcDbEntity
  8
外形線
100
AcDbLine
 10
34428.21068823858
 20
28779.15633112583
 30
0.0
 11
34431.71068823858
 21
28779.15633112582
 31
0.0
  0
XLINE
  5
9A0
330
1F
100
AcDbEntity
  8
オフセット
100
AcDbXline
 10
32915.44093491146
 20
28288.23237812785
 30
0.0
 11
-1.0
 21
0.0
 31
0.0
  0
XLINE
  5
9A1
330
1F
100
AcDbEntity
  8
オフセット
100
AcDbXline
 10
32915.44093491146
 20
28259.23237812785
 30
0.0
 11
-1.0
 21
0.0
 31
0.0
  0
XLINE
  5
9A2
330
1F
100
AcDbEntity
  8
オフセット
100
AcDbXline
 10
32915.44093491146
 20
28288.73237812786
 30
0.0
 11
-1.0
 21
0.0
 31
0.0
  0
XLINE
  5
9A3
330
1F
100
AcDbEntity
  8
オフセット
100
AcDbXline
 10
32915.44093491146
 20
28258.73237812785
 30
0.0
 11
-1.0
 21
0.0
 31
0.0
  0
XLINE
  5
9A6
330
1F
100
AcDbEntity
  8
オフセット
100
AcDbXline
 10
32915.44093491146
 20
28289.23237812785
 30
0.0
 11
-1.0
 21
0.0
 31
0.0
  0
XLINE
  5
9A7
330
1F
100
AcDbEntity
  8
オフセット
100
AcDbXline
 10
32915.44093491146
 20
28258.23237812786
 30
0.0
 11
-1.0
 21
0.0
 31
0.0
  0
XLINE
  5
9C5
330
1F
100
AcDbEntity
  8
オフセット
100
AcDbXline
 10
32930.94093491146
 20
27902.11527306976
 30
0.0
 11
0.0
 21
-1.0
 31
0.0
  0
LINE
  5
B1F
330
1F
100
AcDbEntity
  8
枠線
100
AcDbLine
 10
34528.24093491148
 20
28322.23237812787
 30
0.0
 11
34528.24093491148
 21
28712.23237812787
 31
0.0
  0
LINE
  5
B20
330
1F
100
AcDbEntity
  8
枠線
100
AcDbLine
 10
34528.24093491148
 20
28712.23237812787
 30
0.0
 11
34948.24093491148
 21
28712.23237812787
 31
0.0
  0
LINE
  5
B21
330
1F
100
AcDbEntity
  8
枠線
100
AcDbLine
 10
34528.24093491148
 20
28364.23237812787
 30
0.0
 11
34948.24093491148
 21
28364.23237812787
 31
0.0
  0
LINE
  5
B22
330
1F
100
AcDbEntity
  8
枠線
100
AcDbLine
 10
34528.24093491148
 20
28406.23237812787
 30
0.0
 11
34948.24093491148
 21
28406.23237812787
 31
0.0
  0
LINE
  5
B23
330
1F
100
AcDbEntity
  8
枠線
100
AcDbLine
 10
34528.24093491148
 20
28448.23237812787
 30
0.0
 11
34948.24093491148
 21
28448.23237812787
 31
0.0
  0
LINE
  5
B24
330
1F
100
AcDbEntity
  8
枠線
100
AcDbLine
 10
34528.24093491148
 20
28490.23237812787
 30
0.0
 11
34948.24093491148
 21
28490.23237812787
 31
0.0
  0
LINE
  5
B25
330
1F
100
AcDbEntity
  8
枠線
100
AcDbLine
 10
34528.24093491148
 20
28532.23237812787
 30
0.0
 11
34948.24093491148
 21
28532.23237812787
 31
0.0
  0
LINE
  5
B26
330
1F
100
AcDbEntity
  8
枠線
100
AcDbLine
 10
34528.24093491148
 20
28574.23237812787
 30
0.0
 11
34948.24093491148
 21
28574.23237812787
 31
0.0
  0
LINE
  5
B27
330
1F
100
AcDbEntity
  8
枠線
100
AcDbLine
 10
34528.24093491148
 20
28616.23237812787
 30
0.0
 11
34948.24093491148
 21
28616.23237812787
 31
0.0
  0
LINE
  5
B28
330
1F
100
AcDbEntity
  8
枠線
100
AcDbLine
 10
34528.24093491148
 20
28658.23237812787
 30
0.0
 11
34948.24093491148
 21
28658.23237812787
 31
0.0
  0
LINE
  5
B29
330
1F
100
AcDbEntity
  8
枠線
100
AcDbLine
 10
34630.24093491148
 20
28712.23237812787
 30
0.0
 11
34630.24093491148
 21
28322.23237812787
 31
0.0
  0
LINE
  5
B2A
330
1F
100
AcDbEntity
  8
枠線
100
AcDbLine
 10
34636.24093491147
 20
28712.23237812787
 30
0.0
 11
34636.24093491147
 21
28322.23237812787
 31
0.0
  0
LINE
  5
B2B
330
1F
100
AcDbEntity
  8
枠線
100
AcDbLine
 10
34696.24093491148
 20
28448.23237812787
 30
0.0
 11
34696.24093491148
 21
28406.23237812787
 31
0.0
  0
LINE
  5
B2C
330
1F
100
AcDbEntity
  8
枠線
100
AcDbLine
 10
34702.24093491148
 20
28448.23237812787
 30
0.0
 11
34702.24093491148
 21
28406.23237812787
 31
0.0
  0
LINE
  5
B2D
330
1F
100
AcDbEntity
  8
枠線
100
AcDbLine
 10
34822.24093491148
 20
28448.23237812787
 30
0.0
 11
34822.24093491148
 21
28406.23237812787
 31
0.0
  0
LINE
  5
B2E
330
1F
100
AcDbEntity
  8
枠線
100
AcDbLine
 10
34828.24093491148
 20
28448.23237812787
 30
0.0
 11
34828.24093491148
 21
28406.23237812787
 31
0.0
  0
LINE
  5
B2F
330
1F
100
AcDbEntity
  8
枠線
100
AcDbLine
 10
34888.24093491148
 20
28448.23237812787
 30
0.0
 11
34888.24093491148
 21
28406.23237812787
 31
0.0
  0
LINE
  5
B30
330
1F
100
AcDbEntity
  8
枠線
100
AcDbLine
 10
34762.24093491147
 20
28448.23237812787
 30
0.0
 11
34762.24093491147
 21
28406.23237812787
 31
0.0
  0
LINE
  5
B31
330
1F
100
AcDbEntity
  8
枠線
100
AcDbLine
 10
34468.24093491148
 20
29444.23237812787
 30
0.0
 11
34468.24093491148
 21
29204.23237812787
 31
0.0
  0
LINE
  5
B32
330
1F
100
AcDbEntity
  8
枠線
100
AcDbLine
 10
34528.24093491148
 20
29444.23237812787
 30
0.0
 11
34528.24093491148
 21
29204.23237812787
 31
0.0
  0
LINE
  5
B33
330
1F
100
AcDbEntity
  8
枠線
100
AcDbLine
 10
34534.24093491148
 20
29204.23237812787
 30
0.0
 11
34534.24093491148
 21
29444.23237812787
 31
0.0
  0
LINE
  5
B34
330
1F
100
AcDbEntity
  8
枠線
100
AcDbLine
 10
34468.24093491148
 20
29384.23237812787
 30
0.0
 11
34948.24093491148
 21
29384.23237812787
 31
0.0
  0
LINE
  5
B35
330
1F
100
AcDbEntity
  8
枠線
100
AcDbLine
 10
34468.24093491148
 20
29348.23237812787
 30
0.0
 11
34948.24093491148
 21
29348.23237812787
 31
0.0
  0
LINE
  5
B36
330
1F
100
AcDbEntity
  8
枠線
100
AcDbLine
 10
34468.24093491148
 20
29312.23237812787
 30
0.0
 11
34948.24093491148
 21
29312.23237812787
 31
0.0
  0
LINE
  5
B37
330
1F
100
AcDbEntity
  8
枠線
100
AcDbLine
 10
34468.24093491148
 20
29276.23237812787
 30
0.0
 11
34948.24093491148
 21
29276.23237812787
 31
0.0
  0
LINE
  5
B38
330
1F
100
AcDbEntity
  8
枠線
100
AcDbLine
 10
34468.24093491148
 20
29240.23237812787
 30
0.0
 11
34948.24093491148
 21
29240.23237812787
 31
0.0
  0
LINE
  5
B39
330
1F
100
AcDbEntity
  8
枠線
100
AcDbLine
 10
34468.24093491148
 20
29204.23237812787
 30
0.0
 11
34948.24093491148
 21
29204.23237812787
 31
0.0
  0
LINE
  5
B3A
330
1F
100
AcDbEntity
  8
枠線
100
AcDbLine
 10
34714.24093491147
 20
29444.23237812787
 30
0.0
 11
34714.24093491147
 21
29204.23237812787
 31
0.0
  0
LINE
  5
B3B
330
1F
100
AcDbEntity
  8
枠線
100
AcDbLine
 10
34831.24093491148
 20
29444.23237812787
 30
0.0
 11
34831.24093491148
 21
29204.23237812787
 31
0.0
  0
LINE
  5
B3C
330
1F
100
AcDbEntity
  8
外形線
100
AcDbLine
 10
33346.24093491147
 20
29462.23237812787
 30
0.0
 11
33346.24093491147
 21
28304.23237812787
 31
0.0
  0
LINE
  5
B3D
330
1F
100
AcDbEntity
  8
外形線
100
AcDbLine
 10
34966.24093491148
 20
29462.23237812787
 30
0.0
 11
33346.24093491147
 21
29462.23237812787
 31
0.0
  0
LINE
  5
B3E
330
1F
100
AcDbEntity
  8
枠線
100
AcDbLine
 10
33364.24093491148
 20
29444.23237812787
 30
0.0
 11
33364.24093491148
 21
28322.23237812787
 31
0.0
  0
LINE
  5
B3F
330
1F
100
AcDbEntity
  8
枠線
100
AcDbLine
 10
33364.24093491148
 20
28322.23237812787
 30
0.0
 11
34948.24093491148
 21
28322.23237812787
 31
0.0
  0
LINE
  5
B40
330
1F
100
AcDbEntity
  8
枠線
100
AcDbLine
 10
34948.24093491148
 20
28322.23237812787
 30
0.0
 11
34948.24093491148
 21
29444.23237812787
 31
0.0
  0
LINE
  5
B41
330
1F
100
AcDbEntity
  8
枠線
100
AcDbLine
 10
34948.24093491148
 20
29444.23237812787
 30
0.0
 11
33364.24093491148
 21
29444.23237812787
 31
0.0
  0
LINE
  5
B42
330
1F
100
AcDbEntity
  8
枠線
100
AcDbLine
 10
34462.24093491148
 20
29444.23237812787
 30
0.0
 11
34462.24093491148
 21
29204.23237812787
 31
0.0
  0
LINE
  5
B43
330
1F
100
AcDbEntity
  8
枠線
100
AcDbLine
 10
34468.24093491148
 20
29204.23237812787
 30
0.0
 11
34468.24093491148
 21
29444.23237812787
 31
0.0
  0
LINE
  5
B44
330
1F
100
AcDbEntity
  8
枠線
100
AcDbLine
 10
33982.24093491148
 20
29444.23237812787
 30
0.0
 11
33982.24093491148
 21
29204.23237812787
 31
0.0
  0
LINE
  5
B45
330
1F
100
AcDbEntity
  8
枠線
100
AcDbLine
 10
34042.24093491148
 20
29444.23237812787
 30
0.0
 11
34042.24093491148
 21
29204.23237812787
 31
0.0
  0
LINE
  5
B46
330
1F
100
AcDbEntity
  8
枠線
100
AcDbLine
 10
34048.24093491148
 20
29204.23237812787
 30
0.0
 11
34048.24093491148
 21
29444.23237812787
 31
0.0
  0
LINE
  5
B47
330
1F
100
AcDbEntity
  8
枠線
100
AcDbLine
 10
33982.24093491148
 20
29384.23237812787
 30
0.0
 11
34462.24093491148
 21
29384.23237812787
 31
0.0
  0
LINE
  5
B48
330
1F
100
AcDbEntity
  8
枠線
100
AcDbLine
 10
33982.24093491148
 20
29348.23237812787
 30
0.0
 11
34462.24093491148
 21
29348.23237812787
 31
0.0
  0
LINE
  5
B49
330
1F
100
AcDbEntity
  8
枠線
100
AcDbLine
 10
33982.24093491148
 20
29312.23237812787
 30
0.0
 11
34462.24093491148
 21
29312.23237812787
 31
0.0
  0
LINE
  5
B4A
330
1F
100
AcDbEntity
  8
枠線
100
AcDbLine
 10
33982.24093491148
 20
29276.23237812787
 30
0.0
 11
34462.24093491148
 21
29276.23237812787
 31
0.0
  0
LINE
  5
B4B
330
1F
100
AcDbEntity
  8
枠線
100
AcDbLine
 10
33982.24093491148
 20
29240.23237812787
 30
0.0
 11
34462.24093491148
 21
29240.23237812787
 31
0.0
  0
LINE
  5
B4C
330
1F
100
AcDbEntity
  8
枠線
100
AcDbLine
 10
33982.24093491148
 20
29204.23237812787
 30
0.0
 11
34462.24093491148
 21
29204.23237812787
 31
0.0
  0
LINE
  5
B4D
330
1F
100
AcDbEntity
  8
枠線
100
AcDbLine
 10
34228.24093491148
 20
29444.23237812787
 30
0.0
 11
34228.24093491148
 21
29204.23237812787
 31
0.0
  0
LINE
  5
B4E
330
1F
100
AcDbEntity
  8
枠線
100
AcDbLine
 10
34345.24093491148
 20
29444.23237812787
 30
0.0
 11
34345.24093491148
 21
29204.23237812787
 31
0.0
  0
LINE
  5
B4F
330
1F
100
AcDbEntity
  8
枠線
100
AcDbLine
 10
33982.24093491148
 20
29204.23237812787
 30
0.0
 11
33982.24093491148
 21
29444.23237812787
 31
0.0
  0
LINE
  5
B50
330
1F
100
AcDbEntity
  8
外形線
100
AcDbLine
 10
34966.24093491148
 20
29462.23237812787
 30
0.0
 11
34966.24093491148
 21
28304.23237812787
 31
0.0
  0
LINE
  5
B51
330
1F
100
AcDbEntity
  8
外形線
100
AcDbLine
 10
34966.24093491148
 20
28304.23237812787
 30
0.0
 11
33346.24093491147
 21
28304.23237812787
 31
0.0
  0
MTEXT
  5
B52
330
1F
100
AcDbEntity
  8
寸法線
100
AcDbMText
 10
34137.11638898822
 20
29414.1938412054
 30
0.0
 40
30.00000000000001
 41
174.8674808517826
 46
0.0
 71
     5
 72
     5
  1
{\fMS PGothic|b0|i0|c128|p50;部品名}
 73
     1
 44
1.0
1001
ACAD
1000
ACAD_MTEXT_COLUMN_INFO_BEGIN
1070
    75
1070
     2
1070
    79
1070
     0
1070
    76
1070
     1
1070
    78
1070
     0
1070
    48
1040
174.8674808517826
1070
    49
1040
12.5
1070
    50
1070
     1
1040
0.0
1000
ACAD_MTEXT_COLUMN_INFO_END
  0
MTEXT
  5
B53
330
1F
100
AcDbEntity
  8
寸法線
100
AcDbMText
 10
34285.61638898813
 20
29414.27906847816
 30
0.0
 40
30.00000000000001
 41
109.1764692682045
 46
0.0
 71
     5
 72
     5
  1
{\fMS PGothic|b0|i0|c128|p50;材質}
 73
     1
 44
1.0
1001
ACAD
1000
ACAD_MTEXT_COLUMN_INFO_BEGIN
1070
    75
1070
     2
1070
    79
1070
     0
1070
    76
1070
     1
1070
    78
1070
     0
1070
    48
1040
109.1764692682045
1070
    49
1040
12.5
1070
    50
1070
     1
1040
0.0
1000
ACAD_MTEXT_COLUMN_INFO_END
  0
MTEXT
  5
B54
330
1F
100
AcDbEntity
  8
寸法線
100
AcDbMText
 10
34402.61638898822
 20
29414.10861393269
 30
0.0
 40
30.00000000000001
 41
115.2368875816973
 46
0.0
 71
     5
 72
     5
  1
{\fMS PGothic|b0|i0|c128|p50;摘要}
 73
     1
 44
1.0
1001
ACAD
1000
ACAD_MTEXT_COLUMN_INFO_BEGIN
1070
    75
1070
     2
1070
    79
1070
     0
1070
    76
1070
     1
1070
    78
1070
     0
1070
    48
1040
115.2368875816973
1070
    49
1040
12.5
1070
    50
1070
     1
1040
0.0
1000
ACAD_MTEXT_COLUMN_INFO_END
  0
MTEXT
  5
B55
330
1F
100
AcDbEntity
  8
寸法線
100
AcDbMText
 10
34013.36548083485
 20
29413.02691770291
 30
0.0
 40
18.0
 41
10.0
 46
0.0
 71
     5
 72
     5
  1
{\fMS PGothic|b0|i0|c128|p50;部番}
 73
     1
 44
1.0
1001
ACAD
1000
ACAD_MTEXT_COLUMN_INFO_BEGIN
1070
    75
1070
     2
1070
    79
1070
     0
1070
    76
1070
     1
1070
    78
1070
     0
1070
    48
1040
10.0
1070
    49
1040
12.5
1070
    50
1070
     1
1040
0.0
1000
ACAD_MTEXT_COLUMN_INFO_END
  0
MTEXT
  5
B56
330
1F
100
AcDbEntity
  8
寸法線
100
AcDbMText
 10
34012.24093491148
 20
29366.24465360855
 30
0.0
 40
21.00000000000001
 41
10.0
 46
0.0
 71
     5
 72
     5
  1
{\fMS PGothic|b0|i0|c128|p50;①}
 73
     1
 44
1.0
1001
ACAD
1000
ACAD_MTEXT_COLUMN_INFO_BEGIN
1070
    75
1070
     2
1070
    79
1070
     0
1070
    76
1070
     1
1070
    78
1070
     0
1070
    48
1040
10.0
1070
    49
1040
12.5
1070
    50
1070
     1
1040
0.0
1000
ACAD_MTEXT_COLUMN_INFO_END
  0
MTEXT
  5
B57
330
1F
100
AcDbEntity
  8
寸法線
100
AcDbMText
 10
34012.24093491148
 20
29330.24465360855
 30
0.0
 40
21.00000000000001
 41
10.0
 46
0.0
 71
     5
 72
     5
  1
{\fMS PGothic|b0|i0|c128|p50;②}
 73
     1
 44
1.0
1001
ACAD
1000
ACAD_MTEXT_COLUMN_INFO_BEGIN
1070
    75
1070
     2
1070
    79
1070
     0
1070
    76
1070
     1
1070
    78
1070
     0
1070
    48
1040
10.0
1070
    49
1040
12.5
1070
    50
1070
     1
1040
0.0
1000
ACAD_MTEXT_COLUMN_INFO_END
  0
MTEXT
  5
B58
330
1F
100
AcDbEntity
  8
寸法線
100
AcDbMText
 10
34012.24093491148
 20
29294.24465360858
 30
0.0
 40
21.00000000000001
 41
10.0
 46
0.0
 71
     5
 72
     5
  1
{\fMS PGothic|b0|i0|c128|p50;③}
 73
     1
 44
1.0
1001
ACAD
1000
ACAD_MTEXT_COLUMN_INFO_BEGIN
1070
    75
1070
     2
1070
    79
1070
     0
1070
    76
1070
     1
1070
    78
1070
     0
1070
    48
1040
10.0
1070
    49
1040
12.5
1070
    50
1070
     1
1040
0.0
1000
ACAD_MTEXT_COLUMN_INFO_END
  0
MTEXT
  5
B59
330
1F
100
AcDbEntity
  8
寸法線
100
AcDbMText
 10
34012.24093491148
 20
29258.24465360855
 30
0.0
 40
21.00000000000001
 41
10.0
 46
0.0
 71
     5
 72
     5
  1
{\fMS PGothic|b0|i0|c128|p50;④}
 73
     1
 44
1.0
1001
ACAD
1000
ACAD_MTEXT_COLUMN_INFO_BEGIN
1070
    75
1070
     2
1070
    79
1070
     0
1070
    76
1070
     1
1070
    78
1070
     0
1070
    48
1040
10.0
1070
    49
1040
12.5
1070
    50
1070
     1
1040
0.0
1000
ACAD_MTEXT_COLUMN_INFO_END
  0
MTEXT
  5
B5A
330
1F
100
AcDbEntity
  8
寸法線
100
AcDbMText
 10
34012.24093491148
 20
29222.24465360855
 30
0.0
 40
21.00000000000001
 41
10.0
 46
0.0
 71
     5
 72
     5
  1
{\fMS PGothic|b0|i0|c128|p50;⑤}
 73
     1
 44
1.0
1001
ACAD
1000
ACAD_MTEXT_COLUMN_INFO_BEGIN
1070
    75
1070
     2
1070
    79
1070
     0
1070
    76
1070
     1
1070
    78
1070
     0
1070
    48
1040
10.0
1070
    49
1040
12.5
1070
    50
1070
     1
1040
0.0
1000
ACAD_MTEXT_COLUMN_INFO_END
  0
MTEXT
  5
B5B
330
1F
100
AcDbEntity
  8
寸法線
100
AcDbMText
 10
34623.11638898813
 20
29414.1938412054
 30
0.0
 40
30.00000000000001
 41
208.789682174116
 46
0.0
 71
     5
 72
     5
  1
{\fMS PGothic|b0|i0|c128|p50;部品名}
 73
     1
 44
1.0
1001
ACAD
1000
ACAD_MTEXT_COLUMN_INFO_BEGIN
1070
    75
1070
     2
1070
    79
1070
     0
1070
    76
1070
     1
1070
    78
1070
     0
1070
    48
1040
208.789682174116
1070
    49
1040
12.5
1070
    50
1070
     1
1040
0.0
1000
ACAD_MTEXT_COLUMN_INFO_END
  0
MTEXT
  5
B5C
330
1F
100
AcDbEntity
  8
寸法線
100
AcDbMText
 10
34771.61638898813
 20
29414.27906847816
 30
0.0
 40
30.00000000000001
 41
121.2416595124814
 46
0.0
 71
     5
 72
     5
  1
{\fMS PGothic|b0|i0|c128|p50;材質}
 73
     1
 44
1.0
1001
ACAD
1000
ACAD_MTEXT_COLUMN_INFO_BEGIN
1070
    75
1070
     2
1070
    79
1070
     0
1070
    76
1070
     1
1070
    78
1070
     0
1070
    48
1040
121.2416595124814
1070
    49
1040
12.5
1070
    50
1070
     1
1040
0.0
1000
ACAD_MTEXT_COLUMN_INFO_END
  0
MTEXT
  5
B5D
330
1F
100
AcDbEntity
  8
寸法線
100
AcDbMText
 10
34888.61638898813
 20
29414.10861393269
 30
0.0
 40
30.00000000000001
 41
124.8927565777121
 46
0.0
 71
     5
 72
     5
  1
{\fMS PGothic|b0|i0|c128|p50;摘要}
 73
     1
 44
1.0
1001
ACAD
1000
ACAD_MTEXT_COLUMN_INFO_BEGIN
1070
    75
1070
     2
1070
    79
1070
     0
1070
    76
1070
     1
1070
    78
1070
     0
1070
    48
1040
124.8927565777121
1070
    49
1040
12.5
1070
    50
1070
     1
1040
0.0
1000
ACAD_MTEXT_COLUMN_INFO_END
  0
MTEXT
  5
B5E
330
1F
100
AcDbEntity
  8
寸法線
100
AcDbMText
 10
34499.36548083491
 20
29413.02691770291
 30
0.0
 40
18.0
 41
10.0
 46
0.0
 71
     5
 72
     5
  1
{\fMS PGothic|b0|i0|c128|p50;部番}
 73
     1
 44
1.0
1001
ACAD
1000
ACAD_MTEXT_COLUMN_INFO_BEGIN
1070
    75
1070
     2
1070
    79
1070
     0
1070
    76
1070
     1
1070
    78
1070
     0
1070
    48
1040
10.0
1070
    49
1040
12.5
1070
    50
1070
     1
1040
0.0
1000
ACAD_MTEXT_COLUMN_INFO_END
  0
MTEXT
  5
B5F
330
1F
100
AcDbEntity
  8
寸法線
100
AcDbMText
 10
34498.24093491153
 20
29366.24465360855
 30
0.0
 40
21.00000000000001
 41
10.0
 46
0.0
 71
     5
 72
     5
  1
{\fMS PGothic|b0|i0|c128|p50;⑥}
 73
     1
 44
1.0
1001
ACAD
1000
ACAD_MTEXT_COLUMN_INFO_BEGIN
1070
    75
1070
     2
1070
    79
1070
     0
1070
    76
1070
     1
1070
    78
1070
     0
1070
    48
1040
10.0
1070
    49
1040
12.5
1070
    50
1070
     1
1040
0.0
1000
ACAD_MTEXT_COLUMN_INFO_END
  0
MTEXT
  5
B60
330
1F
100
AcDbEntity
  8
寸法線
100
AcDbMText
 10
34498.24093491153
 20
29330.24465360855
 30
0.0
 40
21.00000000000001
 41
10.0
 46
0.0
 71
     5
 72
     5
  1
{\fMS PGothic|b0|i0|c128|p50;⑦}
 73
     1
 44
1.0
1001
ACAD
1000
ACAD_MTEXT_COLUMN_INFO_BEGIN
1070
    75
1070
     2
1070
    79
1070
     0
1070
    76
1070
     1
1070
    78
1070
     0
1070
    48
1040
10.0
1070
    49
1040
12.5
1070
    50
1070
     1
1040
0.0
1000
ACAD_MTEXT_COLUMN_INFO_END
  0
MTEXT
  5
B61
330
1F
100
AcDbEntity
  8
寸法線
100
AcDbMText
 10
34498.24093491153
 20
29294.24465360858
 30
0.0
 40
21.00000000000001
 41
10.0
 46
0.0
 71
     5
 72
     5
  1
{\fMS PGothic|b0|i0|c128|p50;⑧}
 73
     1
 44
1.0
1001
ACAD
1000
ACAD_MTEXT_COLUMN_INFO_BEGIN
1070
    75
1070
     2
1070
    79
1070
     0
1070
    76
1070
     1
1070
    78
1070
     0
1070
    48
1040
10.0
1070
    49
1040
12.5
1070
    50
1070
     1
1040
0.0
1000
ACAD_MTEXT_COLUMN_INFO_END
  0
MTEXT
  5
B62
330
1F
100
AcDbEntity
  8
寸法線
100
AcDbMText
 10
34498.24093491153
 20
29258.24465360855
 30
0.0
 40
21.00000000000001
 41
10.0
 46
0.0
 71
     5
 72
     5
  1
{\fMS PGothic|b0|i0|c128|p50;⑨}
 73
     1
 44
1.0
1001
ACAD
1000
ACAD_MTEXT_COLUMN_INFO_BEGIN
1070
    75
1070
     2
1070
    79
1070
     0
1070
    76
1070
     1
1070
    78
1070
     0
1070
    48
1040
10.0
1070
    49
1040
12.5
1070
    50
1070
     1
1040
0.0
1000
ACAD_MTEXT_COLUMN_INFO_END
  0
MTEXT
  5
B63
330
1F
100
AcDbEntity
  8
寸法線
100
AcDbMText
 10
34498.24093491153
 20
29222.24465360855
 30
0.0
 40
21.00000000000001
 41
10.0
 46
0.0
 71
     5
 72
     5
  1
{\fMS PGothic|b0|i0|c128|p50;⑩}
 73
     1
 44
1.0
1001
ACAD
1000
ACAD_MTEXT_COLUMN_INFO_BEGIN
1070
    75
1070
     2
1070
    79
1070
     0
1070
    76
1070
     1
1070
    78
1070
     0
1070
    48
1040
10.0
1070
    49
1040
12.5
1070
    50
1070
     1
1040
0.0
1000
ACAD_MTEXT_COLUMN_INFO_END
  0
TEXT
  5
B64
330
1F
100
AcDbEntity
  8
寸法線
100
AcDbText
 10
34642.29498834434
 20
28689.92047589611
 30
0.0
 40
12.9
  1
広告灯内用放電灯器具（LEDランプ用）
100
AcDbText
  0
TEXT
  5
B65
330
1F
100
AcDbEntity
  8
寸法線
100
AcDbText
 10
34642.84125018251
 20
28670.80502638053
 30
0.0
 40
9.0
  1
AC100/200V　　50/60Hz
100
AcDbText
  0
MTEXT
  5
B66
330
1F
100
AcDbEntity
  8
寸法線
100
AcDbMText
 10
34579.24093491147
 20
28635.39930591076
 30
0.0
 40
21.00000000000001
 41
134.5371276319638
 46
0.0
 71
     5
 72
     5
  1
{\fMS PGothic|b0|i0|c128|p50;品名}
 73
     1
 44
1.0
1001
ACAD
1000
ACAD_MTEXT_COLUMN_INFO_BEGIN
1070
    75
1070
     2
1070
    79
1070
     0
1070
    76
1070
     1
1070
    78
1070
     0
1070
    48
1040
134.5371276319638
1070
    49
1040
12.5
1070
    50
1070
     1
1040
0.0
1000
ACAD_MTEXT_COLUMN_INFO_END
  0
MTEXT
  5
B67
330
1F
100
AcDbEntity
  8
寸法線
100
AcDbMText
 10
34579.24093491147
 20
28593.33964681988
 30
0.0
 40
21.00000000000001
 41
107.3977478795059
 46
0.0
 71
     5
 72
     5
  1
{\fMS PGothic|b0|i0|c128|p50;型番}
 73
     1
 44
1.0
1001
ACAD
1000
ACAD_MTEXT_COLUMN_INFO_BEGIN
1070
    75
1070
     2
1070
    79
1070
     0
1070
    76
1070
     1
1070
    78
1070
     0
1070
    48
1040
107.3977478795059
1070
    49
1040
12.5
1070
    50
1070
     1
1040
0.0
1000
ACAD_MTEXT_COLUMN_INFO_END
  0
MTEXT
  5
B68
330
1F
100
AcDbEntity
  8
寸法線
100
AcDbMText
 10
34579.24093491147
 20
28551.33964681988
 30
0.0
 40
21.00000000000001
 41
111.0985654956457
 46
0.0
 71
     5
 72
     5
  1
{\fMS PGothic|b0|i0|c128|p50;図番}
 73
     1
 44
1.0
1001
ACAD
1000
ACAD_MTEXT_COLUMN_INFO_BEGIN
1070
    75
1070
     2
1070
    79
1070
     0
1070
    76
1070
     1
1070
    78
1070
     0
1070
    48
1040
111.0985654956457
1070
    49
1040
12.5
1070
    50
1070
     1
1040
0.0
1000
ACAD_MTEXT_COLUMN_INFO_END
  0
MTEXT
  5
B69
330
1F
100
AcDbEntity
  8
寸法線
100
AcDbMText
 10
34579.24093491147
 20
28509.10101045623
 30
0.0
 40
21.00000000000001
 41
79.75
 46
0.0
 71
     5
 72
     5
  1
{\fMS PGothic|b0|i0|c128|p50;尺度}
 73
     1
 44
1.0
1001
ACAD
1000
ACAD_MTEXT_COLUMN_INFO_BEGIN
1070
    75
1070
     2
1070
    79
1070
     0
1070
    76
1070
     1
1070
    78
1070
     0
1070
    48
1040
79.75
1070
    49
1040
12.5
1070
    50
1070
     1
1040
0.0
1000
ACAD_MTEXT_COLUMN_INFO_END
  0
MTEXT
  5
B6A
330
1F
100
AcDbEntity
  8
寸法線
100
AcDbMText
 10
34579.24093491147
 20
28467.75726045623
 30
0.0
 40
21.00000000000001
 41
79.75
 46
0.0
 71
     5
 72
     5
  1
{\fMS PGothic|b0|i0|c128|p50;日付}
 73
     1
 44
1.0
1001
ACAD
1000
ACAD_MTEXT_COLUMN_INFO_BEGIN
1070
    75
1070
     2
1070
    79
1070
     0
1070
    76
1070
     1
1070
    78
1070
     0
1070
    48
1040
79.75
1070
    49
1040
12.5
1070
    50
1070
     1
1040
0.0
1000
ACAD_MTEXT_COLUMN_INFO_END
  0
MTEXT
  5
B6B
330
1F
100
AcDbEntity
  8
寸法線
100
AcDbMText
 10
34579.24093491147
 20
28425.27998772897
 30
0.0
 40
21.00000000000001
 41
79.75
 46
0.0
 71
     5
 72
     5
  1
{\fMS PGothic|b0|i0|c128|p50;設計}
 73
     1
 44
1.0
1001
ACAD
1000
ACAD_MTEXT_COLUMN_INFO_BEGIN
1070
    75
1070
     2
1070
    79
1070
     0
1070
    76
1070
     1
1070
    78
1070
     0
1070
    48
1040
79.75
1070
    49
1040
12.5
1070
    50
1070
     1
1040
0.0
1000
ACAD_MTEXT_COLUMN_INFO_END
  0
MTEXT
  5
B6C
330
1F
100
AcDbEntity
  8
寸法線
100
AcDbMText
 10
34732.24093491154
 20
28427.61862409259
 30
0.0
 40
16.8
 41
77.95127031754964
 46
0.0
 71
     5
 72
     5
  1
{\fMS PGothic|b0|i0|c128|p50;製図}
 73
     1
 44
1.0
1001
ACAD
1000
ACAD_MTEXT_COLUMN_INFO_BEGIN
1070
    75
1070
     2
1070
    79
1070
     0
1070
    76
1070
     1
1070
    78
1070
     0
1070
    48
1040
77.95127031754964
1070
    49
1040
12.5
1070
    50
1070
     1
1040
0.0
1000
ACAD_MTEXT_COLUMN_INFO_END
  0
MTEXT
  5
B6D
330
1F
100
AcDbEntity
  8
寸法線
100
AcDbMText
 10
34858.24093491153
 20
28428.2390786381
 30
0.0
 40
16.8
 41
64.78344696047134
 46
0.0
 71
     5
 72
     5
  1
{\fMS PGothic|b0|i0|c128|p50;承認}
 73
     1
 44
1.0
1001
ACAD
1000
ACAD_MTEXT_COLUMN_INFO_BEGIN
1070
    75
1070
     2
1070
    79
1070
     0
1070
    76
1070
     1
1070
    78
1070
     0
1070
    48
1040
64.78344696047134
1070
    49
1040
12.5
1070
    50
1070
     1
1040
0.0
1000
ACAD_MTEXT_COLUMN_INFO_END
  0
MTEXT
  5
B6E
330
1F
100
AcDbEntity
  8
寸法線
100
AcDbMText
 10
34792.24093491153
 20
28345.02908009996
 30
0.0
 40
21.00000000000001
 41
479.1527611076308
 46
0.0
 71
     5
 72
     5
  1
{\fMS PGothic|b0|i0|c128|p50;高村電機工業株式会社}
 73
     1
 44
1.0
1001
ACAD
1000
ACAD_MTEXT_COLUMN_INFO_BEGIN
1070
    75
1070
     2
1070
    79
1070
     0
1070
    76
1070
     1
1070
    78
1070
     0
1070
    48
1040
479.1527611076308
1070
    49
1040
12.5
1070
    50
1070
     1
1040
0.0
1000
ACAD_MTEXT_COLUMN_INFO_END
  0
MTEXT
  5
B6F
330
1F
100
AcDbEntity
  8
寸法線
100
AcDbMText
 10
34644.66432509464
 20
28656.2275760284
 30
0.0
 40
24.00000000000002
 41
379.4707622710557
 46
0.0
 71
     1
 72
     5
  1
{\fMS PGothic|b0|i0|c128|p50;ゼブライト・V　}30W
 73
     1
 44
1.0
1001
ACAD
1000
ACAD_MTEXT_COLUMN_INFO_BEGIN
1070
    75
1070
     2
1070
    79
1070
     0
1070
    76
1070
     1
1070
    78
1070
     0
1070
    48
1040
379.4707622710557
1070
    49
1040
12.5
1070
    50
1070
     1
1040
0.0
1000
ACAD_MTEXT_COLUMN_INFO_END
  0
MTEXT
  5
B70
330
1F
100
AcDbEntity
  8
寸法線
100
AcDbMText
 10
34645.6002752264
 20
28609.06489565321
 30
0.0
 40
24.00000000000002
 41
326.790400944592
 46
0.0
 71
     1
 72
     5
  1
CST{\fMS PGothic|b0|i0|c128|p50;‐}300KB-V
 73
     1
 44
1.0
1001
ACAD
1000
ACAD_MTEXT_COLUMN_INFO_BEGIN
1070
    75
1070
     2
1070
    79
1070
     0
1070
    76
1070
     1
1070
    78
1070
     0
1070
    48
1040
326.790400944592
1070
    49
1040
12.5
1070
    50
1070
     1
1040
0.0
1000
ACAD_MTEXT_COLUMN_INFO_END
  0
LINE
  5
B71
330
1F
100
AcDbEntity
  8
枠線
100
AcDbLine
 10
34789.24093491148
 20
28532.23237812787
 30
0.0
 11
34789.24093491148
 21
28490.23237812787
 31
0.0
  0
LINE
  5
B72
330
1F
100
AcDbEntity
  8
枠線
100
AcDbLine
 10
34795.24093491148
 20
28532.23237812787
 30
0.0
 11
34795.24093491148
 21
28490.23237812787
 31
0.0
  0
CIRCLE
  5
B73
330
1F
100
AcDbEntity
  8
枠線
100
AcDbCircle
 10
34840.24093491147
 20
28511.23237812787
 30
0.0
 40
12.0
  0
CIRCLE
  5
B74
330
1F
100
AcDbEntity
  8
枠線
100
AcDbCircle
 10
34840.24093491147
 20
28511.23237812787
 30
0.0
 40
6.0
  0
LINE
  5
B75
330
1F
100
AcDbEntity
  8
枠線
100
AcDbLine
 10
34885.24093491148
 20
28517.23237812787
 30
0.0
 11
34885.24093491148
 21
28505.23237812787
 31
0.0
  0
LINE
  5
B76
330
1F
100
AcDbEntity
  8
枠線
100
AcDbLine
 10
34885.24093491148
 20
28505.23237812787
 30
0.0
 11
34915.24093491148
 21
28499.23237812787
 31
0.0
  0
LINE
  5
B77
330
1F
100
AcDbEntity
  8
枠線
100
AcDbLine
 10
34915.24093491148
 20
28499.23237812787
 30
0.0
 11
34915.24093491148
 21
28523.23237812787
 31
0.0
  0
LINE
  5
B78
330
1F
100
AcDbEntity
  8
枠線
100
AcDbLine
 10
34915.24093491148
 20
28523.23237812787
 30
0.0
 11
34885.24093491148
 21
28517.23237812787
 31
0.0
  0
LINE
  5
B79
330
1F
100
AcDbEntity
  8
中心線
 48
0.5
100
AcDbLine
 10
34825.24093491148
 20
28511.23237812787
 30
0.0
 11
34918.24093491147
 21
28511.23237812787
 31
0.0
  0
LINE
  5
B7A
330
1F
100
AcDbEntity
  8
中心線
 48
0.5
100
AcDbLine
 10
34840.24093491147
 20
28526.23237812787
 30
0.0
 11
34840.24093491147
 21
28496.23237812787
 31
0.0
  0
MTEXT
  5
B7B
330
1F
100
AcDbEntity
  8
中心線
100
AcDbMText
 10
34712.93231111212
 20
28511.46389548492
 30
0.0
 40
24.00000000000002
 41
137.1373031534895
 46
0.0
 71
     5
 72
     5
  1
1  :  4
 73
     1
 44
1.0
1001
ACAD
1000
ACAD_MTEXT_COLUMN_INFO_BEGIN
1070
    75
1070
     2
1070
    79
1070
     0
1070
    76
1070
     1
1070
    78
1070
     0
1070
    48
1040
137.1373031534895
1070
    49
1040
12.5
1070
    50
1070
     1
1040
0.0
1000
ACAD_MTEXT_COLUMN_INFO_END
  0
MTEXT
  5
B7C
330
1F
100
AcDbEntity
  8
寸法線
100
AcDbMText
 10
34053.8154419997
 20
29377.17287490402
 30
0.0
 40
9.600000000000001
 41
151.6297294085016
 46
0.0
 71
     1
 72
     5
  1
{\fMS PGothic|b0|i0|c128|p50;器具本体}
 73
     1
 44
1.0
1001
ACAD
1000
ACAD_MTEXT_COLUMN_INFO_BEGIN
1070
    75
1070
     2
1070
    79
1070
     0
1070
    76
1070
     1
1070
    78
1070
     0
1070
    48
1040
151.6297294085016
1070
    49
1040
12.5
1070
    50
1070
     1
1040
0.0
1000
ACAD_MTEXT_COLUMN_INFO_END
  0
MTEXT
  5
B7D
330
1F
100
AcDbEntity
  8
寸法線
100
AcDbMText
 10
34234.698096507
 20
29381.69618849504
 30
0.0
 40
8.0
 41
163.0743348696414
 46
0.0
 71
     1
 72
     5
  1
{\fMS PGothic|b0|i0|c128|p50;鋼鈑　}0.6{\fMS PGothic|b0|i0|c128|p50;ｔ}\P{\fMS PGothic|b0|i0|c128|p50;（亜鉛メッキ板）}
 73
     1
 44
1.0
1001
ACAD
1000
ACAD_MTEXT_COLUMN_INFO_BEGIN
1070
    75
1070
     2
1070
    79
1070
     0
1070
    76
1070
     1
1070
    78
1070
     0
1070
    48
1040
163.0743348696414
1070
    49
1040
12.5
1070
    50
1070
     1
1040
0.0
1000
ACAD_MTEXT_COLUMN_INFO_END
  0
MTEXT
  5
B7E
330
1F
100
AcDbEntity
  8
寸法線
100
AcDbMText
 10
34348.57369779563
 20
29373.12563430944
 30
0.0
 40
8.0
 41
127.6574633589698
 46
0.0
 71
     1
 72
     5
  1
{\fMS PGothic|b0|i0|c128|p50;ホーミング加工}
 73
     1
 44
1.0
1001
ACAD
1000
ACAD_MTEXT_COLUMN_INFO_BEGIN
1070
    75
1070
     2
1070
    79
1070
     0
1070
    76
1070
     1
1070
    78
1070
     0
1070
    48
1040
127.6574633589698
1070
    49
1040
12.5
1070
    50
1070
     1
1040
0.0
1000
ACAD_MTEXT_COLUMN_INFO_END
  0
MTEXT
  5
B7F
330
1F
100
AcDbEntity
  8
寸法線
100
AcDbMText
 10
34053.80752779395
 20
29303.57512239933
 30
0.0
 40
9.600000000000001
 41
177.2417588968819
 46
0.0
 71
     1
 72
     5
  1
{\fMS PGothic|b0|i0|c128|p50;絶縁ブッシング}
 73
     1
 44
1.0
1001
ACAD
1000
ACAD_MTEXT_COLUMN_INFO_BEGIN
1070
    75
1070
     2
1070
    79
1070
     0
1070
    76
1070
     1
1070
    78
1070
     0
1070
    48
1040
177.2417588968819
1070
    49
1040
12.5
1070
    50
1070
     1
1040
0.0
1000
ACAD_MTEXT_COLUMN_INFO_END
  0
MTEXT
  5
B80
330
1F
100
AcDbEntity
  8
寸法線
100
AcDbMText
 10
34236.90006209636
 20
29308.52212094796
 30
0.0
 40
8.0
 41
112.0581813088574
 46
0.0
 71
     1
 72
     5
  1
P.P{\fMS PGothic|b0|i0|c128|p50;樹脂}
 73
     1
 44
1.0
1001
ACAD
1000
ACAD_MTEXT_COLUMN_INFO_BEGIN
1070
    75
1070
     2
1070
    79
1070
     0
1070
    76
1070
     1
1070
    78
1070
     0
1070
    48
1040
112.0581813088574
1070
    49
1040
12.5
1070
    50
1070
     1
1040
0.0
1000
ACAD_MTEXT_COLUMN_INFO_END
  0
MTEXT
  5
B81
330
1F
100
AcDbEntity
  8
寸法線
100
AcDbMText
 10
34051.95199683309
 20
29270.04860513708
 30
0.0
 40
9.600000000000001
 41
209.7639475286996
 46
0.0
 71
     1
 72
     5
  1
{\fMS PGothic|b0|i0|c128|p50;ランプソケット（固定側）}
 73
     1
 44
1.0
1001
ACAD
1000
ACAD_MTEXT_COLUMN_INFO_BEGIN
1070
    75
1070
     2
1070
    79
1070
     0
1070
    76
1070
     1
1070
    78
1070
     0
1070
    48
1040
209.7639475286996
1070
    49
1040
12.5
1070
    50
1070
     1
1040
0.0
1000
ACAD_MTEXT_COLUMN_INFO_END
  0
MTEXT
  5
B82
330
1F
100
AcDbEntity
  8
寸法線
100
AcDbMText
 10
34235.66305875464
 20
29272.52213748464
 30
0.0
 40
8.0
 41
114.358547341013
 46
0.0
 71
     1
 72
     5
  1
{\fMS PGothic|b0|i0|c128|p50;P.P樹脂\P黄銅}
 73
     1
 44
1.0
1001
ACAD
1000
ACAD_MTEXT_COLUMN_INFO_BEGIN
1070
    75
1070
     2
1070
    79
1070
     0
1070
    76
1070
     1
1070
    78
1070
     0
1070
    48
1040
114.358547341013
1070
    49
1040
12.5
1070
    50
1070
     1
1040
0.0
1000
ACAD_MTEXT_COLUMN_INFO_END
  0
MTEXT
  5
B83
330
1F
100
AcDbEntity
  8
寸法線
100
AcDbMText
 10
34053.80752779395
 20
29233.43025098923
 30
0.0
 40
9.600000000000001
 41
210.5417588968994
 46
0.0
 71
     1
 72
     5
  1
{\fMS PGothic|b0|i0|c128|p50;ランプソケット（スプリング側）}
 73
     1
 44
1.0
1001
ACAD
1000
ACAD_MTEXT_COLUMN_INFO_BEGIN
1070
    75
1070
     2
1070
    79
1070
     0
1070
    76
1070
     1
1070
    78
1070
     0
1070
    48
1040
210.5417588968994
1070
    49
1040
12.5
1070
    50
1070
     1
1040
0.0
1000
ACAD_MTEXT_COLUMN_INFO_END
  0
MTEXT
  5
B84
330
1F
100
AcDbEntity
  8
寸法線
100
AcDbMText
 10
34232.57049850398
 20
29237.14050816909
 30
0.0
 40
8.0
 41
140.8380455093865
 46
0.0
 71
     1
 72
     5
  1
P.P{\fMS PGothic|b0|i0|c128|p50;樹脂}\P{\fMS PGothic|b0|i0|c128|p50;黄銅}
 73
     1
 44
1.0
1001
ACAD
1000
ACAD_MTEXT_COLUMN_INFO_BEGIN
1070
    75
1070
     2
1070
    79
1070
     0
1070
    76
1070
     1
1070
    78
1070
     0
1070
    48
1040
140.8380455093865
1070
    49
1040
12.5
1070
    50
1070
     1
1040
0.0
1000
ACAD_MTEXT_COLUMN_INFO_END
  0
MTEXT
  5
B85
330
1F
100
AcDbEntity
  8
寸法線
100
AcDbMText
 10
34540.5040557496
 20
29377.34442588753
 30
0.0
 40
9.600000000000001
 41
181.3710989523388
 46
0.0
 71
     1
 72
     5
  1
{\fMS PGothic|b0|i0|c128|p50;専用電源装置}
 73
     1
 44
1.0
1001
ACAD
1000
ACAD_MTEXT_COLUMN_INFO_BEGIN
1070
    75
1070
     2
1070
    79
1070
     0
1070
    76
1070
     1
1070
    78
1070
     0
1070
    48
1040
181.3710989523388
1070
    49
1040
12.5
1070
    50
1070
     1
1040
0.0
1000
ACAD_MTEXT_COLUMN_INFO_END
  0
MTEXT
  5
B86
330
1F
100
AcDbEntity
  8
寸法線
100
AcDbMText
 10
34835.88935017924
 20
29377.38356808708
 30
0.0
 40
6.4
 41
162.8281777420561
 46
0.0
 71
     1
 72
     5
  1
{\fMS PGothic|b0|i0|c128|p50;レシップ製定電流電源装置}\PK68-023C059-302
 73
     1
 44
1.0
1001
ACAD
1000
ACAD_MTEXT_COLUMN_INFO_BEGIN
1070
    75
1070
     2
1070
    79
1070
     0
1070
    76
1070
     1
1070
    78
1070
     0
1070
    48
1040
162.8281777420561
1070
    49
1040
12.5
1070
    50
1070
     1
1040
0.0
1000
ACAD_MTEXT_COLUMN_INFO_END
  0
LINE
  5
B87
330
1F
100
AcDbEntity
  8
外形線
100
AcDbLine
 10
33316.24093491148
 20
29477.23237812787
 30
0.0
 11
33316.24093491148
 21
28289.23237812787
 31
0.0
  0
LINE
  5
B88
330
1F
100
AcDbEntity
  8
外形線
100
AcDbLine
 10
33316.24093491148
 20
28289.23237812787
 30
0.0
 11
34996.24093491148
 21
28289.23237812787
 31
0.0
  0
LINE
  5
B89
330
1F
100
AcDbEntity
  8
外形線
100
AcDbLine
 10
34996.24093491148
 20
28289.23237812787
 30
0.0
 11
34996.24093491148
 21
29477.23237812787
 31
0.0
  0
LINE
  5
B8A
330
1F
100
AcDbEntity
  8
外形線
100
AcDbLine
 10
34996.24093491148
 20
29477.23237812787
 30
0.0
 11
33316.24093491148
 21
29477.23237812787
 31
0.0
  0
XLINE
  5
C17
330
1F
100
AcDbEntity
  8
オフセット
100
AcDbXline
 10
32915.44093491146
 20
29033.35326060758
 30
0.0
 11
-1.0
 21
0.0
 31
0.0
  0
XLINE
  5
C18
330
1F
100
AcDbEntity
  8
オフセット
100
AcDbXline
 10
32915.44093491146
 20
29197.60326060758
 30
0.0
 11
-1.0
 21
0.0
 31
0.0
  0
LINE
  5
C20
330
1F
100
AcDbEntity
  8
中心線
100
AcDbLine
 10
33548.56797960613
 20
28834.90633112582
 30
0.0
 11
34243.78855756339
 21
28834.90633112582
 31
0.0
  0
XLINE
  5
C22
330
1F
100
AcDbEntity
  8
オフセット
100
AcDbXline
 10
32915.44093491146
 20
29049.60326060757
 30
0.0
 11
-1.0
 21
0.0
 31
0.0
  0
XLINE
  5
C23
330
1F
100
AcDbEntity
  8
オフセット
100
AcDbXline
 10
32915.44093491146
 20
29059.60326060758
 30
0.0
 11
-1.0
 21
0.0
 31
0.0
  0
XLINE
  5
C24
330
1F
100
AcDbEntity
  8
オフセット
100
AcDbXline
 10
32915.44093491146
 20
28972.60326060758
 30
0.0
 11
-1.0
 21
0.0
 31
0.0
  0
XLINE
  5
C25
330
1F
100
AcDbEntity
  8
オフセット
100
AcDbXline
 10
32915.44093491146
 20
28962.60326060758
 30
0.0
 11
-1.0
 21
0.0
 31
0.0
  0
LINE
  5
C26
102
{ACAD_REACTORS
330
C9F
330
132D
102
}
330
1F
100
AcDbEntity
  8
中心線
100
AcDbLine
 10
34411.21068823858
 20
28861.15633112583
 30
0.0
 11
34411.21068823858
 21
28764.15633112582
 31
0.0
  0
XLINE
  5
C27
330
1F
100
AcDbEntity
  8
オフセット
100
AcDbXline
 10
32915.44093491146
 20
29144.60326060757
 30
0.0
 11
-1.0
 21
0.0
 31
0.0
  0
CIRCLE
  5
C2F
330
1F
100
AcDbEntity
  8
○
100
AcDbCircle
 10
33536.150418985
 20
28941.00189436203
 30
0.0
 40
15.0
  0
MTEXT
  5
C33
330
1F
100
AcDbEntity
  8
寸法線
100
AcDbMText
 10
33529.65759052328
 20
28950.74574485303
 30
0.0
 40
20.0
 41
35.534113038535
 46
0.0
 71
     1
 72
     5
  1
4
 73
     1
 44
1.0
1001
ACAD
1000
ACAD_MTEXT_COLUMN_INFO_BEGIN
1070
    75
1070
     2
1070
    79
1070
     0
1070
    76
1070
     1
1070
    78
1070
     0
1070
    48
1040
35.534113038535
1070
    49
1040
12.5
1070
    50
1070
     1
1040
0.0
1000
ACAD_MTEXT_COLUMN_INFO_END
  0
CIRCLE
  5
C34
330
1F
100
AcDbEntity
  8
○
100
AcDbCircle
 10
33575.36759507447
 20
28941.00189436203
 30
0.0
 40
15.0
  0
MTEXT
  5
C35
330
1F
100
AcDbEntity
  8
寸法線
100
AcDbMText
 10
33568.87476661275
 20
28950.74574485303
 30
0.0
 40
20.0
 41
35.534113038535
 46
0.0
 71
     1
 72
     5
  1
3
 73
     1
 44
1.0
1001
ACAD
1000
ACAD_MTEXT_COLUMN_INFO_BEGIN
1070
    75
1070
     2
1070
    79
1070
     0
1070
    76
1070
     1
1070
    78
1070
     0
1070
    48
1040
35.534113038535
1070
    49
1040
12.5
1070
    50
1070
     1
1040
0.0
1000
ACAD_MTEXT_COLUMN_INFO_END
  0
CIRCLE
  5
C36
330
1F
100
AcDbEntity
  8
○
100
AcDbCircle
 10
33748.80032213726
 20
28941.00189436203
 30
0.0
 40
15.0
  0
MTEXT
  5
C37
330
1F
100
AcDbEntity
  8
寸法線
100
AcDbMText
 10
33742.30749367554
 20
28950.74574485303
 30
0.0
 40
20.0
 41
35.534113038535
 46
0.0
 71
     1
 72
     5
  1
1
 73
     1
 44
1.0
1001
ACAD
1000
ACAD_MTEXT_COLUMN_INFO_BEGIN
1070
    75
1070
     2
1070
    79
1070
     0
1070
    76
1070
     1
1070
    78
1070
     0
1070
    48
1040
35.534113038535
1070
    49
1040
12.5
1070
    50
1070
     1
1040
0.0
1000
ACAD_MTEXT_COLUMN_INFO_END
  0
CIRCLE
  5
C38
330
1F
100
AcDbEntity
  8
○
100
AcDbCircle
 10
33685.62872231983
 20
28941.00189436203
 30
0.0
 40
15.0
  0
MTEXT
  5
C39
330
1F
100
AcDbEntity
  8
寸法線
100
AcDbMText
 10
33679.13589385811
 20
28950.74574485303
 30
0.0
 40
20.0
 41
35.534113038535
 46
0.0
 71
     1
 72
     5
  1
7
 73
     1
 44
1.0
1001
ACAD
1000
ACAD_MTEXT_COLUMN_INFO_BEGIN
1070
    75
1070
     2
1070
    79
1070
     0
1070
    76
1070
     1
1070
    78
1070
     0
1070
    48
1040
35.534113038535
1070
    49
1040
12.5
1070
    50
1070
     1
1040
0.0
1000
ACAD_MTEXT_COLUMN_INFO_END
  0
CIRCLE
  5
C3A
330
1F
100
AcDbEntity
  8
○
100
AcDbCircle
 10
33822.62342337619
 20
28941.00189436203
 30
0.0
 40
15.0
  0
MTEXT
  5
C3B
330
1F
100
AcDbEntity
  8
寸法線
100
AcDbMText
 10
33816.13059491447
 20
28950.74574485303
 30
0.0
 40
20.0
 41
35.534113038535
 46
0.0
 71
     1
 72
     5
  1
6
 73
     1
 44
1.0
1001
ACAD
1000
ACAD_MTEXT_COLUMN_INFO_BEGIN
1070
    75
1070
     2
1070
    79
1070
     0
1070
    76
1070
     1
1070
    78
1070
     0
1070
    48
1040
35.534113038535
1070
    49
1040
12.5
1070
    50
1070
     1
1040
0.0
1000
ACAD_MTEXT_COLUMN_INFO_END
  0
CIRCLE
  5
C3C
330
1F
100
AcDbEntity
  8
○
100
AcDbCircle
 10
34243.79923810905
 20
28941.00189436203
 30
0.0
 40
15.0
  0
MTEXT
  5
C3D
330
1F
100
AcDbEntity
  8
寸法線
100
AcDbMText
 10
34237.30640964733
 20
28950.74574485303
 30
0.0
 40
20.0
 41
35.534113038535
 46
0.0
 71
     1
 72
     5
  1
5
 73
     1
 44
1.0
1001
ACAD
1000
ACAD_MTEXT_COLUMN_INFO_BEGIN
1070
    75
1070
     2
1070
    79
1070
     0
1070
    76
1070
     1
1070
    78
1070
     0
1070
    48
1040
35.534113038535
1070
    49
1040
12.5
1070
    50
1070
     1
1040
0.0
1000
ACAD_MTEXT_COLUMN_INFO_END
  0
MTEXT
  5
C3E
330
1F
100
AcDbEntity
  8
寸法線
100
AcDbMText
 10
34539.8154419997
 20
29341.17287490402
 30
0.0
 40
9.600000000000001
 41
199.244644231323
 46
0.0
 71
     1
 72
     5
  1
{\fMS PGothic|b0|i0|c128|p50;電源用　アース付端子台}
 73
     1
 44
1.0
1001
ACAD
1000
ACAD_MTEXT_COLUMN_INFO_BEGIN
1070
    75
1070
     2
1070
    79
1070
     0
1070
    76
1070
     1
1070
    78
1070
     0
1070
    48
1040
199.244644231323
1070
    49
1040
12.5
1070
    50
1070
     1
1040
0.0
1000
ACAD_MTEXT_COLUMN_INFO_END
  0
XLINE
  5
C42
330
1F
100
AcDbEntity
  8
オフセット
100
AcDbXline
 10
32915.44093491146
 20
29149.60326060758
 30
0.0
 11
-1.0
 21
0.0
 31
0.0
  0
XLINE
  5
C43
330
1F
100
AcDbEntity
  8
オフセット
100
AcDbXline
 10
32915.44093491146
 20
29134.60326060758
 30
0.0
 11
-1.0
 21
0.0
 31
0.0
  0
XLINE
  5
C44
330
1F
100
AcDbEntity
  8
オフセット
100
AcDbXline
 10
32915.44093491146
 20
29154.60326060757
 30
0.0
 11
-1.0
 21
0.0
 31
0.0
  0
LINE
  5
C45
330
1F
100
AcDbEntity
  8
○
100
AcDbLine
 10
33759.98066202476
 20
28951.00189436203
 30
0.0
 11
33781.32150933524
 21
28997.15998080946
 31
0.0
  0
LINE
  5
C46
330
1F
100
AcDbEntity
  8
○
100
AcDbLine
 10
33751.83550738873
 20
28926.31218195881
 30
0.0
 11
33782.77209336552
 21
28803.68200660451
 31
0.0
  0
LINE
  5
C47
330
1F
100
AcDbEntity
  8
○
100
AcDbLine
 10
33697.03299246785
 20
28950.74574485303
 30
0.0
 11
33734.84123424668
 21
28982.40086670691
 31
0.0
  0
LINE
  5
C48
330
1F
100
AcDbEntity
  8
○
100
AcDbLine
 10
33694.10471285616
 20
28928.62620915159
 30
0.0
 11
33732.99398603464
 21
28789.12846008728
 31
0.0
  0
LINE
  5
C49
330
1F
100
AcDbEntity
  8
○
100
AcDbLine
 10
33833.80376326369
 20
28951.00189436203
 30
0.0
 11
33876.9292518039
 21
28984.97316850844
 31
0.0
  0
LINE
  5
C4A
330
1F
100
AcDbEntity
  8
○
100
AcDbLine
 10
33833.15705925901
 20
28930.32282534417
 30
0.0
 11
33885.35211364193
 21
28787.43570840045
 31
0.0
  0
LINE
  5
C4B
330
1F
100
AcDbEntity
  8
○
100
AcDbLine
 10
33579.17354622501
 20
28955.51102031226
 30
0.0
 11
33609.12282473559
 21
28998.86832915336
 31
0.0
  0
LINE
  5
C4C
330
1F
100
AcDbEntity
  8
○
100
AcDbLine
 10
33575.36759507447
 20
28926.00189436203
 30
0.0
 11
33606.80204857997
 21
28796.7033335034
 31
0.0
  0
LINE
  5
C4D
330
1F
100
AcDbEntity
  8
○
100
AcDbLine
 10
33542.53651248059
 20
28954.57458053189
 30
0.0
 11
33569.29435581513
 21
29002.14860835974
 31
0.0
  0
LINE
  5
C4E
330
1F
100
AcDbEntity
  8
○
100
AcDbLine
 10
33540.15244961804
 20
28926.54562406806
 30
0.0
 11
33569.13018075827
 21
28840.46027631688
 31
0.0
  0
LINE
  5
C4F
330
1F
100
AcDbEntity
  8
○
100
AcDbLine
 10
34240.22619555477
 20
28955.57012578884
 30
0.0
 11
34223.26806984499
 21
28995.7410521062
 31
0.0
  0
LINE
  5
C50
330
1F
100
AcDbEntity
  8
○
100
AcDbLine
 10
34243.79923810905
 20
28926.00189436203
 30
0.0
 11
34216.71068823858
 21
28837.2036091424
 31
0.0
  0
DIMENSION
  5
C6E
102
{ACAD_XDICTIONARY
360
C7B
102
}
102
{ACAD_REACTORS
330
C85
102
}
330
1F
100
AcDbEntity
  8
寸法線
100
AcDbDimension
280
     0
  2
*D1
 10
34432.21068823858
 20
28918.1234814532
 30
0.0
 11
34409.71068823858
 21
28928.91901351323
 31
0.0
 70
    32
 71
     5
 42
45.0
 73
     0
 74
     0
 75
     0
  3
ISO-25
100
AcDbAlignedDimension
 13
34387.21068823858
 23
28798.65633112583
 33
0.0
 14
34432.21068823858
 24
28798.65633112583
 34
0.0
100
AcDbRotatedDimension
  0
DIMENSION
  5
C86
102
{ACAD_XDICTIONARY
360
C94
102
}
102
{ACAD_REACTORS
330
C9F
102
}
330
1F
100
AcDbEntity
  8
寸法線
100
AcDbDimension
280
     0
  2
*D2
 10
34387.21068823858
 20
28891.29755887941
 30
0.0
 11
34369.63139083066
 21
28901.96348657382
 31
0.0
 70
    32
 71
     5
 42
24.00000000000728
 73
     0
 74
     0
 75
     0
  3
ISO-25
100
AcDbAlignedDimension
 13
34411.21068823858
 23
28861.15633112583
 33
0.0
 14
34387.21068823858
 24
28861.15633112583
 34
0.0
100
AcDbRotatedDimension
  0
DIMENSION
  5
CBA
102
{ACAD_XDICTIONARY
360
CC7
102
}
102
{ACAD_REACTORS
330
CD1
102
}
330
1F
100
AcDbEntity
  8
寸法線
100
AcDbDimension
280
     0
  2
*D3
 10
34427.21068823857
 20
28863.74419229671
 30
0.0
 11
34411.21068823858
 21
28874.58747333354
 31
0.0
 70
    32
 71
     5
 42
31.99999999998545
 73
     0
 74
     0
 75
     0
  3
ISO-25
100
AcDbAlignedDimension
 13
34395.21068823859
 23
28834.90633112582
 33
0.0
 14
34427.21068823857
 24
28834.90633112582
 34
0.0
100
AcDbRotatedDimension
  0
DIMENSION
  5
CD2
102
{ACAD_XDICTIONARY
360
CDF
102
}
102
{ACAD_REACTORS
330
CE9
102
}
330
1F
100
AcDbEntity
  8
寸法線
100
AcDbDimension
280
     0
  2
*D4
 10
34339.18563245819
 20
28774.15633112583
 30
0.0
 11
34328.56063245818
 21
28812.65633112583
 31
0.0
 70
    32
 71
     5
 42
77.0
 73
     0
 74
     0
 75
     0
  3
ISO-25
100
AcDbAlignedDimension
 13
34411.21068823858
 23
28851.15633112583
 33
0.0
 14
34411.21068823858
 24
28774.15633112583
 34
0.0
 50
90.0
100
AcDbRotatedDimension
  0
TEXT
  5
D49
330
1F
100
AcDbEntity
  8
1
 62
     3
100
AcDbText
 10
33775.00261879165
 20
28624.60862867869
 30
0.0
 40
13.5
  1
１．左記の様にランプをセットしてください
 41
0.6666666666670002
  7
BIGFONT
100
AcDbText
  0
TEXT
  5
D4A
330
1F
100
AcDbEntity
  8
1
 62
     3
100
AcDbText
 10
33792.68132972915
 20
28604.57300042348
 30
0.0
 40
13.5
  1
器具側の電極はスプリングソケット側になっています。
 41
0.6666666666670002
  7
BIGFONT
100
AcDbText
  0
TEXT
  5
D4B
330
1F
100
AcDbEntity
  8
1
 62
     3
100
AcDbText
 10
33793.27019691665
 20
28585.71557854848
 30
0.0
 40
13.5
  1
ランプの電極はマーク（シール）側になっています。
 41
0.6666666666670002
  7
BIGFONT
100
AcDbText
  0
TEXT
  5
D4C
330
1F
100
AcDbEntity
  8
1
 62
     3
100
AcDbText
 10
33793.27019691665
 20
28567.44800042348
 30
0.0
 40
13.5
  1
セット方向はランプはマーク（シール）が正面方向を
 41
0.6666666666670002
  7
BIGFONT
100
AcDbText
  0
TEXT
  5
D4D
330
1F
100
AcDbEntity
  8
1
 62
     3
100
AcDbText
 10
33777.15626462497
 20
28519.8591006839
 30
0.0
 40
13.5
  1
２．精密部品を使用しておりますので衝撃等を与えますと
 41
0.6666666666670002
  7
BIGFONT
100
AcDbText
  0
TEXT
  5
D4E
330
1F
100
AcDbEntity
  8
1
 62
     3
100
AcDbText
 10
33796.01368649997
 20
28500.41229078806
 30
0.0
 40
13.5
  1
誤動作もしくは不点の恐れがあります。
 41
0.6666666666670002
  7
BIGFONT
100
AcDbText
  0
TEXT
  5
D4F
330
1F
100
AcDbEntity
  8
1
 62
     3
100
AcDbText
 10
33776.56739743747
 20
28473.89471266307
 30
0.0
 40
13.5
  1
３．この製品は定電流式２４Ｖ仕様です。
 41
0.6666666666670002
  7
BIGFONT
100
AcDbText
  0
TEXT
  5
D50
330
1F
100
AcDbEntity
  8
1
 62
     3
100
AcDbText
 10
33793.65626462497
 20
28453.85907626983
 30
0.0
 40
13.5
  1
必ず専用のランプと安定器のセットでご使用下さい。
 41
0.6666666666670002
  7
BIGFONT
100
AcDbText
  0
TEXT
  5
D51
330
1F
100
AcDbEntity
  8
1
 62
     3
100
AcDbText
 10
33794.09194170829
 20
28549.01902906931
 30
0.0
 40
13.5
  1
向く様にして下さい。
 41
0.6666666666670002
  7
BIGFONT
100
AcDbText
  0
TEXT
  5
D52
330
1F
100
AcDbEntity
  8
1
 62
     3
100
AcDbText
 10
33503.18152504164
 20
28618.95989820994
 30
0.0
 40
12.0
  1
取扱い説明及び注意事項
 41
0.6666666666670002
  7
BIGFONT
100
AcDbText
  0
LINE
  5
D53
330
1F
100
AcDbEntity
  8
1
  6
Continuous
 62
     3
100
AcDbLine
 10
33630.24345964872
 20
28576.34082441144
 30
0.0
 11
33630.24345964872
 21
28561.34082441144
 31
0.0
  0
LINE
  5
D54
330
1F
100
AcDbEntity
  8
1
  6
Continuous
 62
     3
100
AcDbLine
 10
33630.24345964872
 20
28561.34082441144
 30
0.0
 11
33483.31488822013
 21
28561.34082441144
 31
0.0
  0
LINE
  5
D55
330
1F
100
AcDbEntity
  8
1
  6
Continuous
 62
     3
100
AcDbLine
 10
33483.31488822013
 20
28561.34082441144
 30
0.0
 11
33480.24345964871
 21
28561.34082441144
 31
0.0
  0
LINE
  5
D56
330
1F
100
AcDbEntity
  8
1
  6
Continuous
 62
     3
100
AcDbLine
 10
33480.24345964871
 20
28561.34082441144
 30
0.0
 11
33480.24345964871
 21
28576.34082441144
 31
0.0
  0
LINE
  5
D57
330
1F
100
AcDbEntity
  8
1
  6
Continuous
 62
     3
100
AcDbLine
 10
33480.24345964871
 20
28576.34082441144
 30
0.0
 11
33630.24345964872
 21
28576.34082441144
 31
0.0
  0
LINE
  5
D58
330
1F
100
AcDbEntity
  8
1
  6
Continuous
 62
     3
100
AcDbLine
 10
33630.24345964872
 20
28576.34082441144
 30
0.0
 11
33634.74345964871
 21
28576.34082441144
 31
0.0
  0
LINE
  5
D59
330
1F
100
AcDbEntity
  8
1
  6
Continuous
 62
     3
100
AcDbLine
 10
33634.74345964871
 20
28576.34082441144
 30
0.0
 11
33634.74345964871
 21
28561.34082441144
 31
0.0
  0
LINE
  5
D5A
330
1F
100
AcDbEntity
  8
1
  6
Continuous
 62
     3
100
AcDbLine
 10
33634.74345964871
 20
28561.34082441144
 30
0.0
 11
33630.24345964872
 21
28561.34082441144
 31
0.0
  0
LINE
  5
D5B
330
1F
100
AcDbEntity
  8
1
  6
Continuous
 62
     3
100
AcDbLine
 10
33480.24345964871
 20
28576.34082441144
 30
0.0
 11
33475.74345964872
 21
28576.34082441144
 31
0.0
  0
LINE
  5
D5C
330
1F
100
AcDbEntity
  8
1
  6
Continuous
 62
     3
100
AcDbLine
 10
33475.74345964872
 20
28576.34082441144
 30
0.0
 11
33475.74345964872
 21
28561.34082441144
 31
0.0
  0
LINE
  5
D5D
330
1F
100
AcDbEntity
  8
1
  6
Continuous
 62
     3
100
AcDbLine
 10
33475.74345964872
 20
28561.34082441144
 30
0.0
 11
33480.24345964871
 21
28561.34082441144
 31
0.0
  0
LINE
  5
D5E
330
1F
100
AcDbEntity
  8
1
  6
Continuous
 62
     3
100
AcDbLine
 10
33475.74345964872
 20
28571.84082441144
 30
0.0
 11
33471.24345964871
 21
28571.84082441144
 31
0.0
  0
LINE
  5
D5F
330
1F
100
AcDbEntity
  8
1
  6
Continuous
 62
     3
100
AcDbLine
 10
33475.74345964872
 20
28565.84082441144
 30
0.0
 11
33471.24345964871
 21
28565.84082441144
 31
0.0
  0
LINE
  5
D60
330
1F
100
AcDbEntity
  8
1
  6
Continuous
 62
     3
100
AcDbLine
 10
33634.74345964871
 20
28571.84082441144
 30
0.0
 11
33639.24345964872
 21
28571.84082441144
 31
0.0
  0
LINE
  5
D61
330
1F
100
AcDbEntity
  8
1
  6
Continuous
 62
     3
100
AcDbLine
 10
33634.74345964871
 20
28565.84082441144
 30
0.0
 11
33639.24345964872
 21
28565.84082441144
 31
0.0
  0
LINE
  5
D62
330
1F
100
AcDbEntity
  8
1
  6
Continuous
 62
     3
100
AcDbLine
 10
33661.4220310773
 20
28571.84082441144
 30
0.0
 11
33698.92203107729
 21
28571.84082441144
 31
0.0
  0
LINE
  5
D63
330
1F
100
AcDbEntity
  8
1
  6
Continuous
 62
     3
100
AcDbLine
 10
33698.92203107729
 20
28571.84082441144
 30
0.0
 11
33698.92203107729
 21
28517.05511012573
 31
0.0
  0
LINE
  5
D64
330
1F
100
AcDbEntity
  8
1
  6
Continuous
 62
     3
100
AcDbLine
 10
33698.92203107729
 20
28517.05511012573
 30
0.0
 11
33590.56488822014
 21
28517.05511012573
 31
0.0
  0
LINE
  5
D65
330
1F
100
AcDbEntity
  8
1
  6
Continuous
 62
     3
100
AcDbLine
 10
33661.4220310773
 20
28565.84082441144
 30
0.0
 11
33683.9220310773
 21
28565.84082441144
 31
0.0
  0
LINE
  5
D66
330
1F
100
AcDbEntity
  8
1
  6
Continuous
 62
     3
100
AcDbLine
 10
33683.9220310773
 20
28565.84082441144
 30
0.0
 11
33683.9220310773
 21
28523.05511012573
 31
0.0
  0
LINE
  5
D67
330
1F
100
AcDbEntity
  8
1
  6
Continuous
 62
     3
100
AcDbLine
 10
33683.9220310773
 20
28523.05511012573
 30
0.0
 11
33590.56488822014
 21
28523.05511012573
 31
0.0
  0
LINE
  5
D68
330
1F
100
AcDbEntity
  8
1
  6
Continuous
 62
     3
100
AcDbLine
 10
33590.56488822014
 20
28527.55511012573
 30
0.0
 11
33590.56488822014
 21
28512.55511012573
 31
0.0
  0
LINE
  5
D69
330
1F
100
AcDbEntity
  8
1
  6
Continuous
 62
     3
100
AcDbLine
 10
33590.56488822014
 20
28512.55511012573
 30
0.0
 11
33530.56488822014
 21
28512.55511012573
 31
0.0
  0
LINE
  5
D6A
330
1F
100
AcDbEntity
  8
1
  6
Continuous
 62
     3
100
AcDbLine
 10
33530.56488822014
 20
28512.55511012573
 30
0.0
 11
33530.56488822014
 21
28527.55511012573
 31
0.0
  0
LINE
  5
D6B
330
1F
100
AcDbEntity
  8
1
  6
Continuous
 62
     3
100
AcDbLine
 10
33530.56488822014
 20
28527.55511012573
 30
0.0
 11
33590.56488822014
 21
28527.55511012573
 31
0.0
  0
LINE
  5
D6C
330
1F
100
AcDbEntity
  8
1
  6
Continuous
 62
     3
100
AcDbLine
 10
33533.33869774395
 20
28512.55511012573
 30
0.0
 11
33533.33869774395
 21
28497.55511012573
 31
0.0
  0
LINE
  5
D6D
330
1F
100
AcDbEntity
  8
1
  6
Continuous
 62
     3
100
AcDbLine
 10
33533.33869774395
 20
28497.55511012573
 30
0.0
 11
33485.69584060111
 21
28497.55511012573
 31
0.0
  0
TEXT
  5
D6E
330
1F
100
AcDbEntity
  8
1
 62
     3
100
AcDbText
 10
33605.4558414479
 20
28525.40786370473
 30
0.0
 40
7.466666666666665
  1
赤
 41
0.6666666666670002
  7
BIGFONT
100
AcDbText
  0
TEXT
  5
D6F
330
1F
100
AcDbEntity
  8
1
 62
     3
100
AcDbText
 10
33607.43115069269
 20
28503.67945387401
 30
0.0
 40
7.466666666666665
  1
白
 41
0.6666666666670002
  7
BIGFONT
100
AcDbText
  0
TEXT
  5
D70
330
1F
100
AcDbEntity
  8
1
 62
     3
100
AcDbText
 10
33663.72745603122
 20
28553.06216057974
 30
0.0
 40
7.466666666666665
  1
赤
 41
0.6666666666670002
  7
BIGFONT
100
AcDbText
  0
TEXT
  5
D71
330
1F
100
AcDbEntity
  8
1
 62
     3
100
AcDbText
 10
33663.72745603122
 20
28575.77820875682
 30
0.0
 40
7.466666666666665
  1
白
 41
0.6666666666670002
  7
BIGFONT
100
AcDbText
  0
LINE
  5
D72
330
1F
100
AcDbEntity
  8
1
  6
Continuous
 62
     3
100
AcDbLine
 10
33625.74345964872
 20
28571.84082441144
 30
0.0
 11
33625.74345964872
 21
28565.84082441144
 31
0.0
  0
LINE
  5
D73
330
1F
100
AcDbEntity
  8
1
  6
Continuous
 62
     3
100
AcDbLine
 10
33625.74345964872
 20
28565.84082441144
 30
0.0
 11
33610.74345964872
 21
28565.84082441144
 31
0.0
  0
LINE
  5
D74
330
1F
100
AcDbEntity
  8
1
  6
Continuous
 62
     3
100
AcDbLine
 10
33610.74345964872
 20
28565.84082441144
 30
0.0
 11
33610.74345964872
 21
28571.84082441144
 31
0.0
  0
LINE
  5
D75
330
1F
100
AcDbEntity
  8
1
  6
Continuous
 62
     3
100
AcDbLine
 10
33610.74345964872
 20
28571.84082441144
 30
0.0
 11
33625.74345964872
 21
28571.84082441144
 31
0.0
  0
TEXT
  5
D76
330
1F
100
AcDbEntity
  8
1
 62
     3
100
AcDbText
 10
33612.95771319268
 20
28566.05509677765
 30
0.0
 40
5.107133992513066
  1
マーク
 41
0.692308381786
  7
BIGFONT
100
AcDbText
  0
TEXT
  5
D77
330
1F
100
AcDbEntity
  8
1
 62
     3
100
AcDbText
 10
33498.00522295831
 20
28525.19800042348
 30
0.0
 40
7.466666666666665
  1
白
 41
0.6666666666670002
  7
BIGFONT
100
AcDbText
  0
TEXT
  5
D78
330
1F
100
AcDbEntity
  8
1
 62
     3
100
AcDbText
 10
33498.00522295831
 20
28506.86464267608
 30
0.0
 40
7.466666666666665
  1
黒
 41
0.6666666666670002
  7
BIGFONT
100
AcDbText
  0
TEXT
  5
D79
330
1F
100
AcDbEntity
  8
1
 62
     3
100
AcDbText
 10
33513.65886809825
 20
28498.5240935974
 30
0.0
 40
7.466666666666665
  1
アース
 41
0.6666666666670002
  7
BIGFONT
100
AcDbText
  0
TEXT
  5
D7A
330
1F
100
AcDbEntity
  8
1
 62
     3
100
AcDbText
 10
33518.43398272392
 20
28486.95986565786
 30
0.0
 40
7.466666666666665
  1
緑
 41
0.6666666666670002
  7
BIGFONT
100
AcDbText
  0
LINE
  5
D7B
330
1F
100
AcDbEntity
  8
1
  6
Continuous
 62
     3
100
AcDbLine
 10
33661.4220310773
 20
28576.34082441144
 30
0.0
 11
33661.4220310773
 21
28561.34082441144
 31
0.0
  0
LINE
  5
D7C
330
1F
100
AcDbEntity
  8
1
  6
Continuous
 62
     3
100
AcDbLine
 10
33661.4220310773
 20
28561.34082441144
 30
0.0
 11
33644.4220310773
 21
28561.34082441144
 31
0.0
  0
LINE
  5
D7D
330
1F
100
AcDbEntity
  8
1
  6
Continuous
 62
     3
100
AcDbLine
 10
33644.4220310773
 20
28561.34082441144
 30
0.0
 11
33644.4220310773
 21
28576.34082441144
 31
0.0
  0
LINE
  5
D7E
330
1F
100
AcDbEntity
  8
1
  6
Continuous
 62
     3
100
AcDbLine
 10
33644.4220310773
 20
28576.34082441144
 30
0.0
 11
33661.4220310773
 21
28576.34082441144
 31
0.0
  0
LINE
  5
D7F
330
1F
100
AcDbEntity
  8
1
  6
Continuous
 62
     3
100
AcDbLine
 10
33449.24640247564
 20
28561.34082441144
 30
0.0
 11
33449.24640247564
 21
28576.34082441144
 31
0.0
  0
TEXT
  5
D80
330
1F
100
AcDbEntity
  8
1
 62
     3
100
AcDbText
 10
33571.38645668226
 20
28583.86466709015
 30
0.0
 40
9.0
  1
防沫ソケット配線接続側
 41
0.6666666666670002
  7
BIGFONT
100
AcDbText
  0
LINE
  5
D81
330
1F
100
AcDbEntity
  8
1
  6
Continuous
 62
     3
100
AcDbLine
 10
33655.38631679159
 20
28576.34082441144
 30
0.0
 11
33651.86067576593
 21
28582.29320536382
 31
0.0
  0
LINE
  5
D82
330
1F
100
AcDbEntity
  8
1
  6
Continuous
 62
     3
100
AcDbLine
 10
33449.24640247564
 20
28571.84082441144
 30
0.0
 11
33438.2106881899
 21
28571.84082441144
 31
0.0
  0
LINE
  5
D83
330
1F
100
AcDbEntity
  8
1
  6
Continuous
 62
     3
100
AcDbLine
 10
33449.24640247564
 20
28565.84082441144
 30
0.0
 11
33438.2106881899
 21
28565.84082441144
 31
0.0
  0
LINE
  5
D84
330
1F
100
AcDbEntity
  8
1
  6
Continuous
 62
     3
100
AcDbLine
 10
33441.74640247564
 20
28575.09082441144
 30
0.0
 11
33435.85354533276
 21
28569.59082441144
 31
0.0
  0
LINE
  5
D85
330
1F
100
AcDbEntity
  8
1
  6
Continuous
 62
     3
100
AcDbLine
 10
33436.24640247564
 20
28575.4836815543
 30
0.0
 11
33441.74640247564
 21
28569.19796726859
 31
0.0
  0
LINE
  5
D86
330
1F
100
AcDbEntity
  8
1
  6
Continuous
 62
     3
100
AcDbLine
 10
33441.35354533277
 20
28568.41225298288
 30
0.0
 11
33435.85354533276
 21
28562.12653869715
 31
0.0
  0
LINE
  5
D87
330
1F
100
AcDbEntity
  8
1
  6
Continuous
 62
     3
100
AcDbLine
 10
33436.63925961847
 20
28568.01939584002
 30
0.0
 11
33440.17497390419
 21
28562.91225298288
 31
0.0
  0
TEXT
  5
D88
330
1F
100
AcDbEntity
  8
1
 62
     3
100
AcDbText
 10
33671.6286930104
 20
28552.07449781931
 30
0.0
 40
7.466666666666665
  1
＋
 41
0.6666666666670002
  7
BIGFONT
100
AcDbText
  0
TEXT
  5
D89
330
1F
100
AcDbEntity
  8
1
 62
     3
100
AcDbText
 10
33670.64103024997
 20
28575.77820875682
 30
0.0
 40
7.466666666666665
  1
－
 41
0.6666666666670002
  7
BIGFONT
100
AcDbText
  0
TEXT
  5
D8A
330
1F
100
AcDbEntity
  8
1
 62
     3
100
AcDbText
 10
33614.34470863538
 20
28502.69179111359
 30
0.0
 40
7.466666666666665
  1
－
 41
0.6666666666670002
  7
BIGFONT
100
AcDbText
  0
TEXT
  5
D8B
330
1F
100
AcDbEntity
  8
1
 62
     3
100
AcDbText
 10
33613.35707842704
 20
28525.40786370473
 30
0.0
 40
7.466666666666665
  1
＋
 41
0.6666666666670002
  7
BIGFONT
100
AcDbText
  0
TEXT
  5
D8C
330
1F
100
AcDbEntity
  8
1
 62
     3
100
AcDbText
 10
33523.43398272392
 20
28562.91219313182
 30
0.0
 40
12.0
  1
ＬＥＤ　ランプ
 41
0.6666666666670002
  7
BIGFONT
100
AcDbText
  0
TEXT
  5
D8D
330
1F
100
AcDbEntity
  8
1
 62
     3
100
AcDbText
 10
33538.75475065239
 20
28515.19440443158
 30
0.0
 40
9.600000000000001
  1
ＬＥＤ用電源
 41
0.6666666666670002
  7
BIGFONT
100
AcDbText
  0
LINE
  5
D8E
330
1F
100
AcDbEntity
  8
1
  6
Continuous
 62
     3
100
AcDbLine
 10
33530.56488822014
 20
28523.05511012573
 30
0.0
 11
33496.14822155348
 21
28523.10272917335
 31
0.0
  0
LINE
  5
D8F
330
1F
100
AcDbEntity
  8
1
  6
Continuous
 62
     3
100
AcDbLine
 10
33530.56488822014
 20
28517.05511012573
 30
0.0
 11
33497.19584060111
 21
28517.05511012573
 31
0.0
  0
TEXT
  5
D90
330
1F
100
AcDbEntity
  8
1
 62
     3
100
AcDbText
 10
33474.38649737235
 20
28513.67423740265
 30
0.0
 40
12.0
  1
電源
 41
0.6666666666670002
  7
BIGFONT
100
AcDbText
  0
LINE
  5
D91
330
1F
100
AcDbEntity
  8
1
  6
Continuous
 62
     3
100
AcDbLine
 10
33659.75017010164
 20
28573.98640177546
 30
0.0
 11
33654.41683676833
 21
28573.98640177546
 31
0.0
  0
LINE
  5
D92
330
1F
100
AcDbEntity
  8
1
  6
Continuous
 62
     3
100
AcDbLine
 10
33654.41683676833
 20
28573.98640177546
 30
0.0
 11
33654.41683676833
 21
28563.60164808974
 31
0.0
  0
LINE
  5
D93
330
1F
100
AcDbEntity
  8
1
  6
Continuous
 62
     3
100
AcDbLine
 10
33654.41683676833
 20
28563.60164808974
 30
0.0
 11
33659.75017010164
 21
28563.60164808974
 31
0.0
  0
LINE
  5
D94
330
1F
100
AcDbEntity
  8
1
  6
Continuous
 62
     3
100
AcDbLine
 10
33659.75017010164
 20
28573.98640177546
 30
0.0
 11
33659.75017010164
 21
28563.60164808974
 31
0.0
  0
LINE
  5
D95
330
1F
100
AcDbEntity
  8
1
  6
Continuous
 62
     3
100
AcDbLine
 10
33449.24640247564
 20
28561.34082441144
 30
0.0
 11
33449.24640247564
 21
28576.34082441144
 31
0.0
  0
LINE
  5
D96
330
1F
100
AcDbEntity
  8
1
  6
Continuous
 62
     3
100
AcDbLine
 10
33449.24640247564
 20
28576.34082441144
 30
0.0
 11
33466.24640247564
 21
28576.34082441144
 31
0.0
  0
LINE
  5
D97
330
1F
100
AcDbEntity
  8
1
  6
Continuous
 62
     3
100
AcDbLine
 10
33466.24640247564
 20
28576.34082441144
 30
0.0
 11
33466.24640247564
 21
28561.34082441144
 31
0.0
  0
LINE
  5
D98
330
1F
100
AcDbEntity
  8
1
  6
Continuous
 62
     3
100
AcDbLine
 10
33466.24640247564
 20
28561.34082441144
 30
0.0
 11
33449.24640247564
 21
28561.34082441144
 31
0.0
  0
LINE
  5
D99
330
1F
100
AcDbEntity
  8
1
  6
Continuous
 62
     3
100
AcDbLine
 10
33450.91826345126
 20
28563.69524704742
 30
0.0
 11
33456.2515967846
 21
28563.69524704742
 31
0.0
  0
LINE
  5
D9A
330
1F
100
AcDbEntity
  8
1
  6
Continuous
 62
     3
100
AcDbLine
 10
33456.2515967846
 20
28563.69524704742
 30
0.0
 11
33456.2515967846
 21
28574.08000073314
 31
0.0
  0
LINE
  5
D9B
330
1F
100
AcDbEntity
  8
1
  6
Continuous
 62
     3
100
AcDbLine
 10
33456.2515967846
 20
28574.08000073314
 30
0.0
 11
33450.91826345126
 21
28574.08000073314
 31
0.0
  0
LINE
  5
D9C
330
1F
100
AcDbEntity
  8
1
  6
Continuous
 62
     3
100
AcDbLine
 10
33450.91826345126
 20
28563.69524704742
 30
0.0
 11
33450.91826345126
 21
28574.08000073314
 31
0.0
  0
XLINE
  5
1123
330
1F
100
AcDbEntity
  8
オフセット
100
AcDbXline
 10
32915.44093491146
 20
27677.44632341185
 30
0.0
 11
-1.0
 21
0.0
 31
0.0
  0
XLINE
  5
1125
330
1F
100
AcDbEntity
  8
オフセット
100
AcDbXline
 10
32915.44093491146
 20
27806.29960941414
 30
0.0
 11
-1.0
 21
0.0
 31
0.0
  0
XLINE
  5
1126
330
1F
100
AcDbEntity
  8
オフセット
100
AcDbXline
 10
32915.44093491146
 20
27713.19632341184
 30
0.0
 11
-1.0
 21
0.0
 31
0.0
  0
LINE
  5
11C6
330
1F
100
AcDbEntity
  8
外形線
100
AcDbLine
 10
33724.21068823861
 20
28779.65633112582
 30
0.0
 11
33724.21068823861
 21
28798.65633112583
 31
0.0
  0
LINE
  5
11C7
330
1F
100
AcDbEntity
  8
外形線
100
AcDbLine
 10
33724.71068823861
 20
28799.15633112583
 30
0.0
 11
33746.21068823861
 21
28799.15633112583
 31
0.0
  0
ARC
  5
11C8
330
1F
100
AcDbEntity
  8
外形線
100
AcDbCircle
 10
33724.71068823861
 20
28798.65633112583
 30
0.0
 40
0.5
100
AcDbArc
 50
90.0
 51
180.0
  0
LINE
  5
11C9
330
1F
100
AcDbEntity
  8
外形線
100
AcDbLine
 10
33746.21068823861
 20
28790.15633112583
 30
0.0
 11
33746.21068823861
 21
28779.65633112582
 31
0.0
  0
ARC
  5
11CA
330
1F
100
AcDbEntity
  8
外形線
100
AcDbCircle
 10
33745.71068823861
 20
28779.65633112582
 30
0.0
 40
0.5
100
AcDbArc
 50
270.0
 51
0.0
  0
LINE
  5
11CB
330
1F
100
AcDbEntity
  8
外形線
100
AcDbLine
 10
33745.71068823861
 20
28779.15633112582
 30
0.0
 11
33724.71068823861
 21
28779.15633112582
 31
0.0
  0
ARC
  5
11CC
330
1F
100
AcDbEntity
  8
外形線
100
AcDbCircle
 10
33724.71068823861
 20
28779.65633112582
 30
0.0
 40
0.5
100
AcDbArc
 50
180.0
 51
270.0
  0
LINE
  5
11CD
330
1F
100
AcDbEntity
  8
外形線
100
AcDbLine
 10
33746.21068823861
 20
28799.15633112583
 30
0.0
 11
33757.71068823861
 21
28799.15633112583
 31
0.0
  0
LINE
  5
11CE
330
1F
100
AcDbEntity
  8
外形線
100
AcDbLine
 10
33758.21068823861
 20
28798.65633112583
 30
0.0
 11
33758.21068823861
 21
28790.65633112583
 31
0.0
  0
ARC
  5
11CF
330
1F
100
AcDbEntity
  8
外形線
100
AcDbCircle
 10
33757.71068823861
 20
28798.65633112583
 30
0.0
 40
0.5
100
AcDbArc
 50
0.0
 51
90.0
  0
ARC
  5
11D0
330
1F
100
AcDbEntity
  8
外形線
100
AcDbCircle
 10
33757.71068823861
 20
28790.65633112583
 30
0.0
 40
0.5
100
AcDbArc
 50
270.0
 51
0.0
  0
LINE
  5
11D1
330
1F
100
AcDbEntity
  8
外形線
100
AcDbLine
 10
33758.21068823861
 20
28790.15633112583
 30
0.0
 11
33746.21068823861
 21
28790.15633112583
 31
0.0
  0
LINE
  5
11D2
330
1F
100
AcDbEntity
  8
外形線
100
AcDbLine
 10
33746.71068823861
 20
28790.15633112583
 30
0.0
 11
33746.71068823861
 21
28788.65633112583
 31
0.0
  0
LINE
  5
11D3
330
1F
100
AcDbEntity
  8
外形線
100
AcDbLine
 10
33747.21068823861
 20
28788.15633112583
 30
0.0
 11
33757.71068823861
 21
28788.15633112583
 31
0.0
  0
ARC
  5
11D4
330
1F
100
AcDbEntity
  8
外形線
100
AcDbCircle
 10
33747.21068823861
 20
28788.65633112583
 30
0.0
 40
0.5
100
AcDbArc
 50
180.0
 51
270.0
  0
LINE
  5
11D5
330
1F
100
AcDbEntity
  8
外形線
100
AcDbLine
 10
33758.21068823861
 20
28788.65633112583
 30
0.0
 11
33758.21068823861
 21
28790.15633112583
 31
0.0
  0
ARC
  5
11D6
330
1F
100
AcDbEntity
  8
外形線
100
AcDbCircle
 10
33757.71068823861
 20
28788.65633112583
 30
0.0
 40
0.5
100
AcDbArc
 50
270.0
 51
0.0
  0
LINE
  5
11D7
330
1F
100
AcDbEntity
  8
外形線
100
AcDbLine
 10
33835.41068823859
 20
28775.15633112583
 30
0.0
 11
33835.41068823859
 21
28799.15633112583
 31
0.0
  0
LINE
  5
11D8
330
1F
100
AcDbEntity
  8
外形線
100
AcDbLine
 10
33835.41068823859
 20
28799.15633112583
 30
0.0
 11
33962.41068823859
 21
28799.15633112583
 31
0.0
  0
LINE
  5
11D9
330
1F
100
AcDbEntity
  8
外形線
100
AcDbLine
 10
33962.41068823859
 20
28799.15633112583
 30
0.0
 11
33962.41068823859
 21
28775.15633112583
 31
0.0
  0
ARC
  5
11DA
330
1F
100
AcDbEntity
  8
外形線
100
AcDbCircle
 10
33961.41068823859
 20
28775.15633112583
 30
0.0
 40
1.0
100
AcDbArc
 50
270.0
 51
0.0
  0
LINE
  5
11DB
102
{ACAD_REACTORS
330
1D7C
102
}
330
1F
100
AcDbEntity
  8
外形線
100
AcDbLine
 10
33961.41068823859
 20
28774.15633112583
 30
0.0
 11
33836.41068823859
 21
28774.15633112583
 31
0.0
  0
ARC
  5
11DC
330
1F
100
AcDbEntity
  8
外形線
100
AcDbCircle
 10
33836.41068823859
 20
28775.15633112583
 30
0.0
 40
1.0
100
AcDbArc
 50
180.0
 51
270.0
  0
LINE
  5
11DD
330
1F
100
AcDbEntity
  8
外形線
100
AcDbLine
 10
33835.41068823859
 20
28791.15633112582
 30
0.0
 11
33831.81068823859
 21
28797.15633112583
 31
0.0
  0
LINE
  5
11DE
330
1F
100
AcDbEntity
  8
外形線
100
AcDbLine
 10
33831.81068823859
 20
28797.15633112583
 30
0.0
 11
33823.91068823859
 21
28797.15633112583
 31
0.0
  0
LINE
  5
11DF
330
1F
100
AcDbEntity
  8
外形線
100
AcDbLine
 10
33823.41068823859
 20
28797.65633112583
 30
0.0
 11
33823.41068823859
 21
28799.15633112583
 31
0.0
  0
ARC
  5
11E0
330
1F
100
AcDbEntity
  8
外形線
100
AcDbCircle
 10
33823.91068823859
 20
28797.65633112583
 30
0.0
 40
0.5
100
AcDbArc
 50
180.0
 51
270.0
  0
LINE
  5
11E1
330
1F
100
AcDbEntity
  8
外形線
100
AcDbLine
 10
33823.41068823859
 20
28799.15633112583
 30
0.0
 11
33835.41068823859
 21
28799.15633112583
 31
0.0
  0
LINE
  5
11E2
330
1F
100
AcDbEntity
  8
外形線
100
AcDbLine
 10
33962.41068823859
 20
28791.15633112582
 30
0.0
 11
33966.01068823859
 21
28797.15633112583
 31
0.0
  0
LINE
  5
11E3
330
1F
100
AcDbEntity
  8
外形線
100
AcDbLine
 10
33966.01068823859
 20
28797.15633112583
 30
0.0
 11
33973.91068823859
 21
28797.15633112583
 31
0.0
  0
LINE
  5
11E4
330
1F
100
AcDbEntity
  8
外形線
100
AcDbLine
 10
33974.41068823859
 20
28797.65633112583
 30
0.0
 11
33974.41068823859
 21
28799.15633112583
 31
0.0
  0
ARC
  5
11E5
330
1F
100
AcDbEntity
  8
外形線
100
AcDbCircle
 10
33973.91068823859
 20
28797.65633112583
 30
0.0
 40
0.5
100
AcDbArc
 50
270.0
 51
0.0
  0
LINE
  5
11E6
330
1F
100
AcDbEntity
  8
外形線
100
AcDbLine
 10
33974.41068823859
 20
28799.15633112583
 30
0.0
 11
33962.41068823859
 21
28799.15633112583
 31
0.0
  0
LINE
  5
11F0
330
1F
100
AcDbEntity
  8
点線
100
AcDbLine
 10
33585.92183385658
 20
28819.80075831682
 30
0.0
 11
33586.71068823859
 21
28819.40633112582
 31
0.0
  0
ARC
  5
11F1
330
1F
100
AcDbEntity
  8
点線
100
AcDbCircle
 10
33585.47462026109
 20
28818.90633112582
 30
0.0
 40
1.0
100
AcDbArc
 50
63.43494882292858
 51
90.0
  0
LINE
  5
11F2
330
1F
100
AcDbEntity
  8
点線
100
AcDbLine
 10
33586.71068823859
 20
28819.40633112582
 30
0.0
 11
33586.71068823859
 21
28850.40633112582
 31
0.0
  0
LINE
  5
11F3
330
1F
100
AcDbEntity
  8
点線
100
AcDbLine
 10
33586.71068823859
 20
28850.40633112582
 30
0.0
 11
33585.92183385658
 21
28850.01190393482
 31
0.0
  0
ARC
  5
11F4
330
1F
100
AcDbEntity
  8
点線
100
AcDbCircle
 10
33585.47462026109
 20
28850.90633112582
 30
0.0
 40
1.0
100
AcDbArc
 50
270.0
 51
296.5650511770714
  0
LINE
  5
11F5
330
1F
100
AcDbEntity
  8
点線
100
AcDbLine
 10
33585.47462026109
 20
28849.90633112582
 30
0.0
 11
33576.71068823858
 21
28849.90633112582
 31
0.0
  0
LINE
  5
11F6
330
1F
100
AcDbEntity
  8
点線
100
AcDbLine
 10
33575.71068823859
 20
28848.90633112582
 30
0.0
 11
33575.71068823859
 21
28820.90633112582
 31
0.0
  0
ARC
  5
11F7
330
1F
100
AcDbEntity
  8
点線
100
AcDbCircle
 10
33576.71068823858
 20
28848.90633112582
 30
0.0
 40
1.0
100
AcDbArc
 50
90.0
 51
180.0
  0
LINE
  5
11F8
330
1F
100
AcDbEntity
  8
点線
100
AcDbLine
 10
33576.71068823858
 20
28819.90633112582
 30
0.0
 11
33585.47462026109
 21
28819.90633112582
 31
0.0
  0
ARC
  5
11F9
330
1F
100
AcDbEntity
  8
点線
100
AcDbCircle
 10
33576.71068823858
 20
28820.90633112582
 30
0.0
 40
1.0
100
AcDbArc
 50
180.0
 51
270.0
  0
LINE
  5
11FA
330
1F
100
AcDbEntity
  8
点線
100
AcDbLine
 10
34195.49954262059
 20
28819.80075831682
 30
0.0
 11
34194.71068823859
 21
28819.40633112582
 31
0.0
  0
ARC
  5
11FB
330
1F
100
AcDbEntity
  8
点線
100
AcDbCircle
 10
34195.94675621609
 20
28818.90633112582
 30
0.0
 40
1.0
100
AcDbArc
 50
90.0
 51
116.5650511771064
  0
LINE
  5
11FC
330
1F
100
AcDbEntity
  8
点線
100
AcDbLine
 10
34194.71068823859
 20
28819.40633112582
 30
0.0
 11
34194.71068823859
 21
28850.40633112582
 31
0.0
  0
LINE
  5
11FD
330
1F
100
AcDbEntity
  8
点線
100
AcDbLine
 10
34194.71068823859
 20
28850.40633112582
 30
0.0
 11
34195.49954262059
 21
28850.01190393482
 31
0.0
  0
ARC
  5
11FE
330
1F
100
AcDbEntity
  8
点線
100
AcDbCircle
 10
34195.94675621609
 20
28850.90633112582
 30
0.0
 40
1.0
100
AcDbArc
 50
243.4349488228936
 51
270.0
  0
LINE
  5
11FF
330
1F
100
AcDbEntity
  8
点線
100
AcDbLine
 10
34195.94675621609
 20
28849.90633112582
 30
0.0
 11
34204.71068823859
 21
28849.90633112582
 31
0.0
  0
LINE
  5
1200
330
1F
100
AcDbEntity
  8
点線
100
AcDbLine
 10
34205.71068823859
 20
28848.90633112582
 30
0.0
 11
34205.71068823859
 21
28820.90633112582
 31
0.0
  0
ARC
  5
1201
330
1F
100
AcDbEntity
  8
点線
100
AcDbCircle
 10
34204.71068823859
 20
28848.90633112582
 30
0.0
 40
1.0
100
AcDbArc
 50
0.0
 51
90.0
  0
LINE
  5
1202
330
1F
100
AcDbEntity
  8
点線
100
AcDbLine
 10
34204.71068823859
 20
28819.90633112582
 30
0.0
 11
34195.94675621609
 21
28819.90633112582
 31
0.0
  0
ARC
  5
1203
330
1F
100
AcDbEntity
  8
点線
100
AcDbCircle
 10
34204.71068823859
 20
28820.90633112582
 30
0.0
 40
1.0
100
AcDbArc
 50
270.0
 51
0.0
  0
LINE
  5
1204
330
1F
100
AcDbEntity
  8
点線
100
AcDbLine
 10
33586.71068823859
 20
28849.40633112582
 30
0.0
 11
33990.71068823859
 21
28849.40633112582
 31
0.0
  0
LINE
  5
1205
330
1F
100
AcDbEntity
  8
点線
100
AcDbLine
 10
34194.71068823859
 20
28820.40633112582
 30
0.0
 11
33990.71068823859
 21
28820.40633112582
 31
0.0
  0
LINE
  5
120A
330
1F
100
AcDbEntity
  8
点線
100
AcDbLine
 10
33990.71068823859
 20
28849.40633112582
 30
0.0
 11
34194.71068823859
 21
28849.40633112582
 31
0.0
  0
LINE
  5
120B
330
1F
100
AcDbEntity
  8
点線
100
AcDbLine
 10
33990.71068823859
 20
28820.40633112582
 30
0.0
 11
33586.71068823859
 21
28820.40633112582
 31
0.0
  0
XLINE
  5
1230
330
1F
100
AcDbEntity
  8
オフセット
100
AcDbXline
 10
32915.44093491146
 20
27877.44632341185
 30
0.0
 11
-1.0
 21
0.0
 31
0.0
  0
XLINE
  5
129A
330
1F
100
AcDbEntity
  8
オフセット
100
AcDbXline
 10
32915.44093491146
 20
27897.44632341184
 30
0.0
 11
-1.0
 21
0.0
 31
0.0
  0
XLINE
  5
129B
330
1F
100
AcDbEntity
  8
オフセット
100
AcDbXline
 10
32915.44093491146
 20
27657.44632341184
 30
0.0
 11
-1.0
 21
0.0
 31
0.0
  0
DIMENSION
  5
1314
102
{ACAD_XDICTIONARY
360
1322
102
}
102
{ACAD_REACTORS
330
132D
102
}
330
1F
100
AcDbEntity
  8
寸法線
100
AcDbDimension
280
     0
  2
*D5
 10
34432.21068823858
 20
28891.29755887941
 30
0.0
 11
34447.90049042139
 21
28901.96348657382
 31
0.0
 70
    32
 71
     5
 42
20.99999999999273
 73
     0
 74
     0
 75
     0
  3
ISO-25
100
AcDbAlignedDimension
 13
34411.21068823858
 23
28861.15633112583
 33
0.0
 14
34432.21068823858
 24
28834.90633112582
 34
0.0
100
AcDbRotatedDimension
  0
CIRCLE
  5
13AF
330
1F
100
AcDbEntity
  8
○
100
AcDbCircle
 10
34297.71394138211
 20
28941.00189436203
 30
0.0
 40
15.0
  0
MTEXT
  5
13B0
330
1F
100
AcDbEntity
  8
寸法線
100
AcDbMText
 10
34291.2211129204
 20
28950.74574485303
 30
0.0
 40
20.0
 41
35.534113038535
 46
0.0
 71
     1
 72
     5
  1
2
 73
     1
 44
1.0
1001
ACAD
1000
ACAD_MTEXT_COLUMN_INFO_BEGIN
1070
    75
1070
     2
1070
    79
1070
     0
1070
    76
1070
     1
1070
    78
1070
     0
1070
    48
1040
35.534113038535
1070
    49
1040
12.5
1070
    50
1070
     1
1040
0.0
1000
ACAD_MTEXT_COLUMN_INFO_END
  0
LINE
  5
13B1
330
1F
100
AcDbEntity
  8
○
100
AcDbLine
 10
34288.93216443611
 20
28953.1625026392
 30
0.0
 11
34233.79085088329
 21
28997.71653710748
 31
0.0
  0
LINE
  5
13B2
330
1F
100
AcDbEntity
  8
○
100
AcDbLine
 10
34288.19585402363
 20
28929.86124485975
 30
0.0
 11
34230.74654524104
 21
28819.73416119677
 31
0.0
  0
MTEXT
  5
13B3
330
1F
100
AcDbEntity
  8
寸法線
100
AcDbMText
 10
34053.8154419997
 20
29341.17287490402
 30
0.0
 40
9.600000000000001
 41
206.0602204717434
 46
0.0
 71
     1
 72
     5
  1
{\fMS PGothic|b0|i0|c128|p50;ランプソケット取付金具}
 73
     1
 44
1.0
1001
ACAD
1000
ACAD_MTEXT_COLUMN_INFO_BEGIN
1070
    75
1070
     2
1070
    79
1070
     0
1070
    76
1070
     1
1070
    78
1070
     0
1070
    48
1040
206.0602204717434
1070
    49
1040
12.5
1070
    50
1070
     1
1040
0.0
1000
ACAD_MTEXT_COLUMN_INFO_END
  0
MTEXT
  5
13B4
330
1F
100
AcDbEntity
  8
寸法線
100
AcDbMText
 10
34234.698096507
 20
29345.69618849504
 30
0.0
 40
8.0
 41
163.0743348696414
 46
0.0
 71
     1
 72
     5
  1
{\fMS PGothic|b0|i0|c128|p50;鋼鈑　}1{\fMS PGothic|b0|i0|c128|p50;ｔ}\P{\fMS PGothic|b0|i0|c128|p50;（亜鉛メッキ板）}
 73
     1
 44
1.0
1001
ACAD
1000
ACAD_MTEXT_COLUMN_INFO_BEGIN
1070
    75
1070
     2
1070
    79
1070
     0
1070
    76
1070
     1
1070
    78
1070
     0
1070
    48
1040
163.0743348696414
1070
    49
1040
12.5
1070
    50
1070
     1
1040
0.0
1000
ACAD_MTEXT_COLUMN_INFO_END
  0
XLINE
  5
17D7
330
1F
100
AcDbEntity
  8
オフセット
100
AcDbXline
 10
33437.07906368178
 20
27902.11527306976
 30
0.0
 11
0.0
 21
-1.0
 31
0.0
  0
XLINE
  5
17DD
330
1F
100
AcDbEntity
  8
オフセット
100
AcDbXline
 10
32678.26842177908
 20
26638.05684584568
 30
0.0
 11
-1.0
 21
0.0
 31
0.0
  0
LINE
  5
1B64
330
1F
100
AcDbEntity
  8
外形線
100
AcDbLine
 10
33561.21068823858
 20
28809.15633112583
 30
0.0
 11
33561.21068823858
 21
28799.15633112583
 31
0.0
  0
LINE
  5
1B65
330
1F
100
AcDbEntity
  8
外形線
100
AcDbLine
 10
33561.21068823858
 20
28799.15633112583
 30
0.0
 11
34233.21068823859
 21
28799.15633112583
 31
0.0
  0
LINE
  5
1B66
102
{ACAD_REACTORS
330
1D62
330
1D7C
102
}
330
1F
100
AcDbEntity
  8
外形線
100
AcDbLine
 10
34233.21068823859
 20
28799.15633112583
 30
0.0
 11
34233.21068823859
 21
28809.15633112583
 31
0.0
  0
LINE
  5
1B67
330
1F
100
AcDbEntity
  8
外形線
100
AcDbLine
 10
34233.21068823859
 20
28809.15633112583
 30
0.0
 11
33561.21068823858
 21
28809.15633112583
 31
0.0
  0
LINE
  5
1B68
330
1F
100
AcDbEntity
  8
外形線
100
AcDbLine
 10
33561.21068823858
 20
28815.15633147484
 30
0.0
 11
33561.21068823858
 21
28851.15633112583
 31
0.0
  0
LINE
  5
1B69
330
1F
100
AcDbEntity
  8
外形線
100
AcDbLine
 10
33562.21068823859
 20
28831.15633112582
 30
0.0
 11
33564.48659015913
 21
28830.70115074172
 31
0.0
  0
LINE
  5
1B6A
330
1F
100
AcDbEntity
  8
外形線
100
AcDbLine
 10
33562.21068823859
 20
28831.15633112582
 30
0.0
 11
33562.21068823859
 21
28851.15633112583
 31
0.0
  0
LINE
  5
1B6B
330
1F
100
AcDbEntity
  8
外形線
100
AcDbLine
 10
33562.21068823859
 20
28851.15633112583
 30
0.0
 11
33561.21068823858
 21
28851.15633112583
 31
0.0
  0
ELLIPSE
  5
1B6C
330
1F
100
AcDbEntity
  8
外形線
100
AcDbEllipse
 10
33564.56783109572
 20
28828.65633112583
 30
0.0
 11
-2.35714285713766
 21
1.5
 31
0.0
210
0.0
220
0.0
230
1.0
 40
0.6753514169109462
 41
3.682438273673346
 42
4.822127997503216
  0
ARC
  5
1B6D
330
1F
100
AcDbEntity
  8
外形線
100
AcDbCircle
 10
33563.89824175364
 20
28827.75940871454
 30
0.0
 40
3.0
100
AcDbArc
 50
61.78442072581368
 51
78.69006752528486
  0
LINE
  5
1B6E
330
1F
100
AcDbEntity
  8
外形線
100
AcDbLine
 10
33562.21068823859
 20
28850.65633112583
 30
0.0
 11
33562.71068823859
 21
28850.65633112583
 31
0.0
  0
LINE
  5
1B6F
330
1F
100
AcDbEntity
  8
外形線
100
AcDbLine
 10
33562.71068823859
 20
28850.65633112583
 30
0.0
 11
33562.71068823859
 21
28831.05633112583
 31
0.0
  0
LINE
  5
1B70
330
1F
100
AcDbEntity
  8
外形線
100
AcDbLine
 10
33562.71068823859
 20
28850.65633112583
 30
0.0
 11
33574.71068823858
 21
28850.65633112583
 31
0.0
  0
LINE
  5
1B71
330
1F
100
AcDbEntity
  8
外形線
100
AcDbLine
 10
33575.71068823859
 20
28849.65633112583
 30
0.0
 11
33575.71068823859
 21
28820.15633112583
 31
0.0
  0
ARC
  5
1B72
330
1F
100
AcDbEntity
  8
外形線
100
AcDbCircle
 10
33574.71068823858
 20
28849.65633112583
 30
0.0
 40
1.0
100
AcDbArc
 50
0.0
 51
90.0
  0
ARC
  5
1B73
330
1F
100
AcDbEntity
  8
外形線
100
AcDbCircle
 10
33574.71068823858
 20
28820.15633112583
 30
0.0
 40
1.0
100
AcDbArc
 50
270.0
 51
0.0
  0
LINE
  5
1B74
330
1F
100
AcDbEntity
  8
外形線
100
AcDbLine
 10
33574.71068823858
 20
28819.15633112583
 30
0.0
 11
33567.11011572816
 21
28819.15633112583
 31
0.0
  0
LINE
  5
1B75
330
1F
100
AcDbEntity
  8
外形線
100
AcDbLine
 10
33567.11011572816
 20
28828.1900279806
 30
0.0
 11
33567.11011572816
 21
28819.15633112583
 31
0.0
  0
LINE
  5
1B76
330
1F
100
AcDbEntity
  8
外形線
100
AcDbLine
 10
33567.11011572816
 20
28819.15633112583
 30
0.0
 11
33567.11011572815
 21
28814.19520301392
 31
0.0
  0
ARC
  5
1B77
330
1F
100
AcDbEntity
  8
外形線
100
AcDbCircle
 10
33557.66270437685
 20
28815.61428159836
 30
0.0
 40
9.559246875214904
100
AcDbArc
 50
323.1356689796036
 51
350.9878324004346
  0
ARC
  5
1B78
330
1F
100
AcDbEntity
  8
外形線
100
AcDbCircle
 10
33565.71068823858
 20
28809.57951534659
 30
0.0
 40
0.5
100
AcDbArc
 50
143.1356689792765
 51
180.0000000008337
  0
ARC
  5
1B79
330
1F
100
AcDbEntity
  8
外形線
100
AcDbCircle
 10
33566.61011572816
 20
28814.19520301392
 30
0.0
 40
0.5
100
AcDbArc
 50
350.9878324008564
 51
0.0
  0
LINE
  5
1B7A
330
1F
100
AcDbEntity
  8
外形線
100
AcDbLine
 10
33565.21068823858
 20
28809.15633112583
 30
0.0
 11
33565.21068823858
 21
28809.57951534659
 31
0.0
  0
LINE
  5
1B7B
330
1F
100
AcDbEntity
  8
外形線
100
AcDbLine
 10
34233.21068823859
 20
28805.15633147484
 30
0.0
 11
34233.89396981159
 21
28806.52289462084
 31
0.0
  0
ARC
  5
1B7C
330
1F
100
AcDbEntity
  8
外形線
100
AcDbCircle
 10
34231.21068823859
 20
28807.86453540734
 30
0.0
 40
3.0
100
AcDbArc
 50
333.4349488229318
 51
0.0
  0
LINE
  5
1B7D
330
1F
100
AcDbEntity
  8
外形線
100
AcDbLine
 10
34234.21068823859
 20
28807.86453540734
 30
0.0
 11
34234.21068823859
 21
28813.74211791245
 31
0.0
  0
ARC
  5
1B7E
330
1F
100
AcDbEntity
  8
外形線
100
AcDbCircle
 10
34233.71068823858
 20
28813.74211791245
 30
0.0
 40
0.5
100
AcDbArc
 50
0.0
 51
44.99999999956243
  0
LINE
  5
1B7F
330
1F
100
AcDbEntity
  8
外形線
100
AcDbLine
 10
34234.06424162918
 20
28814.09567130305
 30
0.0
 11
34233.35713484799
 21
28814.80277808424
 31
0.0
  0
ARC
  5
1B80
330
1F
100
AcDbEntity
  8
外形線
100
AcDbCircle
 10
34233.71068823858
 20
28815.15633147484
 30
0.0
 40
0.5
100
AcDbArc
 50
180.0
 51
224.9999999995624
  0
LINE
  5
1B81
330
1F
100
AcDbEntity
  8
外形線
100
AcDbLine
 10
34233.21068823859
 20
28815.15633147484
 30
0.0
 11
34233.21068823859
 21
28851.15633112583
 31
0.0
  0
LINE
  5
1B82
330
1F
100
AcDbEntity
  8
外形線
100
AcDbLine
 10
34232.21068823858
 20
28831.15633112582
 30
0.0
 11
34229.93478631804
 21
28830.70115074172
 31
0.0
  0
LINE
  5
1B83
330
1F
100
AcDbEntity
  8
外形線
100
AcDbLine
 10
34232.21068823858
 20
28831.15633112582
 30
0.0
 11
34232.21068823858
 21
28851.15633112583
 31
0.0
  0
LINE
  5
1B84
102
{ACAD_REACTORS
330
1D62
102
}
330
1F
100
AcDbEntity
  8
外形線
100
AcDbLine
 10
34232.21068823858
 20
28851.15633112583
 30
0.0
 11
34233.21068823859
 21
28851.15633112583
 31
0.0
  0
ELLIPSE
  5
1B85
330
1F
100
AcDbEntity
  8
外形線
100
AcDbEllipse
 10
34229.85354538145
 20
28828.65633112583
 30
0.0
 11
2.35714285713766
 21
1.5
 31
0.0
210
0.0
220
0.0
230
-1.0
 40
0.6753514169109462
 41
3.682438273673346
 42
4.822127997503216
  0
ARC
  5
1B86
330
1F
100
AcDbEntity
  8
外形線
100
AcDbCircle
 10
34230.52313472353
 20
28827.75940871454
 30
0.0
 40
3.0
100
AcDbArc
 50
101.3099324747151
 51
118.2155792741863
  0
LINE
  5
1B87
330
1F
100
AcDbEntity
  8
外形線
100
AcDbLine
 10
34232.21068823858
 20
28850.65633112583
 30
0.0
 11
34231.71068823859
 21
28850.65633112583
 31
0.0
  0
LINE
  5
1B88
330
1F
100
AcDbEntity
  8
外形線
100
AcDbLine
 10
34231.71068823859
 20
28850.65633112583
 30
0.0
 11
34231.71068823859
 21
28831.05633112583
 31
0.0
  0
LINE
  5
1B89
330
1F
100
AcDbEntity
  8
外形線
100
AcDbLine
 10
34231.71068823859
 20
28850.65633112583
 30
0.0
 11
34217.71068823859
 21
28850.65633112583
 31
0.0
  0
LINE
  5
1B8A
330
1F
100
AcDbEntity
  8
外形線
100
AcDbLine
 10
34216.71068823858
 20
28849.65633112583
 30
0.0
 11
34216.71068823858
 21
28820.15633112583
 31
0.0
  0
ARC
  5
1B8B
330
1F
100
AcDbEntity
  8
外形線
100
AcDbCircle
 10
34217.71068823859
 20
28849.65633112583
 30
0.0
 40
1.0
100
AcDbArc
 50
90.0
 51
180.0
  0
ARC
  5
1B8C
330
1F
100
AcDbEntity
  8
外形線
100
AcDbCircle
 10
34217.71068823859
 20
28820.15633112583
 30
0.0
 40
1.0
100
AcDbArc
 50
180.0
 51
270.0
  0
LINE
  5
1B8D
330
1F
100
AcDbEntity
  8
外形線
100
AcDbLine
 10
34217.71068823859
 20
28819.15633112583
 30
0.0
 11
34227.311260749
 21
28819.15633112583
 31
0.0
  0
LINE
  5
1B8E
330
1F
100
AcDbEntity
  8
外形線
100
AcDbLine
 10
34227.31126074901
 20
28828.1900279806
 30
0.0
 11
34227.31126074901
 21
28819.15633112583
 31
0.0
  0
LINE
  5
1B8F
330
1F
100
AcDbEntity
  8
外形線
100
AcDbLine
 10
34227.31126074901
 20
28819.15633112583
 30
0.0
 11
34227.31126074902
 21
28814.19520301392
 31
0.0
  0
ARC
  5
1B90
330
1F
100
AcDbEntity
  8
外形線
100
AcDbCircle
 10
34236.75867210032
 20
28815.61428159836
 30
0.0
 40
9.559246875214904
100
AcDbArc
 50
189.0121675995654
 51
216.8643310199744
  0
ARC
  5
1B91
330
1F
100
AcDbEntity
  8
外形線
100
AcDbCircle
 10
34228.71068823859
 20
28809.57951534659
 30
0.0
 40
0.5
100
AcDbArc
 50
359.9999999991662
 51
36.86433102114543
  0
ARC
  5
1B92
330
1F
100
AcDbEntity
  8
外形線
100
AcDbCircle
 10
34227.81126074901
 20
28814.19520301392
 30
0.0
 40
0.5
100
AcDbArc
 50
180.0
 51
189.0121675991436
  0
LINE
  5
1B93
330
1F
100
AcDbEntity
  8
外形線
100
AcDbLine
 10
34229.21068823859
 20
28809.15633112583
 30
0.0
 11
34229.21068823859
 21
28809.57951534659
 31
0.0
  0
LINE
  5
1B94
330
1F
100
AcDbEntity
  8
外形線
100
AcDbLine
 10
34216.71068823858
 20
28846.20633112583
 30
0.0
 11
34208.21068823859
 21
28846.20633112583
 31
0.0
  0
ARC
  5
1B95
330
1F
100
AcDbEntity
  8
外形線
100
AcDbCircle
 10
34208.21068823859
 20
28845.70633112583
 30
0.0
 40
0.5
100
AcDbArc
 50
90.0
 51
180.0
  0
LINE
  5
1B96
330
1F
100
AcDbEntity
  8
外形線
100
AcDbLine
 10
34207.71068823859
 20
28845.70633112583
 30
0.0
 11
34207.71068823859
 21
28824.10633112582
 31
0.0
  0
LINE
  5
1B97
330
1F
100
AcDbEntity
  8
外形線
100
AcDbLine
 10
34208.21068823859
 20
28823.60633112582
 30
0.0
 11
34216.71068823858
 21
28823.60633112582
 31
0.0
  0
ARC
  5
1B98
330
1F
100
AcDbEntity
  8
外形線
100
AcDbCircle
 10
34208.21068823859
 20
28824.10633112582
 30
0.0
 40
0.5
100
AcDbArc
 50
180.0
 51
270.0
  0
LINE
  5
1B99
330
1F
100
AcDbEntity
  8
外形線
100
AcDbLine
 10
33599.71068823859
 20
28799.15633112583
 30
0.0
 11
33599.71068823859
 21
28795.65633112583
 31
0.0
  0
LINE
  5
1B9A
330
1F
100
AcDbEntity
  8
外形線
100
AcDbLine
 10
33600.21068823859
 20
28795.15633112583
 30
0.0
 11
33619.21068823859
 21
28795.15633112583
 31
0.0
  0
ARC
  5
1B9B
330
1F
100
AcDbEntity
  8
外形線
100
AcDbCircle
 10
33600.21068823859
 20
28795.65633112583
 30
0.0
 40
0.5
100
AcDbArc
 50
180.0
 51
270.0
  0
LINE
  5
1B9C
330
1F
100
AcDbEntity
  8
外形線
100
AcDbLine
 10
33619.71068823859
 20
28795.65633112583
 30
0.0
 11
33619.71068823859
 21
28799.15633112583
 31
0.0
  0
ARC
  5
1B9D
330
1F
100
AcDbEntity
  8
外形線
100
AcDbCircle
 10
33619.21068823859
 20
28795.65633112583
 30
0.0
 40
0.5
100
AcDbArc
 50
270.0
 51
0.0
  0
LINE
  5
1B9E
330
1F
100
AcDbEntity
  8
外形線
100
AcDbLine
 10
33619.71068823859
 20
28797.15633112583
 30
0.0
 11
33620.21068823858
 21
28797.15633112583
 31
0.0
  0
ARC
  5
1B9F
330
1F
100
AcDbEntity
  8
外形線
100
AcDbCircle
 10
33620.67991183218
 20
28799.13230163383
 30
0.0
 40
2.030918567864959
100
AcDbArc
 50
256.641686520281
 51
0.6779299878933172
  0
ARC
  5
1BA0
330
1F
100
AcDbEntity
  8
外形線
100
AcDbCircle
 10
33620.7203044746
 20
28799.1131812617
 30
0.0
 40
1.617898346868975
100
AcDbArc
 50
251.6399975157815
 51
1.371947721248656
  0
LINE
  5
1BA1
330
1F
100
AcDbEntity
  8
外形線
100
AcDbLine
 10
33620.21068823858
 20
28799.15633112583
 30
0.0
 11
33620.21068823858
 21
28797.5776401998
 31
0.0
  0
LINE
  5
1BA2
330
1F
100
AcDbEntity
  8
外形線
100
AcDbLine
 10
34194.71068823859
 20
28799.15633112583
 30
0.0
 11
34194.71068823859
 21
28795.65633112583
 31
0.0
  0
LINE
  5
1BA3
330
1F
100
AcDbEntity
  8
外形線
100
AcDbLine
 10
34194.21068823859
 20
28795.15633112583
 30
0.0
 11
34175.21068823859
 21
28795.15633112583
 31
0.0
  0
ARC
  5
1BA4
330
1F
100
AcDbEntity
  8
外形線
100
AcDbCircle
 10
34194.21068823859
 20
28795.65633112583
 30
0.0
 40
0.5
100
AcDbArc
 50
270.0
 51
0.0
  0
LINE
  5
1BA5
330
1F
100
AcDbEntity
  8
外形線
100
AcDbLine
 10
34174.71068823858
 20
28795.65633112583
 30
0.0
 11
34174.71068823858
 21
28799.15633112583
 31
0.0
  0
ARC
  5
1BA6
330
1F
100
AcDbEntity
  8
外形線
100
AcDbCircle
 10
34175.21068823859
 20
28795.65633112583
 30
0.0
 40
0.5
100
AcDbArc
 50
180.0
 51
270.0
  0
LINE
  5
1BA7
330
1F
100
AcDbEntity
  8
外形線
100
AcDbLine
 10
34174.71068823858
 20
28797.15633112583
 30
0.0
 11
34174.21068823859
 21
28797.15633112583
 31
0.0
  0
ARC
  5
1BA8
330
1F
100
AcDbEntity
  8
外形線
100
AcDbCircle
 10
34173.74146464499
 20
28799.13230163383
 30
0.0
 40
2.030918567864959
100
AcDbArc
 50
179.3220700121067
 51
283.3583134801236
  0
ARC
  5
1BA9
330
1F
100
AcDbEntity
  8
外形線
100
AcDbCircle
 10
34173.70107200257
 20
28799.1131812617
 30
0.0
 40
1.617898346868975
100
AcDbArc
 50
178.6280522787514
 51
288.3600024838189
  0
LINE
  5
1BAA
330
1F
100
AcDbEntity
  8
外形線
100
AcDbLine
 10
34174.21068823859
 20
28799.15633112583
 30
0.0
 11
34174.21068823859
 21
28797.5776401998
 31
0.0
  0
LINE
  5
1BAB
330
1F
100
AcDbEntity
  8
外形線
100
AcDbLine
 10
34233.21068823859
 20
28987.15633112582
 30
0.0
 11
34233.21068823859
 21
29011.15633112583
 31
0.0
  0
LINE
  5
1BAC
330
1F
100
AcDbEntity
  8
外形線
100
AcDbLine
 10
34216.71068823858
 20
29011.15633112583
 30
0.0
 11
34208.21068823859
 21
29011.15633112583
 31
0.0
  0
ARC
  5
1BAD
330
1F
100
AcDbEntity
  8
外形線
100
AcDbCircle
 10
34208.21068823859
 20
29010.65633112583
 30
0.0
 40
0.5
100
AcDbArc
 50
90.0
 51
180.0
  0
LINE
  5
1BAE
330
1F
100
AcDbEntity
  8
外形線
100
AcDbLine
 10
33561.21068823858
 20
29011.15633112583
 30
0.0
 11
33561.21068823858
 21
28987.15633112582
 31
0.0
  0
LINE
  5
1BAF
330
1F
100
AcDbEntity
  8
外形線
100
AcDbLine
 10
34208.21068823859
 20
28987.15633112582
 30
0.0
 11
34216.71068823858
 21
28987.15633112582
 31
0.0
  0
LINE
  5
1BB0
330
1F
100
AcDbEntity
  8
外形線
100
AcDbLine
 10
34207.71068823859
 20
29010.15633112582
 30
0.0
 11
33575.71068823859
 21
29010.15633112582
 31
0.0
  0
LINE
  5
1BB1
330
1F
100
AcDbEntity
  8
外形線
100
AcDbLine
 10
33575.71068823859
 20
28988.15633112583
 30
0.0
 11
34207.71068823859
 21
28988.15633112583
 31
0.0
  0
LINE
  5
1BB2
330
1F
100
AcDbEntity
  8
外形線
100
AcDbLine
 10
33561.21068823858
 20
29008.15633112582
 30
0.0
 11
33560.21362956987
 21
29002.3401516889
 31
0.0
  0
ARC
  5
1BB3
330
1F
100
AcDbEntity
  8
外形線
100
AcDbCircle
 10
33560.46022805084
 20
29002.29905194207
 30
0.0
 40
0.25
100
AcDbArc
 50
170.537677792045
 51
176.5230231830233
  0
ARC
  5
1BB4
330
1F
100
AcDbEntity
  8
外形線
100
AcDbCircle
 10
33560.46022805084
 20
29002.29905194207
 30
0.0
 40
0.25
100
AcDbArc
 50
183.4769768169767
 51
243.4349488229228
  0
LINE
  5
1BB5
102
{ACAD_REACTORS
330
1D4A
102
}
330
1F
100
AcDbEntity
  8
外形線
100
AcDbLine
 10
33560.21068823859
 20
29002.31421380551
 30
0.0
 11
33560.21068823859
 21
28995.99844844614
 31
0.0
  0
LINE
  5
1BB6
330
1F
100
AcDbEntity
  8
外形線
100
AcDbLine
 10
33560.34842465196
 20
29002.07544514433
 30
0.0
 11
33561.21068823858
 21
29001.65633112583
 31
0.0
  0
LINE
  5
1BB7
330
1F
100
AcDbEntity
  8
外形線
100
AcDbLine
 10
33561.21068823858
 20
28990.15633112583
 30
0.0
 11
33560.21362956987
 21
28995.97251056275
 31
0.0
  0
ARC
  5
1BB8
330
1F
100
AcDbEntity
  8
外形線
100
AcDbCircle
 10
33560.46022805084
 20
28996.01361030958
 30
0.0
 40
0.25
100
AcDbArc
 50
183.4769768169767
 51
189.4623222084305
  0
ARC
  5
1BB9
330
1F
100
AcDbEntity
  8
外形線
100
AcDbCircle
 10
33560.46022805084
 20
28996.01361030958
 30
0.0
 40
0.25
100
AcDbArc
 50
116.5650511770772
 51
176.5230231830233
  0
LINE
  5
1BBA
330
1F
100
AcDbEntity
  8
外形線
100
AcDbLine
 10
33560.34842465196
 20
28996.23721710733
 30
0.0
 11
33561.21068823858
 21
28996.65633112583
 31
0.0
  0
LINE
  5
1BBB
330
1F
100
AcDbEntity
  8
外形線
100
AcDbLine
 10
33561.21068823858
 20
29011.15633112583
 30
0.0
 11
33561.21068823858
 21
29015.15633112583
 31
0.0
  0
LINE
  5
1BBC
330
1F
100
AcDbEntity
  8
外形線
100
AcDbLine
 10
33561.21068823858
 20
29015.15633112583
 30
0.0
 11
33562.21068823859
 21
29015.15633112583
 31
0.0
  0
LINE
  5
1BBD
330
1F
100
AcDbEntity
  8
外形線
100
AcDbLine
 10
33562.21068823859
 20
29015.15633112583
 30
0.0
 11
33562.21068823859
 21
28983.15633112583
 31
0.0
  0
LINE
  5
1BBE
330
1F
100
AcDbEntity
  8
外形線
100
AcDbLine
 10
33562.21068823859
 20
28983.15633112583
 30
0.0
 11
33561.21068823858
 21
28983.15633112583
 31
0.0
  0
LINE
  5
1BBF
330
1F
100
AcDbEntity
  8
外形線
100
AcDbLine
 10
33561.21068823858
 20
28983.15633112583
 30
0.0
 11
33561.21068823858
 21
28990.15633112583
 31
0.0
  0
LINE
  5
1BC0
330
1F
100
AcDbEntity
  8
外形線
100
AcDbLine
 10
33562.21068823859
 20
28983.15633112583
 30
0.0
 11
33562.71068823859
 21
28983.15633112583
 31
0.0
  0
LINE
  5
1BC1
330
1F
100
AcDbEntity
  8
外形線
100
AcDbLine
 10
33562.71068823859
 20
28983.15633112583
 30
0.0
 11
33562.71068823859
 21
29015.15633112583
 31
0.0
  0
LINE
  5
1BC2
330
1F
100
AcDbEntity
  8
外形線
100
AcDbLine
 10
33562.71068823859
 20
29015.15633112583
 30
0.0
 11
33562.21068823859
 21
29015.15633112583
 31
0.0
  0
LINE
  5
1BC3
330
1F
100
AcDbEntity
  8
外形線
100
AcDbLine
 10
33562.71068823859
 20
28983.15633112583
 30
0.0
 11
33574.71068823858
 21
28983.15633112583
 31
0.0
  0
LINE
  5
1BC4
330
1F
100
AcDbEntity
  8
外形線
100
AcDbLine
 10
33575.71068823859
 20
28984.15633112583
 30
0.0
 11
33575.71068823859
 21
29014.15633112582
 31
0.0
  0
ARC
  5
1BC5
330
1F
100
AcDbEntity
  8
外形線
100
AcDbCircle
 10
33574.71068823858
 20
28984.15633112583
 30
0.0
 40
1.0
100
AcDbArc
 50
270.0
 51
0.0
  0
LINE
  5
1BC6
330
1F
100
AcDbEntity
  8
外形線
100
AcDbLine
 10
33574.71068823858
 20
29015.15633112583
 30
0.0
 11
33562.71068823859
 21
29015.15633112583
 31
0.0
  0
ARC
  5
1BC7
330
1F
100
AcDbEntity
  8
外形線
100
AcDbCircle
 10
33574.71068823858
 20
29014.15633112582
 30
0.0
 40
1.0
100
AcDbArc
 50
0.0
 51
90.0
  0
LINE
  5
1BC8
330
1F
100
AcDbEntity
  8
外形線
100
AcDbLine
 10
34233.21068823859
 20
29011.15633112583
 30
0.0
 11
34233.21068823859
 21
28987.15633112582
 31
0.0
  0
LINE
  5
1BC9
330
1F
100
AcDbEntity
  8
外形線
100
AcDbLine
 10
34233.21068823859
 20
29008.15633112582
 30
0.0
 11
34234.2077469073
 21
29002.3401516889
 31
0.0
  0
ARC
  5
1BCA
330
1F
100
AcDbEntity
  8
外形線
100
AcDbCircle
 10
34233.96114842634
 20
29002.29905194207
 30
0.0
 40
0.25
100
AcDbArc
 50
3.476976816976713
 51
9.46232220795494
  0
ARC
  5
1BCB
330
1F
100
AcDbEntity
  8
外形線
100
AcDbCircle
 10
34233.96114842634
 20
29002.29905194207
 30
0.0
 40
0.25
100
AcDbArc
 50
296.5650511770773
 51
356.5230231830233
  0
LINE
  5
1BCC
102
{ACAD_REACTORS
330
1D4A
102
}
330
1F
100
AcDbEntity
  8
外形線
100
AcDbLine
 10
34234.21068823859
 20
29002.31421380551
 30
0.0
 11
34234.21068823859
 21
28995.99844844614
 31
0.0
  0
LINE
  5
1BCD
330
1F
100
AcDbEntity
  8
外形線
100
AcDbLine
 10
34234.07295182521
 20
29002.07544514433
 30
0.0
 11
34233.21068823859
 21
29001.65633112583
 31
0.0
  0
LINE
  5
1BCE
330
1F
100
AcDbEntity
  8
外形線
100
AcDbLine
 10
34233.21068823859
 20
28990.15633112583
 30
0.0
 11
34234.2077469073
 21
28995.97251056275
 31
0.0
  0
ARC
  5
1BCF
330
1F
100
AcDbEntity
  8
外形線
100
AcDbCircle
 10
34233.96114842634
 20
28996.01361030958
 30
0.0
 40
0.25
100
AcDbArc
 50
350.5376777915695
 51
356.5230231830233
  0
ARC
  5
1BD0
330
1F
100
AcDbEntity
  8
外形線
100
AcDbCircle
 10
34233.96114842634
 20
28996.01361030958
 30
0.0
 40
0.25
100
AcDbArc
 50
3.476976816976713
 51
63.43494882292274
  0
LINE
  5
1BD1
330
1F
100
AcDbEntity
  8
外形線
100
AcDbLine
 10
34234.07295182521
 20
28996.23721710733
 30
0.0
 11
34233.21068823859
 21
28996.65633112583
 31
0.0
  0
LINE
  5
1BD2
330
1F
100
AcDbEntity
  8
外形線
100
AcDbLine
 10
34233.21068823859
 20
29011.15633112583
 30
0.0
 11
34233.21068823859
 21
29015.15633112583
 31
0.0
  0
LINE
  5
1BD3
330
1F
100
AcDbEntity
  8
外形線
100
AcDbLine
 10
34233.21068823859
 20
29015.15633112583
 30
0.0
 11
34232.21068823858
 21
29015.15633112583
 31
0.0
  0
LINE
  5
1BD4
330
1F
100
AcDbEntity
  8
外形線
100
AcDbLine
 10
34232.21068823858
 20
29015.15633112583
 30
0.0
 11
34232.21068823858
 21
28983.15633112583
 31
0.0
  0
LINE
  5
1BD5
330
1F
100
AcDbEntity
  8
外形線
100
AcDbLine
 10
34232.21068823858
 20
28983.15633112583
 30
0.0
 11
34233.21068823859
 21
28983.15633112583
 31
0.0
  0
LINE
  5
1BD6
330
1F
100
AcDbEntity
  8
外形線
100
AcDbLine
 10
34233.21068823859
 20
28983.15633112583
 30
0.0
 11
34233.21068823859
 21
28990.15633112583
 31
0.0
  0
LINE
  5
1BD7
330
1F
100
AcDbEntity
  8
外形線
100
AcDbLine
 10
34232.21068823858
 20
28983.15633112583
 30
0.0
 11
34231.71068823859
 21
28983.15633112583
 31
0.0
  0
LINE
  5
1BD8
330
1F
100
AcDbEntity
  8
外形線
100
AcDbLine
 10
34231.71068823859
 20
28983.15633112583
 30
0.0
 11
34231.71068823859
 21
29015.15633112583
 31
0.0
  0
LINE
  5
1BD9
330
1F
100
AcDbEntity
  8
外形線
100
AcDbLine
 10
34231.71068823859
 20
29015.15633112583
 30
0.0
 11
34232.21068823858
 21
29015.15633112583
 31
0.0
  0
LINE
  5
1BDA
330
1F
100
AcDbEntity
  8
外形線
100
AcDbLine
 10
34231.71068823859
 20
29015.15633112583
 30
0.0
 11
34217.71068823859
 21
29015.15633112583
 31
0.0
  0
LINE
  5
1BDB
330
1F
100
AcDbEntity
  8
外形線
100
AcDbLine
 10
34216.71068823858
 20
29014.15633112582
 30
0.0
 11
34216.71068823858
 21
28984.15633112583
 31
0.0
  0
ARC
  5
1BDC
330
1F
100
AcDbEntity
  8
外形線
100
AcDbCircle
 10
34217.71068823859
 20
29014.15633112582
 30
0.0
 40
1.0
100
AcDbArc
 50
90.0
 51
180.0
  0
ARC
  5
1BDD
330
1F
100
AcDbEntity
  8
外形線
100
AcDbCircle
 10
34217.71068823859
 20
28984.15633112583
 30
0.0
 40
1.0
100
AcDbArc
 50
180.0
 51
270.0
  0
LINE
  5
1BDE
330
1F
100
AcDbEntity
  8
外形線
100
AcDbLine
 10
34217.71068823859
 20
28983.15633112583
 30
0.0
 11
34231.71068823859
 21
28983.15633112583
 31
0.0
  0
LINE
  5
1BDF
330
1F
100
AcDbEntity
  8
外形線
100
AcDbLine
 10
34207.71068823859
 20
29010.65633112583
 30
0.0
 11
34207.71068823859
 21
29002.40633112582
 31
0.0
  0
ARC
  5
1BE0
330
1F
100
AcDbEntity
  8
外形線
100
AcDbCircle
 10
34208.21068823859
 20
29002.40633112582
 30
0.0
 40
0.5
100
AcDbArc
 50
180.0
 51
270.0
  0
ARC
  5
1BE1
330
1F
100
AcDbEntity
  8
外形線
100
AcDbCircle
 10
34208.21068823859
 20
28987.65633112583
 30
0.0
 40
0.5
100
AcDbArc
 50
180.0
 51
270.0
  0
LINE
  5
1BE2
330
1F
100
AcDbEntity
  8
外形線
100
AcDbLine
 10
34210.21068823859
 20
29011.15633112583
 30
0.0
 11
33575.71068823859
 21
29011.15633112583
 31
0.0
  0
LINE
  5
1BE3
330
1F
100
AcDbEntity
  8
外形線
100
AcDbLine
 10
33575.71068823859
 20
28987.15633112582
 30
0.0
 11
34210.21068823859
 21
28987.15633112582
 31
0.0
  0
LINE
  5
1BE4
330
1F
100
AcDbEntity
  8
外形線
100
AcDbLine
 10
34216.71068823858
 20
29001.90633112583
 30
0.0
 11
34208.21068823859
 21
29001.90633112583
 31
0.0
  0
LINE
  5
1BE5
330
1F
100
AcDbEntity
  8
外形線
100
AcDbLine
 10
34216.71068823858
 20
28996.40633112582
 30
0.0
 11
34208.21068823859
 21
28996.40633112582
 31
0.0
  0
LINE
  5
1BE6
330
1F
100
AcDbEntity
  8
外形線
100
AcDbLine
 10
34209.21068823858
 20
29001.90633112583
 30
0.0
 11
34209.21068823858
 21
28996.40633112582
 31
0.0
  0
LINE
  5
1BE7
330
1F
100
AcDbEntity
  8
外形線
100
AcDbLine
 10
34207.71068823859
 20
28995.90633112583
 30
0.0
 11
34207.71068823859
 21
28987.65633112583
 31
0.0
  0
ARC
  5
1BE8
330
1F
100
AcDbEntity
  8
外形線
100
AcDbCircle
 10
34208.21068823859
 20
28995.90633112583
 30
0.0
 40
0.5
100
AcDbArc
 50
90.0
 51
180.0
  0
ARC
  5
1BE9
330
1F
100
AcDbEntity
  8
孔
100
AcDbCircle
 10
33629.21068823859
 20
28999.15633112583
 30
0.0
 40
5.0
100
AcDbArc
 50
270.0
 51
90.0
  0
ARC
  5
1BEA
330
1F
100
AcDbEntity
  8
孔
100
AcDbCircle
 10
33585.21068823859
 20
28999.15633112583
 30
0.0
 40
5.0
100
AcDbArc
 50
90.0
 51
143.1301023543248
  0
ARC
  5
1BEB
330
1F
100
AcDbEntity
  8
孔
100
AcDbCircle
 10
33585.21068823859
 20
28999.15633112583
 30
0.0
 40
5.0
100
AcDbArc
 50
216.8698976456751
 51
270.0
  0
LINE
  5
1BEC
330
1F
100
AcDbEntity
  8
孔
100
AcDbLine
 10
33575.71068823859
 20
29002.15633112583
 30
0.0
 11
33581.21068823859
 21
29002.15633112583
 31
0.0
  0
LINE
  5
1BED
330
1F
100
AcDbEntity
  8
孔
100
AcDbLine
 10
33575.71068823859
 20
28996.15633112583
 30
0.0
 11
33581.21068823859
 21
28996.15633112583
 31
0.0
  0
LINE
  5
1BEE
330
1F
100
AcDbEntity
  8
孔
100
AcDbLine
 10
33585.21068823859
 20
29004.15633112583
 30
0.0
 11
33599.71068823859
 21
29004.15633112583
 31
0.0
  0
LINE
  5
1BEF
330
1F
100
AcDbEntity
  8
孔
100
AcDbLine
 10
33619.71068823859
 20
29004.15633112583
 30
0.0
 11
33629.21068823859
 21
29004.15633112583
 31
0.0
  0
LINE
  5
1BF0
330
1F
100
AcDbEntity
  8
孔
100
AcDbLine
 10
33585.21068823859
 20
28994.15633112583
 30
0.0
 11
33599.71068823859
 21
28994.15633112583
 31
0.0
  0
LINE
  5
1BF1
330
1F
100
AcDbEntity
  8
孔
100
AcDbLine
 10
33619.71068823859
 20
28994.15633112583
 30
0.0
 11
33629.21068823859
 21
28994.15633112583
 31
0.0
  0
LINE
  5
1BF2
330
1F
100
AcDbEntity
  8
外形線
100
AcDbLine
 10
33599.71068823859
 20
29003.15633112583
 30
0.0
 11
33599.71068823859
 21
28995.15633112583
 31
0.0
  0
LINE
  5
1BF3
330
1F
100
AcDbEntity
  8
外形線
100
AcDbLine
 10
33603.21068823858
 20
28991.65633112583
 30
0.0
 11
33612.21068823859
 21
28991.65633112583
 31
0.0
  0
ARC
  5
1BF4
330
1F
100
AcDbEntity
  8
外形線
100
AcDbCircle
 10
33616.21068823859
 20
28995.15633112583
 30
0.0
 40
3.5
100
AcDbArc
 50
270.0
 51
0.0
  0
ARC
  5
1BF5
330
1F
100
AcDbEntity
  8
外形線
100
AcDbCircle
 10
33603.21068823858
 20
28995.15633112583
 30
0.0
 40
3.5
100
AcDbArc
 50
180.0
 51
270.0
  0
LINE
  5
1BF6
330
1F
100
AcDbEntity
  8
外形線
100
AcDbLine
 10
33619.71068823859
 20
28995.15633112583
 30
0.0
 11
33619.71068823859
 21
29003.15633112583
 31
0.0
  0
ARC
  5
1BF7
330
1F
100
AcDbEntity
  8
外形線
100
AcDbCircle
 10
33616.21068823859
 20
29003.15633112583
 30
0.0
 40
3.5
100
AcDbArc
 50
0.0
 51
90.0
  0
LINE
  5
1BF8
330
1F
100
AcDbEntity
  8
外形線
100
AcDbLine
 10
33612.21068823859
 20
29006.65633112583
 30
0.0
 11
33603.21068823858
 21
29006.65633112583
 31
0.0
  0
ARC
  5
1BF9
330
1F
100
AcDbEntity
  8
外形線
100
AcDbCircle
 10
33603.21068823858
 20
29003.15633112583
 30
0.0
 40
3.5
100
AcDbArc
 50
90.0
 51
180.0
  0
LINE
  5
1BFA
330
1F
100
AcDbEntity
  8
外形線
100
AcDbLine
 10
33599.71068823859
 20
29003.15633112583
 30
0.0
 11
33601.71068823859
 21
29003.15633112583
 31
0.0
  0
LINE
  5
1BFB
330
1F
100
AcDbEntity
  8
外形線
100
AcDbLine
 10
33601.71068823859
 20
29003.15633112583
 30
0.0
 11
33601.71068823859
 21
28995.15633112583
 31
0.0
  0
LINE
  5
1BFC
330
1F
100
AcDbEntity
  8
外形線
100
AcDbLine
 10
33601.71068823859
 20
28995.15633112583
 30
0.0
 11
33599.71068823859
 21
28995.15633112583
 31
0.0
  0
LINE
  5
1BFD
330
1F
100
AcDbEntity
  8
外形線
100
AcDbLine
 10
33612.21068823859
 20
28992.65633112582
 30
0.0
 11
33612.21068823859
 21
28990.15633112583
 31
0.0
  0
LINE
  5
1BFE
330
1F
100
AcDbEntity
  8
外形線
100
AcDbLine
 10
33612.21068823859
 20
28990.15633112583
 30
0.0
 11
33616.21068823859
 21
28990.15633112583
 31
0.0
  0
LINE
  5
1BFF
330
1F
100
AcDbEntity
  8
外形線
100
AcDbLine
 10
33616.21068823859
 20
28990.15633112583
 30
0.0
 11
33616.21068823859
 21
28992.65633112582
 31
0.0
  0
LINE
  5
1C00
330
1F
100
AcDbEntity
  8
外形線
100
AcDbLine
 10
33616.21068823859
 20
28992.65633112582
 30
0.0
 11
33612.21068823859
 21
28992.65633112582
 31
0.0
  0
LINE
  5
1C01
330
1F
100
AcDbEntity
  8
外形線
100
AcDbLine
 10
33612.21068823859
 20
29005.65633112583
 30
0.0
 11
33612.21068823859
 21
29008.15633112582
 31
0.0
  0
LINE
  5
1C02
330
1F
100
AcDbEntity
  8
外形線
100
AcDbLine
 10
33612.21068823859
 20
29008.15633112582
 30
0.0
 11
33616.21068823859
 21
29008.15633112582
 31
0.0
  0
LINE
  5
1C03
330
1F
100
AcDbEntity
  8
外形線
100
AcDbLine
 10
33616.21068823859
 20
29008.15633112582
 30
0.0
 11
33616.21068823859
 21
29005.65633112583
 31
0.0
  0
LINE
  5
1C04
330
1F
100
AcDbEntity
  8
外形線
100
AcDbLine
 10
33616.21068823859
 20
29005.65633112583
 30
0.0
 11
33612.21068823859
 21
29005.65633112583
 31
0.0
  0
LINE
  5
1C05
330
1F
100
AcDbEntity
  8
外形線
100
AcDbLine
 10
33619.71068823859
 20
29002.15633112583
 30
0.0
 11
33622.71068823859
 21
29002.15633112583
 31
0.0
  0
LINE
  5
1C06
330
1F
100
AcDbEntity
  8
外形線
100
AcDbLine
 10
33622.71068823859
 20
29002.15633112583
 30
0.0
 11
33622.71068823859
 21
28996.15633112583
 31
0.0
  0
LINE
  5
1C07
330
1F
100
AcDbEntity
  8
外形線
100
AcDbLine
 10
33622.71068823859
 20
28996.15633112583
 30
0.0
 11
33619.71068823859
 21
28996.15633112583
 31
0.0
  0
LINE
  5
1C08
330
1F
100
AcDbEntity
  8
外形線
100
AcDbLine
 10
33615.71068823859
 20
29001.15633112583
 30
0.0
 11
33604.71068823859
 21
29001.15633112583
 31
0.0
  0
LINE
  5
1C09
330
1F
100
AcDbEntity
  8
外形線
100
AcDbLine
 10
33604.71068823859
 20
29001.15633112583
 30
0.0
 11
33604.71068823859
 21
28997.15633112583
 31
0.0
  0
LINE
  5
1C0A
330
1F
100
AcDbEntity
  8
外形線
100
AcDbLine
 10
33604.71068823859
 20
28997.15633112583
 30
0.0
 11
33615.71068823859
 21
28997.15633112583
 31
0.0
  0
ARC
  5
1C0B
330
1F
100
AcDbEntity
  8
外形線
100
AcDbCircle
 10
33615.71068823859
 20
28999.15633112583
 30
0.0
 40
2.0
100
AcDbArc
 50
270.0
 51
90.0
  0
LINE
  5
1C0C
330
1F
100
AcDbEntity
  8
外形線
100
AcDbLine
 10
33599.71068823859
 20
28995.90633112583
 30
0.0
 11
33600.71068823859
 21
28995.90633112583
 31
0.0
  0
LINE
  5
1C0D
330
1F
100
AcDbEntity
  8
外形線
100
AcDbLine
 10
33600.71068823859
 20
28995.90633112583
 30
0.0
 11
33600.71068823859
 21
29002.40633112582
 31
0.0
  0
LINE
  5
1C0E
330
1F
100
AcDbEntity
  8
外形線
100
AcDbLine
 10
33600.71068823859
 20
29002.40633112582
 30
0.0
 11
33599.71068823859
 21
29002.40633112582
 31
0.0
  0
LINE
  5
1C0F
330
1F
100
AcDbEntity
  8
外形線
100
AcDbLine
 10
33575.71068823859
 20
29008.65633112583
 30
0.0
 11
33645.21068823858
 21
29008.65633112583
 31
0.0
  0
LINE
  5
1C10
330
1F
100
AcDbEntity
  8
外形線
100
AcDbLine
 10
33645.21068823858
 20
29008.65633112583
 30
0.0
 11
33645.21068823858
 21
29001.45892474907
 31
0.0
  0
LINE
  5
1C11
330
1F
100
AcDbEntity
  8
外形線
100
AcDbLine
 10
33645.21068823858
 20
28996.85373750258
 30
0.0
 11
33645.21068823858
 21
28989.65633112583
 31
0.0
  0
LINE
  5
1C12
330
1F
100
AcDbEntity
  8
外形線
100
AcDbLine
 10
33645.21068823858
 20
28989.65633112583
 30
0.0
 11
33575.71068823859
 21
28989.65633112583
 31
0.0
  0
LINE
  5
1C13
330
1F
100
AcDbEntity
  8
外形線
100
AcDbLine
 10
33575.71068823859
 20
28990.65633112583
 30
0.0
 11
33612.21068823859
 21
28990.65633112583
 31
0.0
  0
LINE
  5
1C14
330
1F
100
AcDbEntity
  8
外形線
100
AcDbLine
 10
33616.21068823859
 20
28990.65633112583
 30
0.0
 11
33645.21068823858
 21
28990.65633112583
 31
0.0
  0
LINE
  5
1C15
330
1F
100
AcDbEntity
  8
外形線
100
AcDbLine
 10
33645.21068823858
 20
29007.65633112582
 30
0.0
 11
33616.21068823859
 21
29007.65633112582
 31
0.0
  0
LINE
  5
1C16
330
1F
100
AcDbEntity
  8
外形線
100
AcDbLine
 10
33575.71068823859
 20
29007.65633112582
 30
0.0
 11
33612.21068823859
 21
29007.65633112582
 31
0.0
  0
LINE
  5
1C17
330
1F
100
AcDbEntity
  8
外形線
100
AcDbLine
 10
33641.21068823858
 20
29002.65633112582
 30
0.0
 11
33637.21068823859
 21
29002.65633112582
 31
0.0
  0
LINE
  5
1C18
330
1F
100
AcDbEntity
  8
外形線
100
AcDbLine
 10
33637.21068823859
 20
29002.65633112582
 30
0.0
 11
33637.21068823859
 21
28995.65633112583
 31
0.0
  0
LINE
  5
1C19
330
1F
100
AcDbEntity
  8
外形線
100
AcDbLine
 10
33637.21068823859
 20
28995.65633112583
 30
0.0
 11
33641.21068823858
 21
28995.65633112583
 31
0.0
  0
LINE
  5
1C1A
330
1F
100
AcDbEntity
  8
外形線
100
AcDbLine
 10
33640.71068823859
 20
28995.65633112583
 30
0.0
 11
33640.71068823859
 21
29002.65633112582
 31
0.0
  0
LINE
  5
1C1B
330
1F
100
AcDbEntity
  8
外形線
100
AcDbLine
 10
33640.71068823859
 20
29002.65633112582
 30
0.0
 11
33648.31191648961
 21
29000.53056712818
 31
0.0
  0
LINE
  5
1C1C
330
1F
100
AcDbEntity
  8
外形線
100
AcDbLine
 10
33648.31191648961
 20
28997.78209512347
 30
0.0
 11
33640.71068823859
 21
28995.65633112583
 31
0.0
  0
ARC
  5
1C1D
330
1F
100
AcDbEntity
  8
外形線
100
AcDbCircle
 10
33647.71068823859
 20
28999.15633112583
 30
0.0
 40
1.5
100
AcDbArc
 50
293.6293777308642
 51
66.37062226913581
  0
LINE
  5
1C1E
330
1F
100
AcDbEntity
  8
外形線
100
AcDbLine
 10
33641.21068823858
 20
29002.65633112582
 30
0.0
 11
33641.21068823858
 21
29002.5165008295
 31
0.0
  0
LINE
  5
1C1F
330
1F
100
AcDbEntity
  8
外形線
100
AcDbLine
 10
33641.21068823858
 20
28995.65633112583
 30
0.0
 11
33641.21068823858
 21
28995.79616142215
 31
0.0
  0
LINE
  5
1C20
330
1F
100
AcDbEntity
  8
孔
100
AcDbLine
 10
34133.21068823859
 20
29003.65633112583
 30
0.0
 11
34132.18649310373
 21
28995.52325788415
 31
0.0
  0
LINE
  5
1C21
330
1F
100
AcDbEntity
  8
孔
100
AcDbLine
 10
34129.23488337344
 20
28995.52325788415
 30
0.0
 11
34128.21068823859
 21
29003.65633112583
 31
0.0
  0
ARC
  5
1C22
330
1F
100
AcDbEntity
  8
孔
100
AcDbCircle
 10
34130.71068823859
 20
28995.79158604145
 30
0.0
 40
1.5
100
AcDbArc
 50
190.3048464689415
 51
349.6951535310584
  0
LINE
  5
1C23
330
1F
100
AcDbEntity
  8
孔
100
AcDbLine
 10
34133.21068823859
 20
29003.65633112583
 30
0.0
 11
34128.21068823859
 21
29003.65633112583
 31
0.0
  0
LINE
  5
1C24
330
1F
100
AcDbEntity
  8
孔
100
AcDbLine
 10
34133.21068823859
 20
29003.65633112583
 30
0.0
 11
34133.21068823859
 21
29004.15633112583
 31
0.0
  0
LINE
  5
1C25
330
1F
100
AcDbEntity
  8
孔
100
AcDbLine
 10
34133.21068823859
 20
29004.15633112583
 30
0.0
 11
34128.21068823859
 21
29004.15633112583
 31
0.0
  0
LINE
  5
1C26
330
1F
100
AcDbEntity
  8
孔
100
AcDbLine
 10
34128.21068823859
 20
29004.15633112583
 30
0.0
 11
34128.21068823859
 21
29003.65633112583
 31
0.0
  0
CIRCLE
  5
1C27
330
1F
100
AcDbEntity
  8
孔
100
AcDbCircle
 10
34120.21068823859
 20
28999.15633112583
 30
0.0
 40
2.1
  0
CIRCLE
  5
1C28
330
1F
100
AcDbEntity
  8
孔
100
AcDbCircle
 10
34092.21068823859
 20
28999.15633112583
 30
0.0
 40
2.1
  0
CIRCLE
  5
1C29
330
1F
100
AcDbEntity
  8
孔
100
AcDbCircle
 10
34000.21068823859
 20
28999.15633112583
 30
0.0
 40
2.1
  0
CIRCLE
  5
1C2A
330
1F
100
AcDbEntity
  8
孔
100
AcDbCircle
 10
33980.21068823859
 20
28999.15633112583
 30
0.0
 40
2.1
  0
CIRCLE
  5
1C2B
330
1F
100
AcDbEntity
  8
孔
100
AcDbCircle
 10
33949.21068823859
 20
28999.15633112583
 30
0.0
 40
2.1
  0
CIRCLE
  5
1C2C
330
1F
100
AcDbEntity
  8
孔
100
AcDbCircle
 10
33935.21068823859
 20
28999.15633112583
 30
0.0
 40
2.1
  0
CIRCLE
  5
1C2D
330
1F
100
AcDbEntity
  8
孔
100
AcDbCircle
 10
33900.21068823859
 20
28999.15633112583
 30
0.0
 40
2.1
  0
CIRCLE
  5
1C2E
330
1F
100
AcDbEntity
  8
孔
100
AcDbCircle
 10
33856.21068823859
 20
28999.15633112583
 30
0.0
 40
2.1
  0
CIRCLE
  5
1C2F
330
1F
100
AcDbEntity
  8
孔
100
AcDbCircle
 10
33843.21068823858
 20
28999.15633112583
 30
0.0
 40
2.1
  0
CIRCLE
  5
1C30
330
1F
100
AcDbEntity
  8
孔
100
AcDbCircle
 10
33811.21068823859
 20
28999.15633112583
 30
0.0
 40
2.1
  0
CIRCLE
  5
1C31
330
1F
100
AcDbEntity
  8
孔
100
AcDbCircle
 10
33801.21068823858
 20
28999.15633112583
 30
0.0
 40
2.1
  0
LINE
  5
1C32
330
1F
100
AcDbEntity
  8
孔
100
AcDbLine
 10
34113.21068823859
 20
28995.65633112583
 30
0.0
 11
34113.21068823859
 21
29002.65633112582
 31
0.0
  0
LINE
  5
1C33
330
1F
100
AcDbEntity
  8
孔
100
AcDbLine
 10
34113.21068823859
 20
29002.65633112582
 30
0.0
 11
34099.21068823859
 21
29002.65633112582
 31
0.0
  0
LINE
  5
1C34
330
1F
100
AcDbEntity
  8
孔
100
AcDbLine
 10
34099.21068823859
 20
29002.65633112582
 30
0.0
 11
34099.21068823859
 21
28995.65633112583
 31
0.0
  0
LINE
  5
1C35
330
1F
100
AcDbEntity
  8
孔
100
AcDbLine
 10
34099.21068823859
 20
28995.65633112583
 30
0.0
 11
34113.21068823859
 21
28995.65633112583
 31
0.0
  0
LINE
  5
1C36
330
1F
100
AcDbEntity
  8
孔
100
AcDbLine
 10
34083.21068823858
 20
29003.65633112583
 30
0.0
 11
34082.18649310374
 21
28995.52325788415
 31
0.0
  0
LINE
  5
1C37
330
1F
100
AcDbEntity
  8
孔
100
AcDbLine
 10
34079.23488337344
 20
28995.52325788415
 30
0.0
 11
34078.21068823859
 21
29003.65633112583
 31
0.0
  0
ARC
  5
1C38
330
1F
100
AcDbEntity
  8
孔
100
AcDbCircle
 10
34080.71068823859
 20
28995.79158604145
 30
0.0
 40
1.5
100
AcDbArc
 50
190.3048464689415
 51
349.6951535310584
  0
LINE
  5
1C39
330
1F
100
AcDbEntity
  8
孔
100
AcDbLine
 10
34083.21068823858
 20
29003.65633112583
 30
0.0
 11
34078.21068823859
 21
29003.65633112583
 31
0.0
  0
LINE
  5
1C3A
330
1F
100
AcDbEntity
  8
孔
100
AcDbLine
 10
34083.21068823858
 20
29003.65633112583
 30
0.0
 11
34083.21068823858
 21
29004.15633112583
 31
0.0
  0
LINE
  5
1C3B
330
1F
100
AcDbEntity
  8
孔
100
AcDbLine
 10
34083.21068823858
 20
29004.15633112583
 30
0.0
 11
34078.21068823859
 21
29004.15633112583
 31
0.0
  0
LINE
  5
1C3C
330
1F
100
AcDbEntity
  8
孔
100
AcDbLine
 10
34078.21068823859
 20
29004.15633112583
 30
0.0
 11
34078.21068823859
 21
29003.65633112583
 31
0.0
  0
LINE
  5
1C3D
330
1F
100
AcDbEntity
  8
孔
100
AcDbLine
 10
34031.21068823859
 20
29003.65633112583
 30
0.0
 11
34030.18649310374
 21
28995.52325788415
 31
0.0
  0
LINE
  5
1C3E
330
1F
100
AcDbEntity
  8
孔
100
AcDbLine
 10
34027.23488337344
 20
28995.52325788415
 30
0.0
 11
34026.21068823858
 21
29003.65633112583
 31
0.0
  0
ARC
  5
1C3F
330
1F
100
AcDbEntity
  8
孔
100
AcDbCircle
 10
34028.71068823859
 20
28995.79158604145
 30
0.0
 40
1.5
100
AcDbArc
 50
190.3048464689415
 51
349.6951535310584
  0
LINE
  5
1C40
330
1F
100
AcDbEntity
  8
孔
100
AcDbLine
 10
34031.21068823859
 20
29003.65633112583
 30
0.0
 11
34026.21068823858
 21
29003.65633112583
 31
0.0
  0
LINE
  5
1C41
330
1F
100
AcDbEntity
  8
孔
100
AcDbLine
 10
34031.21068823859
 20
29003.65633112583
 30
0.0
 11
34031.21068823859
 21
29004.15633112583
 31
0.0
  0
LINE
  5
1C42
330
1F
100
AcDbEntity
  8
孔
100
AcDbLine
 10
34031.21068823859
 20
29004.15633112583
 30
0.0
 11
34026.21068823858
 21
29004.15633112583
 31
0.0
  0
LINE
  5
1C43
330
1F
100
AcDbEntity
  8
孔
100
AcDbLine
 10
34026.21068823858
 20
29004.15633112583
 30
0.0
 11
34026.21068823858
 21
29003.65633112583
 31
0.0
  0
LINE
  5
1C44
330
1F
100
AcDbEntity
  8
孔
100
AcDbLine
 10
33929.21068823858
 20
29003.65633112583
 30
0.0
 11
33928.18649310374
 21
28995.52325788415
 31
0.0
  0
LINE
  5
1C45
330
1F
100
AcDbEntity
  8
孔
100
AcDbLine
 10
33925.23488337344
 20
28995.52325788415
 30
0.0
 11
33924.21068823859
 21
29003.65633112583
 31
0.0
  0
ARC
  5
1C46
330
1F
100
AcDbEntity
  8
孔
100
AcDbCircle
 10
33926.71068823859
 20
28995.79158604145
 30
0.0
 40
1.5
100
AcDbArc
 50
190.3048464689415
 51
349.6951535310584
  0
LINE
  5
1C47
330
1F
100
AcDbEntity
  8
孔
100
AcDbLine
 10
33929.21068823858
 20
29003.65633112583
 30
0.0
 11
33924.21068823859
 21
29003.65633112583
 31
0.0
  0
LINE
  5
1C48
330
1F
100
AcDbEntity
  8
孔
100
AcDbLine
 10
33929.21068823858
 20
29003.65633112583
 30
0.0
 11
33929.21068823858
 21
29004.15633112583
 31
0.0
  0
LINE
  5
1C49
330
1F
100
AcDbEntity
  8
孔
100
AcDbLine
 10
33929.21068823858
 20
29004.15633112583
 30
0.0
 11
33924.21068823859
 21
29004.15633112583
 31
0.0
  0
LINE
  5
1C4A
330
1F
100
AcDbEntity
  8
孔
100
AcDbLine
 10
33924.21068823859
 20
29004.15633112583
 30
0.0
 11
33924.21068823859
 21
29003.65633112583
 31
0.0
  0
LINE
  5
1C4B
330
1F
100
AcDbEntity
  8
孔
100
AcDbLine
 10
33872.21068823859
 20
29003.65633112583
 30
0.0
 11
33871.18649310373
 21
28995.52325788415
 31
0.0
  0
LINE
  5
1C4C
330
1F
100
AcDbEntity
  8
孔
100
AcDbLine
 10
33868.23488337344
 20
28995.52325788415
 30
0.0
 11
33867.21068823859
 21
29003.65633112583
 31
0.0
  0
ARC
  5
1C4D
330
1F
100
AcDbEntity
  8
孔
100
AcDbCircle
 10
33869.71068823859
 20
28995.79158604145
 30
0.0
 40
1.5
100
AcDbArc
 50
190.3048464689415
 51
349.6951535310584
  0
LINE
  5
1C4E
330
1F
100
AcDbEntity
  8
孔
100
AcDbLine
 10
33872.21068823859
 20
29003.65633112583
 30
0.0
 11
33867.21068823859
 21
29003.65633112583
 31
0.0
  0
LINE
  5
1C4F
330
1F
100
AcDbEntity
  8
孔
100
AcDbLine
 10
33872.21068823859
 20
29003.65633112583
 30
0.0
 11
33872.21068823859
 21
29004.15633112583
 31
0.0
  0
LINE
  5
1C50
330
1F
100
AcDbEntity
  8
孔
100
AcDbLine
 10
33872.21068823859
 20
29004.15633112583
 30
0.0
 11
33867.21068823859
 21
29004.15633112583
 31
0.0
  0
LINE
  5
1C51
330
1F
100
AcDbEntity
  8
孔
100
AcDbLine
 10
33867.21068823859
 20
29004.15633112583
 30
0.0
 11
33867.21068823859
 21
29003.65633112583
 31
0.0
  0
LINE
  5
1C52
330
1F
100
AcDbEntity
  8
孔
100
AcDbLine
 10
33700.21068823858
 20
29003.65633112583
 30
0.0
 11
33699.18649310374
 21
28995.52325788415
 31
0.0
  0
LINE
  5
1C53
330
1F
100
AcDbEntity
  8
孔
100
AcDbLine
 10
33696.23488337344
 20
28995.52325788415
 30
0.0
 11
33695.21068823859
 21
29003.65633112583
 31
0.0
  0
ARC
  5
1C54
330
1F
100
AcDbEntity
  8
孔
100
AcDbCircle
 10
33697.71068823859
 20
28995.79158604145
 30
0.0
 40
1.5
100
AcDbArc
 50
190.3048464689415
 51
349.6951535310584
  0
LINE
  5
1C55
330
1F
100
AcDbEntity
  8
孔
100
AcDbLine
 10
33700.21068823858
 20
29003.65633112583
 30
0.0
 11
33695.21068823859
 21
29003.65633112583
 31
0.0
  0
LINE
  5
1C56
330
1F
100
AcDbEntity
  8
孔
100
AcDbLine
 10
33700.21068823858
 20
29003.65633112583
 30
0.0
 11
33700.21068823858
 21
29004.15633112583
 31
0.0
  0
LINE
  5
1C57
330
1F
100
AcDbEntity
  8
孔
100
AcDbLine
 10
33700.21068823858
 20
29004.15633112583
 30
0.0
 11
33695.21068823859
 21
29004.15633112583
 31
0.0
  0
LINE
  5
1C58
330
1F
100
AcDbEntity
  8
孔
100
AcDbLine
 10
33695.21068823859
 20
29004.15633112583
 30
0.0
 11
33695.21068823859
 21
29003.65633112583
 31
0.0
  0
CIRCLE
  5
1C59
330
1F
100
AcDbEntity
  8
孔
100
AcDbCircle
 10
34065.21068823859
 20
28999.15633112583
 30
0.0
 40
4.0
  0
CIRCLE
  5
1C5A
330
1F
100
AcDbEntity
  8
孔
100
AcDbCircle
 10
34065.21068823859
 20
28999.15633112583
 30
0.0
 40
5.0
  0
LINE
  5
1C5B
330
1F
100
AcDbEntity
  8
孔
100
AcDbLine
 10
34049.11068823859
 20
28997.05633112583
 30
0.0
 11
34039.31068823859
 21
28997.05633112583
 31
0.0
  0
LINE
  5
1C5C
330
1F
100
AcDbEntity
  8
孔
100
AcDbLine
 10
34049.11068823859
 20
29001.25633112582
 30
0.0
 11
34039.31068823859
 21
29001.25633112582
 31
0.0
  0
ARC
  5
1C5D
330
1F
100
AcDbEntity
  8
孔
100
AcDbCircle
 10
34049.11068823861
 20
28999.15633112584
 30
0.0
 40
2.100000000013096
100
AcDbArc
 50
269.9999999991662
 51
90.0
  0
ARC
  5
1C5E
330
1F
100
AcDbEntity
  8
孔
100
AcDbCircle
 10
34039.31068823858
 20
28999.15633112583
 30
0.0
 40
2.099999999998544
100
AcDbArc
 50
90.0
 51
270.0
  0
LINE
  5
1C5F
330
1F
100
AcDbEntity
  8
孔
100
AcDbLine
 10
33991.11068823859
 20
28997.05633112583
 30
0.0
 11
33989.34068823858
 21
28997.05633112583
 31
0.0
  0
LINE
  5
1C60
330
1F
100
AcDbEntity
  8
孔
100
AcDbLine
 10
33991.11068823859
 20
29001.25633112582
 30
0.0
 11
33989.34068823858
 21
29001.25633112582
 31
0.0
  0
ARC
  5
1C61
330
1F
100
AcDbEntity
  8
孔
100
AcDbCircle
 10
33991.1106882386
 20
28999.15633112583
 30
0.0
 40
2.099999999998544
100
AcDbArc
 50
269.9999999991662
 51
90.0
  0
ARC
  5
1C62
330
1F
100
AcDbEntity
  8
孔
100
AcDbCircle
 10
33989.31089950619
 20
28999.15633112581
 30
0.0
 40
2.100211267589676
100
AcDbArc
 50
89.18730753287203
 51
270.8126924662939
  0
LINE
  5
1C63
330
1F
100
AcDbEntity
  8
孔
100
AcDbLine
 10
33966.11068823859
 20
28997.05633112583
 30
0.0
 11
33960.31068823858
 21
28997.05633112583
 31
0.0
  0
LINE
  5
1C64
330
1F
100
AcDbEntity
  8
孔
100
AcDbLine
 10
33966.11068823859
 20
29001.25633112582
 30
0.0
 11
33960.31068823858
 21
29001.25633112582
 31
0.0
  0
ARC
  5
1C65
330
1F
100
AcDbEntity
  8
孔
100
AcDbCircle
 10
33966.1106882386
 20
28999.15633112583
 30
0.0
 40
2.099999999998544
100
AcDbArc
 50
269.9999999991662
 51
90.0
  0
ARC
  5
1C66
330
1F
100
AcDbEntity
  8
孔
100
AcDbCircle
 10
33960.31068823859
 20
28999.15633112584
 30
0.0
 40
2.100000000013096
100
AcDbArc
 50
90.0
 51
270.0
  0
LINE
  5
1C67
330
1F
100
AcDbEntity
  8
孔
100
AcDbLine
 10
33919.11068823859
 20
28997.05633112581
 30
0.0
 11
33913.31068823859
 21
28997.05633112581
 31
0.0
  0
LINE
  5
1C68
330
1F
100
AcDbEntity
  8
孔
100
AcDbLine
 10
33919.11068823859
 20
29001.25633112581
 30
0.0
 11
33913.31068823859
 21
29001.25633112581
 31
0.0
  0
ARC
  5
1C69
330
1F
100
AcDbEntity
  8
孔
100
AcDbCircle
 10
33919.1106882386
 20
28999.15633112581
 30
0.0
 40
2.099999999998544
100
AcDbArc
 50
269.9999999991662
 51
90.0
  0
ARC
  5
1C6A
330
1F
100
AcDbEntity
  8
孔
100
AcDbCircle
 10
33913.31068823859
 20
28999.15633112583
 30
0.0
 40
2.100000000013096
100
AcDbArc
 50
90.0
 51
270.0
  0
CIRCLE
  5
1C6B
330
1F
100
AcDbEntity
  8
孔
100
AcDbCircle
 10
33886.21068823859
 20
28999.15633112583
 30
0.0
 40
4.0
  0
CIRCLE
  5
1C6C
330
1F
100
AcDbEntity
  8
孔
100
AcDbCircle
 10
33886.21068823859
 20
28999.15633112583
 30
0.0
 40
5.0
  0
LINE
  5
1C6D
330
1F
100
AcDbEntity
  8
孔
100
AcDbLine
 10
33829.11068823857
 20
28997.05633112581
 30
0.0
 11
33823.31068823857
 21
28997.05633112581
 31
0.0
  0
LINE
  5
1C6E
330
1F
100
AcDbEntity
  8
孔
100
AcDbLine
 10
33829.11068823857
 20
29001.25633112581
 30
0.0
 11
33823.31068823857
 21
29001.25633112581
 31
0.0
  0
ARC
  5
1C6F
330
1F
100
AcDbEntity
  8
孔
100
AcDbCircle
 10
33829.11068823859
 20
28999.15633112581
 30
0.0
 40
2.099999999998544
100
AcDbArc
 50
269.9999999991662
 51
90.0
  0
ARC
  5
1C70
330
1F
100
AcDbEntity
  8
孔
100
AcDbCircle
 10
33823.31068823858
 20
28999.15633112583
 30
0.0
 40
2.100000000013096
100
AcDbArc
 50
90.0
 51
270.0
  0
CIRCLE
  5
1C71
330
1F
100
AcDbEntity
  8
孔
100
AcDbCircle
 10
33735.21068823861
 20
28995.15633112583
 30
0.0
 40
2.1
  0
CIRCLE
  5
1C72
330
1F
100
AcDbEntity
  8
孔
100
AcDbCircle
 10
33735.21068823861
 20
29004.15633112583
 30
0.0
 40
1.5
  0
LINE
  5
1C73
330
1F
100
AcDbEntity
  8
孔
100
AcDbLine
 10
33717.11068823859
 20
28997.05633112583
 30
0.0
 11
33707.31068823858
 21
28997.05633112583
 31
0.0
  0
LINE
  5
1C74
330
1F
100
AcDbEntity
  8
孔
100
AcDbLine
 10
33717.11068823859
 20
29001.25633112582
 30
0.0
 11
33707.31068823858
 21
29001.25633112582
 31
0.0
  0
ARC
  5
1C75
330
1F
100
AcDbEntity
  8
孔
100
AcDbCircle
 10
33717.1106882386
 20
28999.15633112583
 30
0.0
 40
2.099999999998544
100
AcDbArc
 50
269.9999999991662
 51
90.0
  0
ARC
  5
1C76
330
1F
100
AcDbEntity
  8
孔
100
AcDbCircle
 10
33707.31068823858
 20
28999.15633112584
 30
0.0
 40
2.100000000013096
100
AcDbArc
 50
90.0
 51
270.0
  0
LINE
  5
1C77
330
1F
100
AcDbEntity
  8
孔
100
AcDbLine
 10
33679.71068823859
 20
28995.65633112583
 30
0.0
 11
33673.71068823858
 21
28995.65633112583
 31
0.0
  0
LINE
  5
1C78
330
1F
100
AcDbEntity
  8
孔
100
AcDbLine
 10
33679.71068823859
 20
29002.65633112582
 30
0.0
 11
33673.71068823858
 21
29002.65633112582
 31
0.0
  0
ARC
  5
1C79
330
1F
100
AcDbEntity
  8
孔
100
AcDbCircle
 10
33673.71068823857
 20
28999.15633112583
 30
0.0
 40
3.5
100
AcDbArc
 50
89.99999999916623
 51
270.0
  0
ARC
  5
1C7A
330
1F
100
AcDbEntity
  8
孔
100
AcDbCircle
 10
33679.71068823857
 20
28999.15633112583
 30
0.0
 40
3.5
100
AcDbArc
 50
270.0
 51
89.99999999916623
  0
CIRCLE
  5
1C7B
330
1F
100
AcDbEntity
  8
孔
100
AcDbCircle
 10
33660.21068823858
 20
28999.15633112583
 30
0.0
 40
2.75
  0
ARC
  5
1C7C
330
1F
100
AcDbEntity
  8
孔
100
AcDbCircle
 10
34165.21068823858
 20
28999.15633112583
 30
0.0
 40
5.0
100
AcDbArc
 50
90.0
 51
270.0
  0
LINE
  5
1C7D
330
1F
100
AcDbEntity
  8
孔
100
AcDbLine
 10
34207.71068823859
 20
29004.15633112583
 30
0.0
 11
34194.71068823859
 21
29004.15633112583
 31
0.0
  0
LINE
  5
1C7E
330
1F
100
AcDbEntity
  8
孔
100
AcDbLine
 10
34174.71068823858
 20
29004.15633112583
 30
0.0
 11
34165.21068823858
 21
29004.15633112583
 31
0.0
  0
LINE
  5
1C7F
330
1F
100
AcDbEntity
  8
孔
100
AcDbLine
 10
34207.71068823859
 20
28994.15633112583
 30
0.0
 11
34194.71068823859
 21
28994.15633112583
 31
0.0
  0
LINE
  5
1C80
330
1F
100
AcDbEntity
  8
孔
100
AcDbLine
 10
34174.71068823858
 20
28994.15633112583
 30
0.0
 11
34165.21068823858
 21
28994.15633112583
 31
0.0
  0
LINE
  5
1C81
330
1F
100
AcDbEntity
  8
外形線
100
AcDbLine
 10
34194.71068823859
 20
29003.15633112583
 30
0.0
 11
34194.71068823859
 21
28995.15633112583
 31
0.0
  0
LINE
  5
1C82
330
1F
100
AcDbEntity
  8
外形線
100
AcDbLine
 10
34191.21068823859
 20
28991.65633112583
 30
0.0
 11
34182.21068823859
 21
28991.65633112583
 31
0.0
  0
ARC
  5
1C83
330
1F
100
AcDbEntity
  8
外形線
100
AcDbCircle
 10
34178.21068823859
 20
28995.15633112583
 30
0.0
 40
3.5
100
AcDbArc
 50
180.0
 51
270.0
  0
ARC
  5
1C84
330
1F
100
AcDbEntity
  8
外形線
100
AcDbCircle
 10
34191.21068823859
 20
28995.15633112583
 30
0.0
 40
3.5
100
AcDbArc
 50
270.0
 51
0.0
  0
LINE
  5
1C85
330
1F
100
AcDbEntity
  8
外形線
100
AcDbLine
 10
34174.71068823858
 20
28995.15633112583
 30
0.0
 11
34174.71068823858
 21
29003.15633112583
 31
0.0
  0
ARC
  5
1C86
330
1F
100
AcDbEntity
  8
外形線
100
AcDbCircle
 10
34178.21068823859
 20
29003.15633112583
 30
0.0
 40
3.5
100
AcDbArc
 50
90.0
 51
180.0
  0
LINE
  5
1C87
330
1F
100
AcDbEntity
  8
外形線
100
AcDbLine
 10
34182.21068823859
 20
29006.65633112583
 30
0.0
 11
34191.21068823859
 21
29006.65633112583
 31
0.0
  0
ARC
  5
1C88
330
1F
100
AcDbEntity
  8
外形線
100
AcDbCircle
 10
34191.21068823859
 20
29003.15633112583
 30
0.0
 40
3.5
100
AcDbArc
 50
0.0
 51
90.0
  0
LINE
  5
1C89
330
1F
100
AcDbEntity
  8
外形線
100
AcDbLine
 10
34194.71068823859
 20
29003.15633112583
 30
0.0
 11
34192.71068823859
 21
29003.15633112583
 31
0.0
  0
LINE
  5
1C8A
330
1F
100
AcDbEntity
  8
外形線
100
AcDbLine
 10
34192.71068823859
 20
29003.15633112583
 30
0.0
 11
34192.71068823859
 21
28995.15633112583
 31
0.0
  0
LINE
  5
1C8B
330
1F
100
AcDbEntity
  8
外形線
100
AcDbLine
 10
34192.71068823859
 20
28995.15633112583
 30
0.0
 11
34194.71068823859
 21
28995.15633112583
 31
0.0
  0
LINE
  5
1C8C
330
1F
100
AcDbEntity
  8
外形線
100
AcDbLine
 10
34182.21068823859
 20
28992.65633112582
 30
0.0
 11
34182.21068823859
 21
28990.15633112583
 31
0.0
  0
LINE
  5
1C8D
330
1F
100
AcDbEntity
  8
外形線
100
AcDbLine
 10
34182.21068823859
 20
28990.15633112583
 30
0.0
 11
34178.21068823859
 21
28990.15633112583
 31
0.0
  0
LINE
  5
1C8E
330
1F
100
AcDbEntity
  8
外形線
100
AcDbLine
 10
34178.21068823859
 20
28990.15633112583
 30
0.0
 11
34178.21068823859
 21
28992.65633112582
 31
0.0
  0
LINE
  5
1C8F
330
1F
100
AcDbEntity
  8
外形線
100
AcDbLine
 10
34178.21068823859
 20
28992.65633112582
 30
0.0
 11
34182.21068823859
 21
28992.65633112582
 31
0.0
  0
LINE
  5
1C90
330
1F
100
AcDbEntity
  8
外形線
100
AcDbLine
 10
34182.21068823859
 20
29005.65633112583
 30
0.0
 11
34182.21068823859
 21
29008.15633112582
 31
0.0
  0
LINE
  5
1C91
330
1F
100
AcDbEntity
  8
外形線
100
AcDbLine
 10
34182.21068823859
 20
29008.15633112582
 30
0.0
 11
34178.21068823859
 21
29008.15633112582
 31
0.0
  0
LINE
  5
1C92
330
1F
100
AcDbEntity
  8
外形線
100
AcDbLine
 10
34178.21068823859
 20
29008.15633112582
 30
0.0
 11
34178.21068823859
 21
29005.65633112583
 31
0.0
  0
LINE
  5
1C93
330
1F
100
AcDbEntity
  8
外形線
100
AcDbLine
 10
34178.21068823859
 20
29005.65633112583
 30
0.0
 11
34182.21068823859
 21
29005.65633112583
 31
0.0
  0
LINE
  5
1C94
330
1F
100
AcDbEntity
  8
外形線
100
AcDbLine
 10
34174.71068823858
 20
29002.15633112583
 30
0.0
 11
34171.71068823859
 21
29002.15633112583
 31
0.0
  0
LINE
  5
1C95
330
1F
100
AcDbEntity
  8
外形線
100
AcDbLine
 10
34171.71068823859
 20
29002.15633112583
 30
0.0
 11
34171.71068823859
 21
28996.15633112583
 31
0.0
  0
LINE
  5
1C96
330
1F
100
AcDbEntity
  8
外形線
100
AcDbLine
 10
34171.71068823859
 20
28996.15633112583
 30
0.0
 11
34174.71068823858
 21
28996.15633112583
 31
0.0
  0
LINE
  5
1C97
330
1F
100
AcDbEntity
  8
外形線
100
AcDbLine
 10
34178.71068823858
 20
29001.15633112583
 30
0.0
 11
34189.71068823859
 21
29001.15633112583
 31
0.0
  0
LINE
  5
1C98
330
1F
100
AcDbEntity
  8
外形線
100
AcDbLine
 10
34189.71068823859
 20
29001.15633112583
 30
0.0
 11
34189.71068823859
 21
28997.15633112583
 31
0.0
  0
LINE
  5
1C99
330
1F
100
AcDbEntity
  8
外形線
100
AcDbLine
 10
34189.71068823859
 20
28997.15633112583
 30
0.0
 11
34178.71068823858
 21
28997.15633112583
 31
0.0
  0
ARC
  5
1C9A
330
1F
100
AcDbEntity
  8
外形線
100
AcDbCircle
 10
34178.71068823858
 20
28999.15633112583
 30
0.0
 40
2.0
100
AcDbArc
 50
90.0
 51
270.0
  0
LINE
  5
1C9B
330
1F
100
AcDbEntity
  8
外形線
100
AcDbLine
 10
34194.71068823859
 20
28995.90633112583
 30
0.0
 11
34193.71068823858
 21
28995.90633112583
 31
0.0
  0
LINE
  5
1C9C
330
1F
100
AcDbEntity
  8
外形線
100
AcDbLine
 10
34193.71068823858
 20
28995.90633112583
 30
0.0
 11
34193.71068823858
 21
29002.40633112582
 31
0.0
  0
LINE
  5
1C9D
330
1F
100
AcDbEntity
  8
外形線
100
AcDbLine
 10
34193.71068823858
 20
29002.40633112582
 30
0.0
 11
34194.71068823859
 21
29002.40633112582
 31
0.0
  0
LINE
  5
1C9E
330
1F
100
AcDbEntity
  8
外形線
100
AcDbLine
 10
34207.71068823859
 20
29008.65633112583
 30
0.0
 11
34149.21068823859
 21
29008.65633112583
 31
0.0
  0
LINE
  5
1C9F
330
1F
100
AcDbEntity
  8
外形線
100
AcDbLine
 10
34149.21068823859
 20
29008.65633112583
 30
0.0
 11
34149.21068823859
 21
29001.45892474907
 31
0.0
  0
LINE
  5
1CA0
330
1F
100
AcDbEntity
  8
外形線
100
AcDbLine
 10
34149.21068823859
 20
28996.85373750258
 30
0.0
 11
34149.21068823859
 21
28989.65633112583
 31
0.0
  0
LINE
  5
1CA1
330
1F
100
AcDbEntity
  8
外形線
100
AcDbLine
 10
34149.21068823859
 20
28989.65633112583
 30
0.0
 11
34207.71068823859
 21
28989.65633112583
 31
0.0
  0
LINE
  5
1CA2
330
1F
100
AcDbEntity
  8
外形線
100
AcDbLine
 10
34207.71068823859
 20
28990.65633112583
 30
0.0
 11
34182.21068823859
 21
28990.65633112583
 31
0.0
  0
LINE
  5
1CA3
330
1F
100
AcDbEntity
  8
外形線
100
AcDbLine
 10
34178.21068823859
 20
28990.65633112583
 30
0.0
 11
34149.21068823859
 21
28990.65633112583
 31
0.0
  0
LINE
  5
1CA4
330
1F
100
AcDbEntity
  8
外形線
100
AcDbLine
 10
34149.21068823859
 20
29007.65633112582
 30
0.0
 11
34178.21068823859
 21
29007.65633112582
 31
0.0
  0
LINE
  5
1CA5
330
1F
100
AcDbEntity
  8
外形線
100
AcDbLine
 10
34207.71068823859
 20
29007.65633112582
 30
0.0
 11
34182.21068823859
 21
29007.65633112582
 31
0.0
  0
LINE
  5
1CA6
330
1F
100
AcDbEntity
  8
外形線
100
AcDbLine
 10
34153.21068823859
 20
29002.65633112582
 30
0.0
 11
34157.21068823859
 21
29002.65633112582
 31
0.0
  0
LINE
  5
1CA7
330
1F
100
AcDbEntity
  8
外形線
100
AcDbLine
 10
34157.21068823859
 20
29002.65633112582
 30
0.0
 11
34157.21068823859
 21
28995.65633112583
 31
0.0
  0
LINE
  5
1CA8
330
1F
100
AcDbEntity
  8
外形線
100
AcDbLine
 10
34157.21068823859
 20
28995.65633112583
 30
0.0
 11
34153.21068823859
 21
28995.65633112583
 31
0.0
  0
LINE
  5
1CA9
330
1F
100
AcDbEntity
  8
外形線
100
AcDbLine
 10
34153.71068823858
 20
28995.65633112583
 30
0.0
 11
34153.71068823858
 21
29002.65633112582
 31
0.0
  0
LINE
  5
1CAA
330
1F
100
AcDbEntity
  8
外形線
100
AcDbLine
 10
34153.71068823858
 20
29002.65633112582
 30
0.0
 11
34146.10945998756
 21
29000.53056712818
 31
0.0
  0
LINE
  5
1CAB
330
1F
100
AcDbEntity
  8
外形線
100
AcDbLine
 10
34146.10945998756
 20
28997.78209512347
 30
0.0
 11
34153.71068823858
 21
28995.65633112583
 31
0.0
  0
ARC
  5
1CAC
330
1F
100
AcDbEntity
  8
外形線
100
AcDbCircle
 10
34146.71068823859
 20
28999.15633112583
 30
0.0
 40
1.5
100
AcDbArc
 50
113.6293777308642
 51
246.3706222691358
  0
LINE
  5
1CAD
330
1F
100
AcDbEntity
  8
外形線
100
AcDbLine
 10
34153.21068823859
 20
29002.65633112582
 30
0.0
 11
34153.21068823859
 21
29002.5165008295
 31
0.0
  0
LINE
  5
1CAE
330
1F
100
AcDbEntity
  8
外形線
100
AcDbLine
 10
34153.21068823859
 20
28995.65633112583
 30
0.0
 11
34153.21068823859
 21
28995.79616142215
 31
0.0
  0
LINE
  5
1CE9
330
1F
100
AcDbEntity
  8
外形線
100
AcDbLine
 10
33561.21068823858
 20
28805.15633147484
 30
0.0
 11
33560.52740666558
 21
28806.52289462084
 31
0.0
  0
ARC
  5
1CEA
330
1F
100
AcDbEntity
  8
外形線
100
AcDbCircle
 10
33563.21068823858
 20
28807.86453540734
 30
0.0
 40
3.0
100
AcDbArc
 50
180.0
 51
206.5650511770682
  0
LINE
  5
1CEB
330
1F
100
AcDbEntity
  8
外形線
100
AcDbLine
 10
33560.21068823859
 20
28807.86453540734
 30
0.0
 11
33560.21068823859
 21
28813.74211791245
 31
0.0
  0
ARC
  5
1CEC
330
1F
100
AcDbEntity
  8
外形線
100
AcDbCircle
 10
33560.71068823859
 20
28813.74211791245
 30
0.0
 40
0.5
100
AcDbArc
 50
135.0000000004376
 51
180.0
  0
LINE
  5
1CED
330
1F
100
AcDbEntity
  8
外形線
100
AcDbLine
 10
33560.35713484799
 20
28814.09567130305
 30
0.0
 11
33561.06424162918
 21
28814.80277808424
 31
0.0
  0
ARC
  5
1CEE
330
1F
100
AcDbEntity
  8
外形線
100
AcDbCircle
 10
33560.71068823859
 20
28815.15633147484
 30
0.0
 40
0.5
100
AcDbArc
 50
315.0000000004375
 51
0.0
  0
XLINE
  5
1CF5
330
1F
100
AcDbEntity
  8
オフセット
100
AcDbXline
 10
32678.26842177908
 20
26838.05684584568
 30
0.0
 11
-1.0
 21
0.0
 31
0.0
  0
XLINE
  5
1CF6
330
1F
100
AcDbEntity
  8
オフセット
100
AcDbXline
 10
34287.07906368178
 20
27902.11527306976
 30
0.0
 11
0.0
 21
-1.0
 31
0.0
  0
XLINE
  5
1CF7
330
1F
100
AcDbEntity
  8
オフセット
100
AcDbXline
 10
34109.07906368178
 20
27902.11527306976
 30
0.0
 11
0.0
 21
-1.0
 31
0.0
  0
XLINE
  5
1CF8
330
1F
100
AcDbEntity
  8
オフセット
100
AcDbXline
 10
33773.07906368178
 20
27902.11527306976
 30
0.0
 11
0.0
 21
-1.0
 31
0.0
  0
XLINE
  5
1CF9
330
1F
100
AcDbEntity
  8
オフセット
100
AcDbXline
 10
33600.0790636818
 20
27902.11527306976
 30
0.0
 11
0.0
 21
-1.0
 31
0.0
  0
XLINE
  5
1CFA
330
1F
100
AcDbEntity
  8
オフセット
100
AcDbXline
 10
33711.27906368178
 20
27902.11527306976
 30
0.0
 11
0.0
 21
-1.0
 31
0.0
  0
DIMENSION
  5
1D33
102
{ACAD_XDICTIONARY
360
1D40
102
}
102
{ACAD_REACTORS
330
1D4A
102
}
330
1F
100
AcDbEntity
  8
寸法線
100
AcDbDimension
280
     0
  2
*D6
 10
34234.21068823859
 20
29090.05068924812
 30
0.0
 11
33897.21068823859
 21
29100.88714900255
 31
0.0
 70
    32
 71
     5
 42
674.0
 73
     0
 74
     0
 75
     0
  3
ISO-25
100
AcDbAlignedDimension
 13
33560.21068823859
 23
28999.15633112583
 33
0.0
 14
34234.21068823859
 24
28999.15633112583
 34
0.0
100
AcDbRotatedDimension
  0
DIMENSION
  5
1D4B
102
{ACAD_XDICTIONARY
360
1D58
102
}
102
{ACAD_REACTORS
330
1D62
102
}
330
1F
100
AcDbEntity
  8
寸法線
100
AcDbDimension
280
     0
  2
*D7
 10
34284.26309905079
 20
28799.15633112583
 30
0.0
 11
34273.42663929635
 21
28825.15633112583
 31
0.0
 70
    32
 71
     5
 42
52.0
 73
     0
 74
     0
 75
     0
  3
ISO-25
100
AcDbAlignedDimension
 13
34233.21068823859
 23
28851.15633112583
 33
0.0
 14
34233.21068823859
 24
28799.15633112583
 34
0.0
 50
90.0
100
AcDbRotatedDimension
  0
DIMENSION
  5
1D63
102
{ACAD_XDICTIONARY
360
1D71
102
}
102
{ACAD_REACTORS
330
1D7C
102
}
330
1F
100
AcDbEntity
  8
寸法線
100
AcDbDimension
280
     0
  2
*D8
 10
34284.26309905079
 20
28774.15633112583
 30
0.0
 11
34273.42663929635
 21
28756.4610719171
 31
0.0
 70
    32
 71
     5
 42
25.0
 73
     0
 74
     0
 75
     0
  3
ISO-25
100
AcDbAlignedDimension
 13
34233.21068823859
 23
28799.15633112583
 33
0.0
 14
33961.41068823859
 24
28774.15633112583
 34
0.0
 50
90.0
100
AcDbRotatedDimension
  0
XLINE
  5
1D80
330
1F
100
AcDbEntity
  8
オフセット
100
AcDbXline
 10
33486.07906368178
 20
27902.11527306976
 30
0.0
 11
0.0
 21
-1.0
 31
0.0
  0
XLINE
  5
1D81
330
1F
100
AcDbEntity
  8
オフセット
100
AcDbXline
 10
34060.07906368178
 20
27902.11527306976
 30
0.0
 11
0.0
 21
-1.0
 31
0.0
  0
XLINE
  5
1D82
330
1F
100
AcDbEntity
  8
オフセット
100
AcDbXline
 10
32678.26842177908
 20
26878.05684584568
 30
0.0
 11
-1.0
 21
0.0
 31
0.0
  0
XLINE
  5
1D83
330
1F
100
AcDbEntity
  8
オフセット
100
AcDbXline
 10
32678.26842177908
 20
26598.05684584568
 30
0.0
 11
-1.0
 21
0.0
 31
0.0
  0
LINE
  5
1D84
102
{ACAD_REACTORS
330
1D9E
102
}
330
1F
100
AcDbEntity
  8
中心線
100
AcDbLine
 10
33610.21068823859
 20
29039.15633112583
 30
0.0
 11
33610.21068823859
 21
28759.15633112583
 31
0.0
  0
LINE
  5
1D85
102
{ACAD_REACTORS
330
1D9E
102
}
330
1F
100
AcDbEntity
  8
中心線
100
AcDbLine
 10
34184.21068823858
 20
29039.15633112583
 30
0.0
 11
34184.21068823858
 21
28759.15633112583
 31
0.0
  0
XLINE
  5
1D86
102
{ACAD_REACTORS
330
1D9E
102
}
330
1F
100
AcDbEntity
  8
オフセット
100
AcDbXline
 10
32678.26842177908
 20
26718.05684584568
 30
0.0
 11
-1.0
 21
0.0
 31
0.0
  0
DIMENSION
  5
1D87
102
{ACAD_XDICTIONARY
360
1D94
102
}
102
{ACAD_REACTORS
330
1D9E
102
}
330
1F
100
AcDbEntity
  8
寸法線
100
AcDbDimension
280
     0
  2
*D9
 10
34184.21068823858
 20
26704.11697110985
 30
0.0
 11
33897.21068823859
 21
26714.91250316988
 31
0.0
 70
    32
 71
     5
 42
574.0
 73
     0
 74
     0
 75
     0
  3
ISO-25
100
AcDbAlignedDimension
 13
33610.21068823859
 23
26718.05684584568
 33
0.0
 14
34184.21068823858
 24
26718.05684584568
 34
0.0
100
AcDbRotatedDimension
  0
XLINE
  5
1DE7
330
1F
100
AcDbEntity
  8
オフセット
100
AcDbXline
 10
34276.07906368178
 20
27902.11527306976
 30
0.0
 11
0.0
 21
-1.0
 31
0.0
  0
XLINE
  5
1DE8
330
1F
100
AcDbEntity
  8
オフセット
100
AcDbXline
 10
34906.07906368178
 20
27902.11527306976
 30
0.0
 11
0.0
 21
-1.0
 31
0.0
  0
XLINE
  5
1DE9
330
1F
100
AcDbEntity
  8
オフセット
100
AcDbXline
 10
34591.07906368178
 20
27902.11527306976
 30
0.0
 11
0.0
 21
-1.0
 31
0.0
  0
XLINE
  5
1DEA
330
1F
100
AcDbEntity
  8
オフセット
100
AcDbXline
 10
32678.26842177908
 20
26673.80684584568
 30
0.0
 11
-1.0
 21
0.0
 31
0.0
  0
XLINE
  5
1E48
330
1F
100
AcDbEntity
  8
オフセット
100
AcDbXline
 10
32915.44093491146
 20
28941.00189436203
 30
0.0
 11
-1.0
 21
0.0
 31
0.0
  0
XLINE
  5
1E99
330
1F
100
AcDbEntity
  8
オフセット
100
AcDbXline
 10
32915.44093491146
 20
28875.84412596429
 30
0.0
 11
-1.0
 21
0.0
 31
0.0
  0
LINE
  5
1EB2
330
1F
100
AcDbEntity
  8
寸法線
100
AcDbLine
 10
33610.21068823859
 20
28876.46912596429
 30
0.0
 11
33610.21068823859
 21
28893.20788385253
 31
0.0
  0
LINE
  5
1EB3
330
1F
100
AcDbEntity
  8
寸法線
100
AcDbLine
 10
34184.21068823858
 20
28876.46912596429
 30
0.0
 11
34184.21068823858
 21
28893.20788385253
 31
0.0
  0
LINE
  5
1EB4
330
1F
100
AcDbEntity
  8
寸法線
100
AcDbLine
 10
33612.71068823858
 20
28891.95788385253
 30
0.0
 11
34181.71068823859
 21
28891.95788385253
 31
0.0
  0
SOLID
  5
1EB5
330
1F
100
AcDbEntity
  8
寸法線
100
AcDbTrace
 10
33612.71068823858
 20
28892.3745505192
 30
0.0
 11
33612.71068823858
 21
28891.54121718587
 31
0.0
 12
33610.21068823859
 22
28891.95788385253
 32
0.0
 13
33610.21068823859
 23
28891.95788385253
 33
0.0
  0
SOLID
  5
1EB6
330
1F
100
AcDbEntity
  8
寸法線
100
AcDbTrace
 10
34181.71068823859
 20
28892.3745505192
 30
0.0
 11
34181.71068823859
 21
28891.54121718587
 31
0.0
 12
34184.21068823858
 22
28891.95788385253
 32
0.0
 13
34184.21068823858
 23
28891.95788385253
 33
0.0
  0
MTEXT
  5
1EBF
330
1F
100
AcDbEntity
  8
寸法線
100
AcDbMText
 10
33934.20052772016
 20
28889.3236535836
 30
0.0
 40
20.0
 41
0.0
 46
0.0
 71
     5
 72
     1
  1
{\fMS PGothic|b0|i0|c128|p50;灯具取付寸法　　最内ピッチ　　}540\P       {\fMS PGothic|b0|i0|c128|p50;　　    　　　　最外ピッチ　　614}
 73
     1
 44
1.0
  0
VIEWPORT
  5
318
102
{ACAD_XDICTIONARY
360
319
102
}
330
D2
100
AcDbEntity
 67
     1
  8
0
100
AcDbViewport
 10
205.0097503662109
 20
198.846392454756
 30
0.0
 40
511.3899719593863
 41
424.8889022343412
 68
     1
 69
     1
 12
205.0097503662109
 22
198.846392454756
 13
0.0
 23
0.0
 14
10.0
 24
10.0
 15
10.0
 25
10.0
 16
0.0
 26
0.0
 36
1.0
 17
0.0
 27
0.0
 37
0.0
 42
50.0
 43
0.0
 44
0.0
 45
424.8889022343412
 50
0.0
 51
0.0
 72
  1000
 90
   557088
  1

281
     0
 71
     1
 74
     0
110
0.0
120
0.0
130
0.0
111
1.0
121
0.0
131
0.0
112
0.0
122
1.0
132
0.0
 79
     0
146
0.0
170
     0
 61
     5
348
EC
292
     1
282
     1
141
0.0
142
0.0
 63
   250
421
  3355443
  0
VIEWPORT
  5
31C
102
{ACAD_XDICTIONARY
360
31D
102
}
330
D2
100
AcDbEntity
 67
     1
  8
外形線②
100
AcDbViewport
 10
128.5
 20
97.5
 30
0.0
 40
205.6
 41
156.0
 68
     2
 69
     2
 12
210.0
 22
148.5
 13
0.0
 23
0.0
 14
10.0
 24
10.0
 15
10.0
 25
10.0
 16
0.0
 26
0.0
 36
1.0
 17
0.0
 27
0.0
 37
0.0
 42
50.0
 43
0.0
 44
0.0
 45
321.3253284758076
 50
0.0
 51
0.0
 72
  1000
 90
   819808
  1

281
     0
 71
     1
 74
     0
110
0.0
120
0.0
130
0.0
111
1.0
121
0.0
131
0.0
112
0.0
122
1.0
132
0.0
 79
     0
146
0.0
170
     0
 61
     5
348
EC
292
     1
282
     1
141
0.0
142
0.0
 63
   250
421
  3355443
  0
ENDSEC
  0
SECTION
  2
OBJECTS
  0
DICTIONARY
  5
C
330
0
100
AcDbDictionary
281
     1
  3
ACAD_CIP_PREVIOUS_PRODUCT_INFO
350
20D
  3
ACAD_COLOR
350
79
  3
ACAD_DETAILVIEWSTYLE
350
212
  3
ACAD_GROUP
350
D
  3
ACAD_LAYOUT
350
1A
  3
ACAD_MATERIAL
350
78
  3
ACAD_MLEADERSTYLE
350
124
  3
ACAD_MLINESTYLE
350
17
  3
ACAD_PLOTSETTINGS
350
19
  3
ACAD_PLOTSTYLENAME
350
E
  3
ACAD_SCALELIST
350
103
  3
ACAD_SECTIONVIEWSTYLE
350
210
  3
ACAD_TABLESTYLE
350
97
  3
ACAD_VISUALSTYLE
350
E6
  3
ACDB_RECOMPOSE_DATA
350
1EF1
  3
AcDbVariableDictionary
350
67
  0
DICTIONARY
  5
1F6
330
2
100
AcDbDictionary
280
     1
281
     1
  3
ACAD_LAYERSTATES
360
1F7
  0
DICTIONARY
  5
133
330
10
100
AcDbDictionary
280
     1
281
     1
  0
DICTIONARY
  5
CEB
330
CEA
100
AcDbDictionary
280
     1
281
     1
  0
DICTIONARY
  5
1C5
330
1F
100
AcDbDictionary
280
     1
281
     1
  3
ACAD_SORTENTS
360
35E
  0
DICTIONARY
  5
1DC7
330
1DC6
100
AcDbDictionary
280
     1
281
     1
  3
ASDK_XREC_ANNOTATION_SCALE_INFO
360
1DC8
  0
DICTIONARY
  5
1DCB
330
1DCA
100
AcDbDictionary
280
     1
281
     1
  3
ASDK_XREC_ANNOTATION_SCALE_INFO
360
1DCC
  0
DICTIONARY
  5
C7B
330
C6E
100
AcDbDictionary
280
     1
281
     1
  3
ACAD_DIMASSOC
360
C85
  0
DICTIONARY
  5
C94
330
C86
100
AcDbDictionary
280
     1
281
     1
  3
ACAD_DIMASSOC
360
C9F
  0
DICTIONARY
  5
CC7
330
CBA
100
AcDbDictionary
280
     1
281
     1
  3
ACAD_DIMASSOC
360
CD1
  0
DICTIONARY
  5
CDF
330
CD2
100
AcDbDictionary
280
     1
281
     1
  3
ACAD_DIMASSOC
360
CE9
  0
DICTIONARY
  5
1322
330
1314
100
AcDbDictionary
280
     1
281
     1
  3
ACAD_DIMASSOC
360
132D
  0
DICTIONARY
  5
1D40
330
1D33
100
AcDbDictionary
280
     1
281
     1
  3
ACAD_DIMASSOC
360
1D4A
  0
DICTIONARY
  5
1D58
330
1D4B
100
AcDbDictionary
280
     1
281
     1
  3
ACAD_DIMASSOC
360
1D62
  0
DICTIONARY
  5
1D71
330
1D63
100
AcDbDictionary
280
     1
281
     1
  3
ACAD_DIMASSOC
360
1D7C
  0
DICTIONARY
  5
1D94
330
1D87
100
AcDbDictionary
280
     1
281
     1
  3
ACAD_DIMASSOC
360
1D9E
  0
DICTIONARY
  5
319
330
318
100
AcDbDictionary
280
     1
281
     1
  3
ASDK_XREC_ANNOTATION_SCALE_INFO
360
31A
  0
DICTIONARY
  5
31D
330
31C
100
AcDbDictionary
280
     1
281
     1
  3
ASDK_XREC_ANNOTATION_SCALE_INFO
360
31E
  0
XRECORD
  5
20D
102
{ACAD_REACTORS
330
C
102
}
330
C
100
AcDbXrecord
280
     1
300
ACDLT
300
2016
300
ACDLT_F_S
  0
DICTIONARY
  5
79
102
{ACAD_REACTORS
330
C
102
}
330
C
100
AcDbDictionary
281
     1
  0
DICTIONARY
  5
212
102
{ACAD_REACTORS
330
C
102
}
330
C
100
AcDbDictionary
281
     1
  3
Metric50
350
213
  0
DICTIONARY
  5
D
102
{ACAD_REACTORS
330
C
102
}
330
C
100
AcDbDictionary
281
     1
  0
DICTIONARY
  5
1A
102
{ACAD_REACTORS
330
C
102
}
330
C
100
AcDbDictionary
281
     1
  3
Model
350
22
  3
レイアウト1
350
D3
  3
レイアウト2
350
D7
  0
DICTIONARY
  5
78
102
{ACAD_REACTORS
330
C
102
}
330
C
100
AcDbDictionary
281
     1
  3
ByBlock
350
E4
  3
ByLayer
350
E3
  3
Global
350
E5
  0
DICTIONARY
  5
124
102
{ACAD_REACTORS
330
C
102
}
330
C
100
AcDbDictionary
281
     1
  3
Annotative
350
132
  3
Standard
350
125
  0
DICTIONARY
  5
17
102
{ACAD_REACTORS
330
C
102
}
330
C
100
AcDbDictionary
281
     1
  3
Standard
350
18
  0
DICTIONARY
  5
19
102
{ACAD_REACTORS
330
C
102
}
330
C
100
AcDbDictionary
281
     1
  0
ACDBDICTIONARYWDFLT
  5
E
102
{ACAD_REACTORS
330
C
102
}
330
C
100
AcDbDictionary
281
     1
  3
Normal
350
F
100
AcDbDictionaryWithDefault
340
F
  0
DICTIONARY
  5
103
102
{ACAD_REACTORS
330
C
102
}
330
C
100
AcDbDictionary
281
     1
  3
A0
350
104
  3
A1
350
1B5
  3
A2
350
1B6
  3
A3
350
1B7
  3
A4
350
1B8
  3
A5
350
1B9
  3
A6
350
1BA
  3
A7
350
1BB
  3
A8
350
1BC
  3
A9
350
1BD
  3
B0
350
1BE
  3
B1
350
1BF
  3
B2
350
1C0
  3
B3
350
1C1
  3
B4
350
1C2
  3
B5
350
1C3
  3
B6
350
1C4
  0
DICTIONARY
  5
210
102
{ACAD_REACTORS
330
C
102
}
330
C
100
AcDbDictionary
281
     1
  3
Metric50
350
211
  0
DICTIONARY
  5
97
102
{ACAD_REACTORS
330
C
102
}
330
C
100
AcDbDictionary
281
     1
  3
Standard
350
98
  0
DICTIONARY
  5
E6
102
{ACAD_REACTORS
330
C
102
}
330
C
100
AcDbDictionary
281
     1
  3
2dWireframe
350
EC
  3
Basic
350
EB
  3
Brighten
350
F2
  3
ColorChange
350
F6
  3
Conceptual
350
EF
  3
Dim
350
F1
  3
EdgeColorOff
350
1DD
  3
Facepattern
350
F5
  3
Flat
350
E7
  3
FlatWithEdges
350
E8
  3
Gouraud
350
E9
  3
GouraudWithEdges
350
EA
  3
Hidden
350
EE
  3
JitterOff
350
1DB
  3
Linepattern
350
F4
  3
OverhangOff
350
1DC
  3
Realistic
350
F0
  3
Shaded
350
1EA
  3
Shaded with edges
350
1E9
  3
Shades of Gray
350
1E6
  3
Sketchy
350
1E7
  3
Thicken
350
F3
  3
Wireframe
350
ED
  3
X-Ray
350
1E8
  0
XRECORD
  5
1EF1
102
{ACAD_REACTORS
330
C
102
}
330
C
100
AcDbXrecord
280
     1
 90
        1
330
98
330
211
330
213
330
B52
330
B53
330
B54
330
B55
330
B56
330
B57
330
B58
330
B59
330
B5A
330
B5B
330
B5C
330
B5D
330
B5E
330
B5F
330
B60
330
B61
330
B62
330
B63
330
B66
330
B67
330
B68
330
B69
330
B6A
330
B6B
330
B6C
330
B6D
330
B6E
330
B6F
330
B70
330
B7B
330
B7C
330
B7D
330
B7E
330
B7F
330
B80
330
B81
330
B82
330
B83
330
B84
330
B85
330
B86
330
C33
330
C35
330
C37
330
C39
330
C3B
330
C3D
330
C3E
330
13B0
330
13B3
330
13B4
  0
DICTIONARY
  5
67
102
{ACAD_REACTORS
330
C
102
}
330
C
100
AcDbDictionary
281
     1
  3
CANNOSCALE
350
13D
  3
CMLEADERSTYLE
350
13C
  3
CTABLESTYLE
350
C5
  3
CVIEWDETAILSTYLE
350
21E
  3
CVIEWSECTIONSTYLE
350
21F
  3
DIMASSOC
350
68
  3
EXPORTMODELSPACE
350
DA8
  3
HIDETEXT
350
6C
  3
LAYEREVAL
350
1A5
  3
LAYERNOTIFY
350
1A6
  0
DICTIONARY
  5
1F7
102
{ACAD_REACTORS
330
1F6
102
}
330
1F6
100
AcDbDictionary
281
     1
  0
SORTENTSTABLE
  5
35E
102
{ACAD_REACTORS
330
1C5
102
}
330
1C5
100
AcDbSortentsTable
330
1F
331
1D63
  5
1DE9
331
1BFB
  5
1C0C
331
1CAC
  5
1D63
331
1BBC
  5
1BCD
331
7B6
  5
7B6
331
C3A
  5
D7A
331
1C75
  5
1C86
331
1C36
  5
1C47
331
D87
  5
FAE
331
1C03
  5
1C14
331
1CEC
  5
1D85
331
1BC4
  5
1BD5
331
89D
  5
B59
331
7BE
  5
7BE
331
C42
  5
B26
331
1C3E
  5
1C4F
331
D8F
  5
11F6
331
D50
  5
D96
331
1BCC
  5
1BDD
331
1C0B
  5
1C1C
331
7C6
  5
7C6
331
C4A
  5
D84
331
1C7D
  5
1C8E
331
1C85
  5
1C96
331
D97
  5
11FE
331
D58
  5
F7F
331
1BD4
  5
1BE5
331
1C46
  5
1C57
331
1C4E
  5
1C5F
331
1E48
  5
9BE
331
1B87
  5
1B98
331
13B0
  5
15DF
331
1B8F
  5
1BA0
331
1DE8
  5
9A8
331
1B97
  5
1BA8
331
11D8
  5
12F7
331
D99
  5
1200
331
B62
  5
C86
331
B23
  5
B7E
331
994
  5
B79
331
11E0
  5
1337
331
B6A
  5
D4D
331
B2B
  5
B86
331
11F0
  5
15B9
331
B72
  5
D56
331
B33
  5
C1A
331
8C5
  5
B5C
331
11F8
  5
15CD
331
B7A
  5
D5E
331
B3B
  5
C22
331
7CE
  5
7CE
331
1BDC
  5
1BED
331
1C8D
  5
1C9E
331
1B9D
  5
1BAE
331
D60
  5
F87
331
7D6
  5
7D6
331
1C56
  5
1C67
331
1C17
  5
1C28
331
D68
  5
F8F
331
1BE4
  5
1BF5
331
1C95
  5
1CA6
331
1BA5
  5
1BB6
331
C23
  5
B22
331
1C5E
  5
1C6F
331
1C1F
  5
1C30
331
1BAD
  5
1BBE
331
1BEC
  5
1BFD
331
D70
  5
F97
331
7A7
  5
7A7
331
1C9D
  5
1CAE
331
1C66
  5
1C77
331
D78
  5
F9F
331
1BF4
  5
1C05
331
C33
  5
D73
331
1CA5
  5
1CF6
331
1BB5
  5
1BC6
331
1C27
  5
1C38
331
1C6E
  5
1C7F
331
1C2F
  5
1C40
331
1D81
  5
9A3
331
1B68
  5
1B79
331
1B70
  5
1B81
331
1B78
  5
1B89
331
1200
  5
15D5
331
B82
  5
D67
331
B43
  5
C2A
331
90D
  5
B6B
331
B8A
  5
D6F
331
B4B
  5
C38
331
1230
  5
9AC
331
11C9
  5
1207
331
B53
  5
C43
331
985
  5
B70
331
86E
  5
B51
331
11D1
  5
1231
331
B5B
  5
C4B
331
98D
  5
B72
331
7AF
  5
7AF
331
D80
  5
FA7
331
1BFC
  5
1C0D
331
1CAD
  5
1D80
331
1BBD
  5
1BCE
331
7B7
  5
7B7
331
C3B
  5
D7B
331
1C76
  5
1C87
331
1C37
  5
1C48
331
D88
  5
FAF
331
D49
  5
D8F
331
1C04
  5
1C15
331
1CED
  5
1D86
331
1BC5
  5
1BD6
331
89E
  5
B5A
331
7BF
  5
7BF
331
C43
  5
B25
331
1C3F
  5
1C50
331
D90
  5
11F7
331
D51
  5
D97
331
1BCD
  5
1BDE
331
1C0C
  5
1C1D
331
C4B
  5
D85
331
7C7
  5
7C7
331
1CF5
  5
9B2
331
1C7E
  5
1C8F
331
1C86
  5
1C97
331
D59
  5
F80
331
1BD5
  5
1BE6
331
1C47
  5
1C58
331
1C4F
  5
1C60
331
1B80
  5
1B91
331
1B88
  5
1B99
331
13B1
  5
15E0
331
1DE9
  5
9A7
331
1B90
  5
1BA1
331
1E99
  5
B20
331
11D9
  5
12F8
331
D9A
  5
1201
331
B63
  5
CA0
331
B24
  5
B7F
331
11E1
  5
13AF
331
B6B
  5
D4E
331
B2C
  5
B87
331
11F1
  5
15BA
331
B73
  5
D57
331
B34
  5
C1B
331
8C6
  5
B5F
331
11F9
  5
15CE
331
B7B
  5
D60
331
B3C
  5
C23
331
9C5
  5
833
331
906
  5
B62
331
7CF
  5
7CF
331
1C10
  5
1C21
331
D61
  5
F88
331
1BDD
  5
1BEE
331
1C8E
  5
1C9F
331
1B9E
  5
1BAF
331
CBA
  5
D8D
331
7D7
  5
7D7
331
1C57
  5
1C68
331
1C18
  5
1C29
331
D69
  5
F90
331
1BE5
  5
1BF6
331
1C96
  5
1CA7
331
1BA6
  5
1BB7
331
C24
  5
9BC
331
1C5F
  5
1C70
331
1C20
  5
1C31
331
D71
  5
F98
331
1BAE
  5
1BBF
331
1BED
  5
1BFE
331
CD2
  5
D8E
331
1C9E
  5
1CAF
331
1C67
  5
1C78
331
D79
  5
FA0
331
1BF5
  5
1C06
331
C34
  5
D74
331
1CA6
  5
1CF7
331
1BB6
  5
1BC7
331
1C28
  5
1C39
331
1C6F
  5
1C80
331
1D82
  5
9B4
331
129A
  5
9B5
331
1B69
  5
1B7A
331
1B71
  5
1B82
331
1B79
  5
1B8A
331
1201
  5
15D6
331
B83
  5
D68
331
B44
  5
C2B
331
B4C
  5
C39
331
11CA
  5
1208
331
B54
  5
C44
331
986
  5
B71
331
7A8
  5
7A8
331
86F
  5
B53
331
11D2
  5
126E
331
B5C
  5
C4C
331
98E
  5
B73
331
7B0
  5
7B0
331
1C30
  5
1C41
331
D81
  5
FA8
331
1BFD
  5
1C0E
331
1CAE
  5
1D81
331
1BBE
  5
1BCF
331
7B8
  5
7B8
331
C3C
  5
D7C
331
1C77
  5
1C88
331
1C38
  5
1C49
331
D89
  5
FB0
331
D4A
  5
D90
331
1C05
  5
1C16
331
1CEE
  5
1D87
331
1BC6
  5
1BD7
331
89F
  5
B5B
331
7C0
  5
7C0
331
C44
  5
B24
331
1C40
  5
1C51
331
D91
  5
11F8
331
D52
  5
D98
331
1BCE
  5
1BDF
331
1C0D
  5
1C1E
331
C4C
  5
D86
331
1CF6
  5
9A5
331
1C7F
  5
1C90
331
1C87
  5
1C98
331
D5A
  5
F81
331
1BD6
  5
1BE7
331
1C48
  5
1C59
331
1B81
  5
1B92
331
1B89
  5
1B9A
331
13B2
  5
15E1
331
1DEA
  5
9B0
331
1B91
  5
1BA2
331
1EB2
  5
1EB2
331
11DA
  5
12F9
331
D9B
  5
1202
331
B64
  5
CBA
331
B25
  5
B80
331
8A7
  5
B60
331
11E2
  5
13B0
331
B6C
  5
D4F
331
B2D
  5
B88
331
11F2
  5
15BB
331
B74
  5
D58
331
B35
  5
C1C
331
9A6
  5
9BA
331
7C8
  5
7C8
331
11FA
  5
15CF
331
B7C
  5
D61
331
B3D
  5
C24
331
907
  5
B64
331
7D0
  5
7D0
331
1C50
  5
1C61
331
1C11
  5
1C22
331
1BDE
  5
1BEF
331
1C8F
  5
1CA0
331
1B9F
  5
1BB0
331
D62
  5
F89
331
7D8
  5
7D8
331
1C58
  5
1C69
331
1C19
  5
1C2A
331
D6A
  5
F91
331
1BE6
  5
1BF7
331
1C97
  5
1CA8
331
1BA7
  5
1BB8
331
C25
  5
9BD
331
1C21
  5
1C32
331
1BAF
  5
1BC0
331
1BEE
  5
1BFF
331
D72
  5
F99
331
1C60
  5
1C71
331
1C9F
  5
1CB0
331
1C68
  5
1C79
331
D7A
  5
FA1
331
1BF6
  5
1C07
331
C35
  5
D75
331
1CA7
  5
1CF8
331
1BB7
  5
1BC8
331
1C29
  5
1C3A
331
1D83
  5
9B1
331
129B
  5
9AB
331
1B6A
  5
1B7B
331
1B72
  5
1B83
331
1B7A
  5
1B8B
331
1202
  5
15D7
331
1123
  5
9AA
331
B84
  5
D69
331
B45
  5
C2F
331
120A
  5
15DA
331
B4D
  5
C3A
331
11CB
  5
1209
331
B55
  5
C45
331
7A9
  5
7A9
331
870
  5
B54
331
11D3
  5
1294
331
B5D
  5
C4D
331
98F
  5
B74
331
7B1
  5
7B1
331
1C70
  5
1C81
331
1C31
  5
1C42
331
D82
  5
FA9
331
1BFE
  5
1C0F
331
1BBF
  5
1BD0
331
7B9
  5
7B9
331
C3D
  5
D7D
331
1C78
  5
1C89
331
1C39
  5
1C4A
331
D8A
  5
FB1
331
D4B
  5
D91
331
1C06
  5
1C17
331
1BC7
  5
1BD8
331
7C1
  5
7C1
331
C45
  5
D7F
331
1C41
  5
1C52
331
D92
  5
11F9
331
1C80
  5
1C91
331
D53
  5
D99
331
1BCF
  5
1BE0
331
1C0E
  5
1C1F
331
C4D
  5
D87
331
1CF7
  5
95D
331
D5B
  5
F82
331
1BD7
  5
1BE8
331
1C49
  5
1C5A
331
1B82
  5
1B93
331
1B8A
  5
1B9B
331
13B3
  5
15E2
331
1B92
  5
1BA3
331
1EB3
  5
1EB3
331
11DB
  5
12FC
331
D9C
  5
1203
331
B65
  5
CD2
331
B26
  5
B81
331
8A8
  5
B61
331
11E3
  5
13B1
331
B6D
  5
D50
331
B2E
  5
B89
331
11F3
  5
15BC
331
B75
  5
D59
331
B36
  5
C1D
331
9A7
  5
9B9
331
7C9
  5
7C9
331
1C88
  5
1C99
331
1B98
  5
1BA9
331
11FB
  5
15D0
331
B7D
  5
D62
331
B3E
  5
C25
331
7D1
  5
7D1
331
1C51
  5
1C62
331
1C12
  5
1C23
331
1BDF
  5
1BF0
331
1C90
  5
1CA1
331
1BA0
  5
1BB1
331
D63
  5
F8A
331
7D9
  5
7D9
331
1C59
  5
1C6A
331
1C1A
  5
1C2B
331
D6B
  5
F92
331
1BE7
  5
1BF8
331
1C98
  5
1CA9
331
1BA8
  5
1BB9
331
7A2
  5
7A2
331
C26
  5
D71
331
1C22
  5
1C33
331
1BEF
  5
1C00
331
D73
  5
F9A
331
1C61
  5
1C72
331
1CA0
  5
1CB1
331
1BB0
  5
1BC1
331
1C69
  5
1C7A
331
D7B
  5
FA2
331
1BF7
  5
1C08
331
C36
  5
D76
331
1C2A
  5
1C3B
331
1D84
  5
1DEA
331
1B6B
  5
1B7C
331
1314
  5
15DD
331
1B73
  5
1B84
331
1B7B
  5
1B8C
331
908
  5
B65
331
1203
  5
15D8
331
B85
  5
D6A
331
B46
  5
C33
331
120B
  5
15DC
331
B4E
  5
C3B
331
11CC
  5
120A
331
B56
  5
C46
331
B1F
  5
B7A
331
7AA
  5
7AA
331
1CA8
  5
1CF9
331
1BB8
  5
1BC9
331
871
  5
B55
331
11D4
  5
1295
331
B5E
  5
C4E
331
7B2
  5
7B2
331
1C71
  5
1C82
331
1C32
  5
1C43
331
D83
  5
FAA
331
1BFF
  5
1C10
331
1BC0
  5
1BD1
331
7BA
  5
7BA
331
C3E
  5
D7E
331
1C79
  5
1C8A
331
1C3A
  5
1C4B
331
D8B
  5
FB2
331
D4C
  5
D92
331
1C07
  5
1C18
331
1BC8
  5
1BD9
331
7C2
  5
7C2
331
C46
  5
D80
331
1C42
  5
1C53
331
D93
  5
11FA
331
1C81
  5
1C92
331
D54
  5
D9A
331
1C0F
  5
1C20
331
C4E
  5
D88
331
1CF8
  5
95F
331
1BD0
  5
1BE1
331
D5C
  5
F83
331
1C4A
  5
1C5B
331
1B83
  5
1B94
331
1B8B
  5
1B9C
331
13B4
  5
1B74
331
1B93
  5
1BA4
331
1EB4
  5
1EB4
331
990
  5
B75
331
11DC
  5
1314
331
B66
  5
D49
331
B27
  5
B82
331
11E4
  5
13B2
331
B6E
  5
D51
331
B2F
  5
B8A
331
9A0
  5
B2B
331
11F4
  5
15BD
331
B76
  5
D5A
331
B37
  5
C1E
331
7CA
  5
7CA
331
1BD8
  5
1BE9
331
1C89
  5
1C9A
331
1B99
  5
1BAA
331
11FC
  5
15D1
331
B7E
  5
D63
331
B3F
  5
C26
331
7D2
  5
7D2
331
1C52
  5
1C63
331
1C13
  5
1C24
331
D64
  5
F8B
331
1BE0
  5
1BF1
331
1C91
  5
1CA2
331
1BA1
  5
1BB2
331
7DA
  5
7DA
331
C6E
  5
D8B
331
1C5A
  5
1C6B
331
1C1B
  5
1C2C
331
D6C
  5
F93
331
1C99
  5
1CAA
331
1BA9
  5
1BBA
331
1BE8
  5
1BF9
331
7A3
  5
7A3
331
C27
  5
B23
331
1C23
  5
1C34
331
D74
  5
F9B
331
1C62
  5
1C73
331
1BF0
  5
1C01
331
C2F
  5
D72
331
1CA1
  5
1CB2
331
1BB1
  5
1BC2
331
1C6A
  5
1C7B
331
D7C
  5
FA3
331
C86
  5
D8C
331
C37
  5
D77
331
1C2B
  5
1C3C
331
1D85
  5
1E48
331
1B64
  5
1B75
331
1B6C
  5
1B7D
331
1B74
  5
1B85
331
1B7C
  5
1B8D
331
909
  5
B66
331
1204
  5
15D9
331
1125
  5
9B7
331
B86
  5
D6B
331
B47
  5
C34
331
B4F
  5
C3C
331
981
  5
B6C
331
86A
  5
B2C
331
11CD
  5
120B
331
B57
  5
C47
331
7AB
  5
7AB
331
1BF8
  5
1C09
331
1CA9
  5
1CFA
331
1BB9
  5
1BCA
331
872
  5
B56
331
11D5
  5
1296
331
B5F
  5
C4F
331
7B3
  5
7B3
331
1C72
  5
1C83
331
1C33
  5
1C44
331
1C00
  5
1C11
331
1CE9
  5
1D82
331
1BC1
  5
1BD2
331
D84
  5
FAB
331
7BB
  5
7BB
331
1C7A
  5
1C8B
331
1C3B
  5
1C4C
331
D8C
  5
11F3
331
D4D
  5
D93
331
1BC9
  5
1BDA
331
1C08
  5
1C19
331
7C3
  5
7C3
331
C47
  5
D81
331
1C43
  5
1C54
331
D94
  5
11FB
331
1C82
  5
1C93
331
D55
  5
D9B
331
C4F
  5
D89
331
1CF9
  5
960
331
1BD1
  5
1BE2
331
D5D
  5
F84
331
1C4B
  5
1C5C
331
1B84
  5
1B95
331
1B8C
  5
1B9D
331
1B94
  5
1BA5
331
17DD
  5
9AD
331
1EB5
  5
1EB5
331
B20
  5
B7B
331
991
  5
B76
331
8A2
  5
B5D
331
11DD
  5
1334
331
B67
  5
D4A
331
B28
  5
B83
331
11E5
  5
13B3
331
B6F
  5
D52
331
B30
  5
C17
331
9A1
  5
B2A
331
11F5
  5
15BE
331
B77
  5
D5B
331
B38
  5
C1F
331
7CB
  5
7CB
331
1BD9
  5
1BEA
331
1C8A
  5
1C9B
331
1B9A
  5
1BAB
331
11FD
  5
15D2
331
B7F
  5
D64
331
7D3
  5
7D3
331
C18
  5
B27
331
1C53
  5
1C64
331
1C14
  5
1C25
331
D65
  5
F8C
331
1BE1
  5
1BF2
331
1C92
  5
1CA3
331
1BA2
  5
1BB3
331
7DB
  5
7DB
331
C20
  5
D70
331
1C5B
  5
1C6C
331
1C1C
  5
1C2D
331
1C9A
  5
1CAB
331
1BAA
  5
1BBB
331
1BE9
  5
1BFA
331
D6D
  5
F94
331
7A4
  5
7A4
331
1C24
  5
1C35
331
1BF1
  5
1C02
331
D75
  5
F9C
331
1C63
  5
1C74
331
1CA2
  5
1CB3
331
1BB2
  5
1BC3
331
1C6B
  5
1C7C
331
D7D
  5
FA4
331
1C2C
  5
1C3D
331
1D86
  5
9B3
331
1B65
  5
1B76
331
1B6D
  5
1B7E
331
1B75
  5
1B86
331
1B7D
  5
1B8E
331
B40
  5
C27
331
90A
  5
B67
331
1205
  5
15DB
331
1126
  5
9B6
331
B87
  5
D6C
331
B48
  5
C35
331
93A
  5
B63
331
11C6
  5
1204
331
B50
  5
C3D
331
982
  5
B6D
331
86B
  5
B2D
331
11CE
  5
120C
331
C17
  5
9BB
331
B58
  5
C48
331
7AC
  5
7AC
331
1BF9
  5
1C0A
331
1CAA
  5
1D33
331
1BBA
  5
1BCB
331
873
  5
9B8
331
11D6
  5
12F5
331
7B4
  5
7B4
331
C38
  5
D78
331
1C73
  5
1C84
331
1C34
  5
1C45
331
1C01
  5
1C12
331
1CEA
  5
1D83
331
1BC2
  5
1BD3
331
D85
  5
FAC
331
7BC
  5
7BC
331
1C7B
  5
1C8C
331
1C3C
  5
1C4D
331
D8D
  5
11F4
331
D4E
  5
D94
331
1BCA
  5
1BDB
331
1C09
  5
1C1A
331
7C4
  5
7C4
331
C48
  5
D82
331
1C44
  5
1C55
331
D95
  5
11FC
331
1C83
  5
1C94
331
D56
  5
D9C
331
C50
  5
D8A
331
1CFA
  5
9A4
331
1BD2
  5
1BE3
331
D5E
  5
F85
331
1C4C
  5
1C5D
331
1B85
  5
1B96
331
1B8D
  5
1B9E
331
1B95
  5
1BA6
331
1EB6
  5
1EB6
331
B60
  5
C54
331
B21
  5
B7C
331
992
  5
B77
331
8A3
  5
B5E
331
11DE
  5
1335
331
B68
  5
D4B
331
B29
  5
B84
331
99A
  5
B52
331
11E6
  5
13B4
331
B70
  5
D53
331
B31
  5
C18
331
9A2
  5
B29
331
11F6
  5
15BF
331
B78
  5
D5C
331
B39
  5
C20
331
7CC
  5
7CC
331
1BDA
  5
1BEB
331
1C8B
  5
1C9C
331
1B9B
  5
1BAC
331
11FE
  5
15D3
331
7D4
  5
7D4
331
1C54
  5
1C65
331
1C15
  5
1C26
331
1BE2
  5
1BF3
331
1C93
  5
1CA4
331
1BA3
  5
1BB4
331
D66
  5
F8D
331
1C5C
  5
1C6D
331
1C1D
  5
1C2E
331
1BAB
  5
1BBC
331
1BEA
  5
1BFB
331
D6E
  5
F95
331
7E4
  5
9A9
331
7A5
  5
7A5
331
1C9B
  5
1CAC
331
1C25
  5
1C36
331
1BF2
  5
1C03
331
D76
  5
F9D
331
1C64
  5
1C75
331
1CA3
  5
1CB4
331
1BB3
  5
1BC4
331
1C6C
  5
1C7D
331
D7E
  5
FA5
331
1C2D
  5
1C3E
331
1D87
  5
1E99
331
1B66
  5
1B77
331
1B6E
  5
1B7F
331
1B76
  5
1B87
331
1B7E
  5
1B8F
331
B80
  5
D65
331
B41
  5
C28
331
90B
  5
B69
331
B88
  5
D6D
331
B49
  5
C36
331
93B
  5
B68
331
11C7
  5
1205
331
B51
  5
C3E
331
983
  5
B6E
331
86C
  5
B4F
331
11CF
  5
120D
331
B59
  5
C49
331
7AD
  5
7AD
331
1BFA
  5
1C0B
331
1CAB
  5
1D4B
331
1BBB
  5
1BCC
331
11D7
  5
12F6
331
7B5
  5
7B5
331
C39
  5
D79
331
1C74
  5
1C85
331
1C35
  5
1C46
331
1C02
  5
1C13
331
1CEB
  5
1D84
331
1BC3
  5
1BD4
331
D86
  5
FAD
331
89C
  5
B57
331
7BD
  5
7BD
331
1C3D
  5
1C4E
331
D8E
  5
11F5
331
D4F
  5
D95
331
1BCB
  5
1BDC
331
1C0A
  5
1C1B
331
7C5
  5
7C5
331
C49
  5
D83
331
1C7C
  5
1C8D
331
1C45
  5
1C56
331
D96
  5
11FD
331
1C84
  5
1C95
331
D57
  5
F7E
331
1BD3
  5
1BE4
331
D5F
  5
F86
331
1C4D
  5
1C5E
331
1B86
  5
1B97
331
13AF
  5
15DE
331
1B8E
  5
1B9F
331
1DE7
  5
9A6
331
17D7
  5
906
331
1B96
  5
1BA7
331
D98
  5
11FF
331
B61
  5
C6E
331
B22
  5
B7D
331
993
  5
B78
331
11DF
  5
1336
331
B69
  5
D4C
331
B2A
  5
B85
331
B71
  5
D54
331
B32
  5
C19
331
9A3
  5
B28
331
8C4
  5
B58
331
11F7
  5
15CC
331
B79
  5
D5D
331
B3A
  5
C21
331
7CD
  5
7CD
331
1D33
  5
1DE7
331
1BDB
  5
1BEC
331
1C8C
  5
1C9D
331
1B9C
  5
1BAD
331
11FF
  5
15D4
331
7D5
  5
7D5
331
1C55
  5
1C66
331
1C16
  5
1C27
331
D67
  5
F8E
331
1BE3
  5
1BF4
331
1C94
  5
1CA5
331
1BA4
  5
1BB5
331
C22
  5
B21
331
1C5D
  5
1C6E
331
1C1E
  5
1C2F
331
1BAC
  5
1BBD
331
1D4B
  5
1DE8
331
1BEB
  5
1BFC
331
D6F
  5
F96
331
7A6
  5
7A6
331
1C9C
  5
1CAD
331
1C26
  5
1C37
331
1BF3
  5
1C04
331
D77
  5
F9E
331
1C65
  5
1C76
331
1CA4
  5
1CF5
331
1BB4
  5
1BC5
331
1C6D
  5
1C7E
331
D7F
  5
FA6
331
1C2E
  5
1C3F
331
1D80
  5
9A2
331
1B67
  5
1B78
331
1B6F
  5
1B80
331
1B77
  5
1B88
331
1B7F
  5
1B90
331
B81
  5
D66
331
B42
  5
C29
331
90C
  5
B6A
331
B89
  5
D6E
331
B4A
  5
C37
331
11C8
  5
1206
331
B52
  5
C42
331
984
  5
B6F
331
86D
  5
B50
331
11D0
  5
1230
331
B5A
  5
C4A
331
7AE
  5
7AE
  0
XRECORD
  5
1DC8
102
{ACAD_REACTORS
330
1DC7
102
}
330
1DC7
100
AcDbXrecord
280
     1
 90
        1
340
104
  0
XRECORD
  5
1DCC
102
{ACAD_REACTORS
330
1DCB
102
}
330
1DCB
100
AcDbXrecord
280
     1
 90
        1
340
104
  0
DIMASSOC
  5
C85
102
{ACAD_REACTORS
330
C7B
102
}
330
C7B
100
AcDbDimAssoc
330
C6E
 90
        3
 70
     0
 71
     0
  1
AcDbOsnapPointRef
 72
     1
331
86D
 73
     2
 91
        0
 40
3.141592653589793
 10
34966.19848660889
 20
28997.10326060758
 30
0.0
 75
     0
  1
AcDbOsnapPointRef
 72
     1
331
870
 73
     2
 91
        0
 40
1.0
 10
35011.19848660888
 20
28997.10326060758
 30
0.0
 75
     0
  0
DIMASSOC
  5
C9F
102
{ACAD_REACTORS
330
C94
102
}
330
C94
100
AcDbDimAssoc
330
C86
 90
        1
 70
     0
 71
     0
  1
AcDbOsnapPointRef
 72
    13
331
C26
 73
     2
 91
        0
 40
0.0
 10
34990.19848660889
 20
29059.60326060758
 30
0.0
 75
     0
  0
DIMASSOC
  5
CD1
102
{ACAD_REACTORS
330
CC7
102
}
330
CC7
100
AcDbDimAssoc
330
CBA
 90
        1
 70
     0
 71
     0
  1
AcDbOsnapPointRef
 72
    13
331
7A2
 73
     2
 91
        0
 40
0.0
 10
34974.19848660889
 20
29033.35326060758
 30
0.0
 75
     0
  0
DIMASSOC
  5
CE9
102
{ACAD_REACTORS
330
CDF
102
}
330
CDF
100
AcDbDimAssoc
330
CD2
 90
        3
 70
     0
 71
     0
  1
AcDbOsnapPointRef
 72
     2
331
7A4
 73
     2
 91
        0
 40
7.853981633974482
 10
34990.19848660888
 20
29049.60326060757
 30
0.0
 75
     0
  1
AcDbOsnapPointRef
 72
     2
331
982
 73
     2
 91
        0
 40
0.5
 10
34990.19848660889
 20
28972.60326060758
 30
0.0
 75
     0
  0
DIMASSOC
  5
132D
102
{ACAD_REACTORS
330
1322
102
}
330
1322
100
AcDbDimAssoc
330
1314
 90
        1
 70
     0
 71
     0
  1
AcDbOsnapPointRef
 72
    13
331
C26
 73
     2
 91
        0
 40
0.0
 10
34811.19848660889
 20
27739.44632341184
 30
0.0
 75
     0
  0
DIMASSOC
  5
1D4A
102
{ACAD_REACTORS
330
1D40
102
}
330
1D40
100
AcDbDimAssoc
330
1D33
 90
        3
 70
     0
 71
     0
  1
AcDbOsnapPointRef
 72
     2
331
1BB5
 73
     2
 91
        0
 40
0.5000000000000001
 10
33436.07906368178
 20
26838.05684584568
 30
0.0
 75
     0
  1
AcDbOsnapPointRef
 72
     2
331
1BCC
 73
     2
 91
        0
 40
0.5000000000000001
 10
34110.07906368178
 20
26838.05684584568
 30
0.0
 75
     0
  0
DIMASSOC
  5
1D62
102
{ACAD_REACTORS
330
1D58
102
}
330
1D58
100
AcDbDimAssoc
330
1D4B
 90
        3
 70
     0
 71
     0
  1
AcDbOsnapPointRef
 72
     1
331
1B84
 73
     2
 91
        0
 40
1.0
 10
34109.07906368178
 20
26690.05684584567
 30
0.0
 75
     0
  1
AcDbOsnapPointRef
 72
    13
331
1B66
 73
     2
 91
        0
 40
0.0
 10
34109.07906368178
 20
26638.05684584568
 30
0.0
 75
     0
  0
DIMASSOC
  5
1D7C
102
{ACAD_REACTORS
330
1D71
102
}
330
1D71
100
AcDbDimAssoc
330
1D63
 90
        3
 70
     0
 71
     0
  1
AcDbOsnapPointRef
 72
    13
331
1B66
 73
     2
 91
        0
 40
0.0
 10
34109.07906368178
 20
26638.05684584568
 30
0.0
 75
     0
  1
AcDbOsnapPointRef
 72
    13
331
11DB
 73
     2
 91
        0
 40
0.0
 10
33837.27906368178
 20
26613.05684584568
 30
0.0
 75
     0
  0
DIMASSOC
  5
1D9E
102
{ACAD_REACTORS
330
1D94
102
}
330
1D94
100
AcDbDimAssoc
330
1D87
 90
        3
 70
     0
 71
     0
  1
AcDbOsnapPointRef
 72
     6
331
1D84
 73
     2
 91
        0
 40
0.5714285714285714
 10
33486.07906368178
 20
26718.05684584568
 30
0.0
332
1D86
 74
     2
 92
        0
 75
     0
  1
AcDbOsnapPointRef
 72
     6
331
1D85
 73
     2
 91
        0
 40
0.5714285714285714
 10
34060.07906368178
 20
26718.05684584568
 30
0.0
332
1D86
 74
     2
 92
        0
 75
     0
  0
XRECORD
  5
31A
102
{ACAD_REACTORS
330
319
102
}
330
319
100
AcDbXrecord
280
     1
 90
        1
340
104
  0
XRECORD
  5
31E
102
{ACAD_REACTORS
330
31D
102
}
330
31D
100
AcDbXrecord
280
     1
 90
        1
340
104
  0
ACDBDETAILVIEWSTYLE
  5
213
102
{ACAD_XDICTIONARY
360
22D
102
}
102
{ACAD_REACTORS
330
212
102
}
330
212
100
AcDbModelDocViewStyle
 70
     0
  3
Metric50
290
     0
100
AcDbDetailViewStyle
 70
     0
 71
     0
 90
        3
 71
     1
340
11
 62
   256
 40
5.0
340
0
 62
   256
 40
5.0
300

 40
0.0
280
     1
 71
     2
340
16
 90
       25
 62
   256
 71
     3
340
11
 62
   256
 40
5.0
 90
        0
 40
15.0
 90
        1
300
%<\AcVar ViewDetailId>% (%<\AcVar ViewScale \f "%sn">%)
 71
     4
340
16
 90
       25
 62
   256
340
16
 90
       25
 62
   256
280
     0
  0
LAYOUT
  5
22
102
{ACAD_XDICTIONARY
360
1FC
102
}
102
{ACAD_REACTORS
330
1A
102
}
330
1A
100
AcDbPlotSettings
  1

  2
Kyocera TASKalfa 3252ci(J) KX
  4
A3
  6

 40
4.984749794006347
 41
5.111724853515625
 42
5.154083251953125
 43
4.9847412109375
 44
297.0106506347656
 45
419.9889831542968
 46
0.0
 47
0.0
 48
0.0
 49
0.0
140
0.0
141
0.0
142
1.0
143
9.806410578662045
 70
 11952
 72
     1
 73
     1
 74
     0
  7
monochrome.stb
 75
     0
147
0.1019741109122964
 76
     0
 77
     2
 78
   300
148
-32876.12478992212
149
-27320.92452532269
100
AcDbLayout
  1
Model
 70
     1
 71
     0
 10
0.0
 20
0.0
 11
12.0
 21
9.0
 12
0.0
 22
0.0
 32
0.0
 14
0.0
 24
0.0
 34
0.0
 15
0.0
 25
0.0
 35
0.0
146
0.0
 13
0.0
 23
0.0
 33
0.0
 16
1.0
 26
0.0
 36
0.0
 17
0.0
 27
1.0
 37
0.0
 76
     0
330
1F
331
E1
1001
ACAD_PSEXT
1000
Kyocera TASKalfa 3252ci(J) KX
1000
Kyocera TASKalfa 3252ci(J) KX
1000
192.168.11.123
1000

1070
     0
  0
LAYOUT
  5
D3
102
{ACAD_REACTORS
330
1A
102
}
330
1A
100
AcDbPlotSettings
  1

  2
Kyocera TASKalfa 3050ci(J) KX
  4
A3
  6

 40
4.984749794006347
 41
5.111724853515625
 42
5.154083251953125
 43
4.9847412109375
 44
297.0106506347656
 45
419.9889831542968
 46
0.0
 47
0.0
 48
0.0
 49
0.0
140
0.0
141
0.0
142
1.0
143
1.0
 70
   688
 72
     1
 73
     1
 74
     5
  7
monochrome.stb
 75
    16
147
1.0
 76
     0
 77
     2
 78
   300
148
0.0
149
0.0
100
AcDbLayout
  1
レイアウト1
 70
     1
 71
     1
 10
-4.9847412109375
 20
-4.984749794006347
 11
415.0042419433593
 21
292.0259008407593
 12
0.0
 22
0.0
 32
0.0
 14
25.69999999999999
 24
19.5
 34
0.0
 15
231.3
 25
175.5
 35
0.0
146
0.0
 13
0.0
 23
0.0
 33
0.0
 16
1.0
 26
0.0
 36
0.0
 17
0.0
 27
1.0
 37
0.0
 76
     0
330
D2
331
318
1001
ACAD_PSEXT
1000
Kyocera TASKalfa 3050ci(J) KX
1000
Kyocera TASKalfa 3050ci(J) KX
1000
192.168.11.123
1000

1070
     0
  0
LAYOUT
  5
D7
102
{ACAD_REACTORS
330
1A
102
}
330
1A
100
AcDbPlotSettings
  1

  2
なし
  4
ISO_A4_(210.00_x_297.00_MM)
  6

 40
7.5
 41
20.0
 42
7.5
 43
20.0
 44
210.0
 45
297.0
 46
0.0
 47
0.0
 48
0.0
 49
0.0
140
0.0
141
0.0
142
1.0
143
1.0
 70
   688
 72
     1
 73
     1
 74
     5
  7
monochrome.stb
 75
    16
147
1.0
 76
     0
 77
     2
 78
   300
148
0.0
149
0.0
100
AcDbLayout
  1
レイアウト2
 70
     1
 71
     2
 10
-20.0
 20
-7.5
 11
277.0
 21
202.5
 12
0.0
 22
0.0
 32
0.0
 14
25.69999999999999
 24
19.5
 34
0.0
 15
231.3
 25
175.5
 35
0.0
146
0.0
 13
0.0
 23
0.0
 33
0.0
 16
1.0
 26
0.0
 36
0.0
 17
0.0
 27
1.0
 37
0.0
 76
     0
330
D6
331
1DC6
1001
ACAD_PSEXT
1000
なし
1000
なし
1000
適切ではありません
1000
新しいプロッタ環境設定名を選択しない限り、レイアウトは印刷されません。
1070
     0
  0
MATERIAL
  5
E4
102
{ACAD_XDICTIONARY
360
1F0
102
}
102
{ACAD_REACTORS
330
78
102
}
330
78
100
AcDbMaterial
  1
ByBlock
 94
       63
  0
MATERIAL
  5
E3
102
{ACAD_XDICTIONARY
360
1EE
102
}
102
{ACAD_REACTORS
330
78
102
}
330
78
100
AcDbMaterial
  1
ByLayer
 94
       63
  0
MATERIAL
  5
E5
102
{ACAD_XDICTIONARY
360
16A
102
}
102
{ACAD_REACTORS
330
78
102
}
330
78
100
AcDbMaterial
  1
Global
 43
0.0007999999797903
 43
0.0
 43
0.0
 43
0.0
 43
0.0
 43
0.0007999999797903
 43
0.0
 43
0.0
 43
0.0
 43
0.0
 43
1.0
 43
0.0
 43
0.0
 43
0.0
 43
0.0
 43
1.0
 49
0.0007999999797903
 49
0.0
 49
0.0
 49
0.0
 49
0.0
 49
0.0007999999797903
 49
0.0
 49
0.0
 49
0.0
 49
0.0
 49
1.0
 49
0.0
 49
0.0
 49
0.0
 49
0.0
 49
1.0
142
0.0007999999797903
142
0.0
142
0.0
142
0.0
142
0.0
142
0.0007999999797903
142
0.0
142
0.0
142
0.0
142
0.0
142
1.0
142
0.0
142
0.0
142
0.0
142
0.0
142
1.0
144
0.0007999999797903
144
0.0
144
0.0
144
0.0
144
0.0
144
0.0007999999797903
144
0.0
144
0.0
144
0.0
144
0.0
144
1.0
144
0.0
144
0.0
144
0.0
144
0.0
144
1.0
 94
       63
1001
ACAD
1070
    -1
1070
     3
1070
     0
1000

1071
        0
1070
     0
  0
MLEADERSTYLE
  5
132
102
{ACAD_REACTORS
330
124
102
}
330
124
100
AcDbMLeaderStyle
179
     2
170
     2
171
     1
172
     0
 90
        2
 40
0.0
 41
0.0
173
     1
 91
-1056964608
340
14
 92
       -2
290
     1
 42
2.0
291
     1
 43
8.0
  3
Standard
 44
4.0
300

342
11
174
     1
178
     1
175
     1
176
     0
 93
-1056964608
 45
4.0
292
     0
297
     0
 46
4.0
 94
-1056964608
 47
1.0
 49
1.0
140
1.0
293
     1
141
0.0
294
     1
177
     0
142
1.0
295
     0
296
     1
143
3.75
271
     0
272
     9
273
     9
298
     0
  0
MLEADERSTYLE
  5
125
102
{ACAD_REACTORS
330
124
102
}
330
124
100
AcDbMLeaderStyle
179
     2
170
     2
171
     1
172
     0
 90
        2
 40
0.0
 41
0.0
173
     1
 91
-1056964608
340
14
 92
       -2
290
     1
 42
2.0
291
     1
 43
8.0
  3
Standard
 44
4.0
300

342
11
174
     1
178
     1
175
     1
176
     0
 93
-1056964608
 45
4.0
292
     0
297
     0
 46
4.0
 94
-1056964608
 47
1.0
 49
1.0
140
1.0
293
     1
141
0.0
294
     1
177
     0
142
1.0
295
     0
296
     0
143
3.75
271
     0
272
     9
273
     9
298
     0
  0
MLINESTYLE
  5
18
102
{ACAD_REACTORS
330
17
102
}
330
17
100
AcDbMlineStyle
  2
STANDARD
 70
     0
  3

 62
   256
 51
90.0
 52
90.0
 71
     2
 49
0.5
 62
   256
  6
BYLAYER
 49
-0.5
 62
   256
  6
BYLAYER
  0
ACDBPLACEHOLDER
  5
F
102
{ACAD_REACTORS
330
E
102
}
330
E
  0
SCALE
  5
104
102
{ACAD_REACTORS
330
103
102
}
330
103
100
AcDbScale
 70
     0
300
1:1
140
1.0
141
1.0
290
     1
  0
SCALE
  5
1B5
102
{ACAD_REACTORS
330
103
102
}
330
103
100
AcDbScale
 70
     0
300
1:2
140
1.0
141
2.0
290
     0
  0
SCALE
  5
1B6
102
{ACAD_REACTORS
330
103
102
}
330
103
100
AcDbScale
 70
     0
300
1:4
140
1.0
141
4.0
290
     0
  0
SCALE
  5
1B7
102
{ACAD_REACTORS
330
103
102
}
330
103
100
AcDbScale
 70
     0
300
1:5
140
1.0
141
5.0
290
     0
  0
SCALE
  5
1B8
102
{ACAD_REACTORS
330
103
102
}
330
103
100
AcDbScale
 70
     0
300
1:8
140
1.0
141
8.0
290
     0
  0
SCALE
  5
1B9
102
{ACAD_REACTORS
330
103
102
}
330
103
100
AcDbScale
 70
     0
300
1:10
140
1.0
141
10.0
290
     0
  0
SCALE
  5
1BA
102
{ACAD_REACTORS
330
103
102
}
330
103
100
AcDbScale
 70
     0
300
1:16
140
1.0
141
16.0
290
     0
  0
SCALE
  5
1BB
102
{ACAD_REACTORS
330
103
102
}
330
103
100
AcDbScale
 70
     0
300
1:20
140
1.0
141
20.0
290
     0
  0
SCALE
  5
1BC
102
{ACAD_REACTORS
330
103
102
}
330
103
100
AcDbScale
 70
     0
300
1:30
140
1.0
141
30.0
290
     0
  0
SCALE
  5
1BD
102
{ACAD_REACTORS
330
103
102
}
330
103
100
AcDbScale
 70
     0
300
1:40
140
1.0
141
40.0
290
     0
  0
SCALE
  5
1BE
102
{ACAD_REACTORS
330
103
102
}
330
103
100
AcDbScale
 70
     0
300
1:50
140
1.0
141
50.0
290
     0
  0
SCALE
  5
1BF
102
{ACAD_REACTORS
330
103
102
}
330
103
100
AcDbScale
 70
     0
300
1:100
140
1.0
141
100.0
290
     0
  0
SCALE
  5
1C0
102
{ACAD_REACTORS
330
103
102
}
330
103
100
AcDbScale
 70
     0
300
2:1
140
2.0
141
1.0
290
     0
  0
SCALE
  5
1C1
102
{ACAD_REACTORS
330
103
102
}
330
103
100
AcDbScale
 70
     0
300
4:1
140
4.0
141
1.0
290
     0
  0
SCALE
  5
1C2
102
{ACAD_REACTORS
330
103
102
}
330
103
100
AcDbScale
 70
     0
300
8:1
140
8.0
141
1.0
290
     0
  0
SCALE
  5
1C3
102
{ACAD_REACTORS
330
103
102
}
330
103
100
AcDbScale
 70
     0
300
10:1
140
10.0
141
1.0
290
     0
  0
SCALE
  5
1C4
102
{ACAD_REACTORS
330
103
102
}
330
103
100
AcDbScale
 70
     0
300
100:1
140
100.0
141
1.0
290
     0
  0
ACDBSECTIONVIEWSTYLE
  5
211
102
{ACAD_XDICTIONARY
360
22B
102
}
102
{ACAD_REACTORS
330
210
102
}
330
210
100
AcDbModelDocViewStyle
 70
     0
  3
Metric50
290
     0
100
AcDbSectionViewStyle
 70
     0
 71
     0
 90
      102
 71
     1
340
11
 62
   256
 40
5.0
340
0
340
0
 62
   256
 40
5.0
300
I, O, Q, S, X, Z
 40
10.0
 90
        0
 40
2.5
 90
        0
 71
     2
340
16
 90
       25
 62
   256
340
16
 90
       50
 62
   256
 40
5.0
 40
2.5
 40
5.0
 71
     3
340
11
 62
   256
 40
5.0
 90
        0
 40
15.0
 90
        1
300
%<\AcVar ViewSectionStartId>%-%<\AcVar ViewSectionEndId>% (%<\AcVar ViewScale \f "%sn">%)
 71
     4
 62
   256
 62
   257
300
ANSI31
 40
1.0
 90
        0
290
     0
290
     0
 90
        6
 40
0.0
 40
1.570796326794896
 40
0.2617993877991494
 40
1.308996938995747
 40
-0.2617993877991494
 40
1.832595714594046
  0
TABLESTYLE
  5
98
102
{ACAD_XDICTIONARY
360
159
102
}
102
{ACAD_REACTORS
330
97
102
}
330
97
100
AcDbTableStyle
280
     0
  3
Standard
 70
     0
 71
     0
 40
1.5
 41
1.5
280
     0
281
     0
  7
Standard
140
4.5
170
     2
 62
     0
 63
     7
283
     0
 90
      512
 91
        0
  1

274
    -2
284
     1
 64
     0
275
    -2
285
     1
 65
     0
276
    -2
286
     1
 66
     0
277
    -2
287
     1
 67
     0
278
    -2
288
     1
 68
     0
279
    -2
289
     1
 69
     0
  7
Standard
140
6.0
170
     5
 62
     0
 63
     7
283
     0
 90
      512
 91
        0
  1

274
    -2
284
     1
 64
     0
275
    -2
285
     1
 65
     0
276
    -2
286
     1
 66
     0
277
    -2
287
     1
 67
     0
278
    -2
288
     1
 68
     0
279
    -2
289
     1
 69
     0
  7
Standard
140
4.5
170
     5
 62
     0
 63
     7
283
     0
 90
      512
 91
        0
  1

274
    -2
284
     1
 64
     0
275
    -2
285
     1
 65
     0
276
    -2
286
     1
 66
     0
277
    -2
287
     1
 67
     0
278
    -2
288
     1
 68
     0
279
    -2
289
     1
 69
     0
  0
VISUALSTYLE
  5
EC
102
{ACAD_REACTORS
330
E6
102
}
330
E6
100
AcDbVisualStyle
  2
2dWireframe
 70
     4
177
     3
291
     0
 70
    58
 90
        0
176
     1
 90
        2
176
     1
 90
        1
176
     1
 90
        0
176
     1
 40
0.6
176
     1
 40
30.0
176
     1
 62
     7
420
 16777215
176
     1
 90
        1
176
     1
 90
        4
176
     1
 62
     7
176
     1
 62
   257
176
     1
 90
        1
176
     1
 90
        1
176
     1
 40
1.0
176
     1
 90
        0
176
     1
 62
   257
176
     1
 40
1.0
176
     1
 90
        1
176
     1
 90
        6
176
     1
 90
        2
176
     1
 62
     7
176
     1
 90
        5
176
     1
 90
        0
176
     1
 90
        0
176
     1
290
     0
176
     1
 90
        1
176
     1
 40
0.0
176
     1
 90
        0
176
     1
290
     1
176
     1
290
     1
176
     1
290
     0
176
     1
290
     0
176
     1
290
     0
176
     1
290
     0
176
     1
290
     0
176
     1
290
     0
176
     1
290
     0
176
     1
 90
       50
176
     1
 40
0.0
176
     1
 40
1.0
176
     1
 90
        0
176
     1
 62
    18
420
        0
176
     1
 90
       50
176
     1
 90
        3
176
     1
 62
     5
420
      255
176
     1
290
     0
176
     1
 90
       50
176
     1
 90
       50
176
     1
 90
       50
176
     1
290
     0
176
     1
 90
       50
176
     1
 62
   256
176
     0
 40
1.0
176
     0
 90
        2
176
     1
  1
strokes_ogs.tif
176
     1
290
     0
176
     1
 40
1.0
176
     1
 40
1.0
176
     1
  0
VISUALSTYLE
  5
EB
102
{ACAD_REACTORS
330
E6
102
}
330
E6
100
AcDbVisualStyle
  2
Basic
 70
     7
177
     3
291
     1
 70
    58
 90
        1
176
     1
 90
        0
176
     1
 90
        1
176
     1
 90
        0
176
     1
 40
0.6
176
     1
 40
30.0
176
     1
 62
     7
420
 16777215
176
     1
 90
        0
176
     1
 90
        4
176
     1
 62
     7
176
     1
 62
   257
176
     1
 90
        1
176
     1
 90
        1
176
     1
 40
1.0
176
     1
 90
        8
176
     1
 62
     7
176
     1
 40
1.0
176
     1
 90
        1
176
     1
 90
        6
176
     1
 90
        2
176
     1
 62
     7
176
     1
 90
        5
176
     1
 90
        0
176
     1
 90
        0
176
     1
290
     0
176
     1
 90
        1
176
     1
 40
0.0
176
     1
 90
        0
176
     1
290
     0
176
     1
290
     1
176
     1
290
     1
176
     1
290
     0
176
     1
290
     0
176
     1
290
     0
176
     1
290
     0
176
     1
290
     0
176
     1
290
     0
176
     1
 90
       50
176
     1
 40
0.0
176
     1
 40
1.0
176
     1
 90
        0
176
     1
 62
    18
420
        0
176
     1
 90
       50
176
     1
 90
        3
176
     1
 62
     5
420
      255
176
     1
290
     0
176
     1
 90
       50
176
     1
 90
       50
176
     1
 90
       50
176
     1
290
     0
176
     1
 90
       50
176
     1
 62
   256
176
     0
 40
1.0
176
     0
 90
        2
176
     1
  1
strokes_ogs.tif
176
     1
290
     0
176
     1
 40
1.0
176
     1
 40
1.0
176
     1
  0
VISUALSTYLE
  5
F2
102
{ACAD_REACTORS
330
E6
102
}
330
E6
100
AcDbVisualStyle
  2
Brighten
 70
    12
177
     3
291
     1
 70
    58
 90
        2
176
     1
 90
        2
176
     1
 90
        1
176
     1
 90
        0
176
     1
 40
0.6
176
     1
 40
30.0
176
     1
 62
     7
420
 16777215
176
     1
 90
        1
176
     1
 90
        4
176
     1
 62
     7
176
     1
 62
   257
176
     1
 90
        1
176
     1
 90
        1
176
     1
 40
1.0
176
     1
 90
        8
176
     1
 62
     7
176
     1
 40
1.0
176
     1
 90
        1
176
     1
 90
        6
176
     1
 90
        2
176
     1
 62
     7
176
     1
 90
        5
176
     1
 90
        0
176
     1
 90
        0
176
     1
290
     0
176
     1
 90
        1
176
     1
 40
50.0
176
     1
 90
        0
176
     1
290
     0
176
     1
290
     1
176
     1
290
     1
176
     1
290
     0
176
     1
290
     0
176
     1
290
     0
176
     1
290
     0
176
     1
290
     0
176
     1
290
     0
176
     1
 90
       50
176
     1
 40
0.0
176
     1
 40
1.0
176
     1
 90
        0
176
     1
 62
    18
420
        0
176
     1
 90
       50
176
     1
 90
        3
176
     1
 62
     5
420
      255
176
     1
290
     0
176
     1
 90
       50
176
     1
 90
       50
176
     1
 90
       50
176
     1
290
     0
176
     1
 90
       50
176
     1
 62
   256
176
     0
 40
1.0
176
     0
 90
        2
176
     1
  1
strokes_ogs.tif
176
     1
290
     0
176
     1
 40
1.0
176
     1
 40
1.0
176
     1
  0
VISUALSTYLE
  5
F6
102
{ACAD_REACTORS
330
E6
102
}
330
E6
100
AcDbVisualStyle
  2
ColorChange
 70
    16
177
     3
291
     1
 70
    58
 90
        2
176
     1
 90
        2
176
     1
 90
        3
176
     1
 90
        0
176
     1
 40
0.6
176
     1
 40
30.0
176
     1
 62
     8
420
  8421504
176
     1
 90
        1
176
     1
 90
        4
176
     1
 62
     7
176
     1
 62
   257
176
     1
 90
        1
176
     1
 90
        1
176
     1
 40
1.0
176
     1
 90
        8
176
     1
 62
     8
420
  8421504
176
     1
 40
1.0
176
     1
 90
        1
176
     1
 90
        6
176
     1
 90
        2
176
     1
 62
     7
176
     1
 90
        5
176
     1
 90
        0
176
     1
 90
        0
176
     1
290
     0
176
     1
 90
        1
176
     1
 40
0.0
176
     1
 90
        0
176
     1
290
     0
176
     1
290
     1
176
     1
290
     1
176
     1
290
     0
176
     1
290
     0
176
     1
290
     0
176
     1
290
     0
176
     1
290
     0
176
     1
290
     0
176
     1
 90
       50
176
     1
 40
0.0
176
     1
 40
1.0
176
     1
 90
        0
176
     1
 62
    18
420
        0
176
     1
 90
       50
176
     1
 90
        3
176
     1
 62
     5
420
      255
176
     1
290
     0
176
     1
 90
       50
176
     1
 90
       50
176
     1
 90
       50
176
     1
290
     0
176
     1
 90
       50
176
     1
 62
   256
176
     0
 40
1.0
176
     0
 90
        2
176
     1
  1
strokes_ogs.tif
176
     1
290
     0
176
     1
 40
1.0
176
     1
 40
1.0
176
     1
  0
VISUALSTYLE
  5
EF
102
{ACAD_REACTORS
330
E6
102
}
330
E6
100
AcDbVisualStyle
  2
Conceptual
 70
     9
177
     3
291
     0
 70
    58
 90
        3
176
     1
 90
        2
176
     1
 90
        1
176
     1
 90
        0
176
     1
 40
0.6
176
     1
 40
30.0
176
     1
 62
     7
420
 16777215
176
     1
 90
        2
176
     1
 90
        2
176
     1
 62
     7
176
     1
 62
   257
176
     1
 90
        1
176
     1
 90
        1
176
     1
 40
40.0
176
     1
 90
        8
176
     1
 62
     7
176
     1
 40
1.0
176
     1
 90
        1
176
     1
 90
        6
176
     1
 90
        2
176
     1
 62
     7
176
     1
 90
        3
176
     1
 90
        0
176
     1
 90
        0
176
     1
290
     0
176
     1
 90
        1
176
     1
 40
0.0
176
     1
 90
        0
176
     1
290
     0
176
     1
290
     1
176
     1
290
     1
176
     1
290
     0
176
     1
290
     0
176
     1
290
     0
176
     1
290
     0
176
     1
290
     0
176
     1
290
     0
176
     1
 90
       50
176
     1
 40
0.0
176
     1
 40
1.0
176
     1
 90
        0
176
     1
 62
    18
420
        0
176
     1
 90
       50
176
     1
 90
        3
176
     1
 62
     5
420
      255
176
     1
290
     0
176
     1
 90
       50
176
     1
 90
       50
176
     1
 90
       50
176
     1
290
     0
176
     1
 90
       50
176
     1
 62
   256
176
     0
 40
1.0
176
     0
 90
        2
176
     1
  1
strokes_ogs.tif
176
     1
290
     0
176
     1
 40
1.0
176
     1
 40
1.0
176
     1
  0
VISUALSTYLE
  5
F1
102
{ACAD_REACTORS
330
E6
102
}
330
E6
100
AcDbVisualStyle
  2
Dim
 70
    11
177
     3
291
     1
 70
    58
 90
        2
176
     1
 90
        2
176
     1
 90
        1
176
     1
 90
        0
176
     1
 40
0.6
176
     1
 40
30.0
176
     1
 62
     7
420
 16777215
176
     1
 90
        1
176
     1
 90
        4
176
     1
 62
     7
176
     1
 62
   257
176
     1
 90
        1
176
     1
 90
        1
176
     1
 40
1.0
176
     1
 90
        8
176
     1
 62
     7
176
     1
 40
1.0
176
     1
 90
        1
176
     1
 90
        6
176
     1
 90
        2
176
     1
 62
     7
176
     1
 90
        5
176
     1
 90
        0
176
     1
 90
        0
176
     1
290
     0
176
     1
 90
        1
176
     1
 40
-50.0
176
     1
 90
        0
176
     1
290
     0
176
     1
290
     1
176
     1
290
     1
176
     1
290
     0
176
     1
290
     0
176
     1
290
     0
176
     1
290
     0
176
     1
290
     0
176
     1
290
     0
176
     1
 90
       50
176
     1
 40
0.0
176
     1
 40
1.0
176
     1
 90
        0
176
     1
 62
    18
420
        0
176
     1
 90
       50
176
     1
 90
        3
176
     1
 62
     5
420
      255
176
     1
290
     0
176
     1
 90
       50
176
     1
 90
       50
176
     1
 90
       50
176
     1
290
     0
176
     1
 90
       50
176
     1
 62
   256
176
     0
 40
1.0
176
     0
 90
        2
176
     1
  1
strokes_ogs.tif
176
     1
290
     0
176
     1
 40
1.0
176
     1
 40
1.0
176
     1
  0
VISUALSTYLE
  5
1DD
102
{ACAD_REACTORS
330
E6
102
}
330
E6
100
AcDbVisualStyle
  2
EdgeColorOff
 70
    22
177
     3
291
     1
 70
    58
 90
        2
176
     0
 90
        2
176
     0
 90
        0
176
     0
 90
        0
176
     0
 40
0.6
176
     0
 40
30.0
176
     0
 62
     7
420
 16777215
176
     0
 90
        1
176
     0
 90
        4
176
     0
 62
     7
176
     0
 62
   257
176
     0
 90
        1
176
     0
 90
        1
176
     0
 40
1.0
176
     0
 90
        8
176
     2
 62
     7
176
     0
 40
1.0
176
     0
 90
        1
176
     0
 90
        6
176
     0
 90
        2
176
     0
 62
     7
176
     0
 90
        5
176
     0
 90
        0
176
     0
 90
        0
176
     0
290
     0
176
     0
 90
        1
176
     0
 40
0.0
176
     0
 90
        0
176
     0
290
     0
176
     1
290
     1
176
     1
290
     1
176
     1
290
     0
176
     1
290
     0
176
     1
290
     0
176
     1
290
     0
176
     1
290
     0
176
     1
290
     0
176
     1
 90
       50
176
     1
 40
0.0
176
     1
 40
1.0
176
     1
 90
        0
176
     1
 62
    18
420
        0
176
     1
 90
       50
176
     1
 90
        3
176
     1
 62
     5
420
      255
176
     1
290
     0
176
     1
 90
       50
176
     1
 90
       50
176
     1
 90
       50
176
     1
290
     0
176
     1
 90
       50
176
     1
 62
   256
176
     0
 40
1.0
176
     0
 90
        2
176
     1
  1
strokes_ogs.tif
176
     1
290
     0
176
     1
 40
1.0
176
     1
 40
1.0
176
     1
  0
VISUALSTYLE
  5
F5
102
{ACAD_REACTORS
330
E6
102
}
330
E6
100
AcDbVisualStyle
  2
Facepattern
 70
    15
177
     3
291
     1
 70
    58
 90
        2
176
     1
 90
        2
176
     1
 90
        1
176
     1
 90
        0
176
     1
 40
0.6
176
     1
 40
30.0
176
     1
 62
     7
420
 16777215
176
     1
 90
        1
176
     1
 90
        4
176
     1
 62
     7
176
     1
 62
   257
176
     1
 90
        1
176
     1
 90
        1
176
     1
 40
1.0
176
     1
 90
        8
176
     1
 62
     7
176
     1
 40
1.0
176
     1
 90
        1
176
     1
 90
        6
176
     1
 90
        2
176
     1
 62
     7
176
     1
 90
        5
176
     1
 90
        0
176
     1
 90
        0
176
     1
290
     0
176
     1
 90
        1
176
     1
 40
0.0
176
     1
 90
        0
176
     1
290
     0
176
     1
290
     1
176
     1
290
     1
176
     1
290
     0
176
     1
290
     0
176
     1
290
     0
176
     1
290
     0
176
     1
290
     0
176
     1
290
     0
176
     1
 90
       50
176
     1
 40
0.0
176
     1
 40
1.0
176
     1
 90
        0
176
     1
 62
    18
420
        0
176
     1
 90
       50
176
     1
 90
        3
176
     1
 62
     5
420
      255
176
     1
290
     0
176
     1
 90
       50
176
     1
 90
       50
176
     1
 90
       50
176
     1
290
     0
176
     1
 90
       50
176
     1
 62
   256
176
     0
 40
1.0
176
     0
 90
        2
176
     1
  1
strokes_ogs.tif
176
     1
290
     0
176
     1
 40
1.0
176
     1
 40
1.0
176
     1
  0
VISUALSTYLE
  5
E7
102
{ACAD_REACTORS
330
E6
102
}
330
E6
100
AcDbVisualStyle
  2
Flat
 70
     0
177
     3
291
     1
 70
    58
 90
        2
176
     1
 90
        1
176
     1
 90
        1
176
     1
 90
        2
176
     1
 40
0.6
176
     1
 40
30.0
176
     1
 62
     7
420
 16777215
176
     1
 90
        0
176
     1
 90
        0
176
     1
 62
     7
176
     1
 62
   257
176
     1
 90
        1
176
     1
 90
        1
176
     1
 40
1.0
176
     1
 90
        8
176
     1
 62
     7
176
     1
 40
1.0
176
     1
 90
        1
176
     1
 90
        6
176
     1
 90
        2
176
     1
 62
     7
176
     1
 90
        5
176
     1
 90
        0
176
     1
 90
        0
176
     1
290
     0
176
     1
 90
       13
176
     1
 40
0.0
176
     1
 90
        0
176
     1
290
     0
176
     1
290
     1
176
     1
290
     1
176
     1
290
     0
176
     1
290
     0
176
     1
290
     0
176
     1
290
     0
176
     1
290
     0
176
     1
290
     0
176
     1
 90
       50
176
     1
 40
0.0
176
     1
 40
1.0
176
     1
 90
        0
176
     1
 62
    18
420
        0
176
     1
 90
       50
176
     1
 90
        3
176
     1
 62
     5
420
      255
176
     1
290
     0
176
     1
 90
       50
176
     1
 90
       50
176
     1
 90
       50
176
     1
290
     0
176
     1
 90
       50
176
     1
 62
   256
176
     0
 40
1.0
176
     0
 90
        2
176
     1
  1
strokes_ogs.tif
176
     1
290
     0
176
     1
 40
1.0
176
     1
 40
1.0
176
     1
  0
VISUALSTYLE
  5
E8
102
{ACAD_REACTORS
330
E6
102
}
330
E6
100
AcDbVisualStyle
  2
FlatWithEdges
 70
     1
177
     3
291
     1
 70
    58
 90
        2
176
     1
 90
        1
176
     1
 90
        1
176
     1
 90
        2
176
     1
 40
0.6
176
     1
 40
30.0
176
     1
 62
     7
420
 16777215
176
     1
 90
        1
176
     1
 90
        0
176
     1
 62
     7
176
     1
 62
   257
176
     1
 90
        1
176
     1
 90
        1
176
     1
 40
1.0
176
     1
 90
        0
176
     1
 62
   257
176
     1
 40
1.0
176
     1
 90
        1
176
     1
 90
        6
176
     1
 90
        2
176
     1
 62
     7
176
     1
 90
        5
176
     1
 90
        0
176
     1
 90
        0
176
     1
290
     0
176
     1
 90
       13
176
     1
 40
0.0
176
     1
 90
        0
176
     1
290
     0
176
     1
290
     1
176
     1
290
     1
176
     1
290
     0
176
     1
290
     0
176
     1
290
     0
176
     1
290
     0
176
     1
290
     0
176
     1
290
     0
176
     1
 90
       50
176
     1
 40
0.0
176
     1
 40
1.0
176
     1
 90
        0
176
     1
 62
    18
420
        0
176
     1
 90
       50
176
     1
 90
        3
176
     1
 62
     5
420
      255
176
     1
290
     0
176
     1
 90
       50
176
     1
 90
       50
176
     1
 90
       50
176
     1
290
     0
176
     1
 90
       50
176
     1
 62
   256
176
     0
 40
1.0
176
     0
 90
        2
176
     1
  1
strokes_ogs.tif
176
     1
290
     0
176
     1
 40
1.0
176
     1
 40
1.0
176
     1
  0
VISUALSTYLE
  5
E9
102
{ACAD_REACTORS
330
E6
102
}
330
E6
100
AcDbVisualStyle
  2
Gouraud
 70
     2
177
     3
291
     1
 70
    58
 90
        2
176
     1
 90
        2
176
     1
 90
        1
176
     1
 90
        2
176
     1
 40
0.6
176
     1
 40
30.0
176
     1
 62
     7
420
 16777215
176
     1
 90
        0
176
     1
 90
        0
176
     1
 62
     7
176
     1
 62
   257
176
     1
 90
        1
176
     1
 90
        1
176
     1
 40
1.0
176
     1
 90
        0
176
     1
 62
     7
176
     1
 40
1.0
176
     1
 90
        1
176
     1
 90
        6
176
     1
 90
        2
176
     1
 62
     7
176
     1
 90
        5
176
     1
 90
        0
176
     1
 90
        0
176
     1
290
     0
176
     1
 90
       13
176
     1
 40
0.0
176
     1
 90
        0
176
     1
290
     0
176
     1
290
     1
176
     1
290
     1
176
     1
290
     0
176
     1
290
     0
176
     1
290
     0
176
     1
290
     0
176
     1
290
     0
176
     1
290
     0
176
     1
 90
       50
176
     1
 40
0.0
176
     1
 40
1.0
176
     1
 90
        0
176
     1
 62
    18
420
        0
176
     1
 90
       50
176
     1
 90
        3
176
     1
 62
     5
420
      255
176
     1
290
     0
176
     1
 90
       50
176
     1
 90
       50
176
     1
 90
       50
176
     1
290
     0
176
     1
 90
       50
176
     1
 62
   256
176
     0
 40
1.0
176
     0
 90
        2
176
     1
  1
strokes_ogs.tif
176
     1
290
     0
176
     1
 40
1.0
176
     1
 40
1.0
176
     1
  0
VISUALSTYLE
  5
EA
102
{ACAD_REACTORS
330
E6
102
}
330
E6
100
AcDbVisualStyle
  2
GouraudWithEdges
 70
     3
177
     3
291
     1
 70
    58
 90
        2
176
     1
 90
        2
176
     1
 90
        1
176
     1
 90
        2
176
     1
 40
0.6
176
     1
 40
30.0
176
     1
 62
     7
420
 16777215
176
     1
 90
        1
176
     1
 90
        0
176
     1
 62
     7
176
     1
 62
   257
176
     1
 90
        1
176
     1
 90
        1
176
     1
 40
1.0
176
     1
 90
        0
176
     1
 62
   257
176
     1
 40
1.0
176
     1
 90
        1
176
     1
 90
        6
176
     1
 90
        2
176
     1
 62
     7
176
     1
 90
        5
176
     1
 90
        0
176
     1
 90
        0
176
     1
290
     0
176
     1
 90
       13
176
     1
 40
0.0
176
     1
 90
        0
176
     1
290
     0
176
     1
290
     1
176
     1
290
     1
176
     1
290
     0
176
     1
290
     0
176
     1
290
     0
176
     1
290
     0
176
     1
290
     0
176
     1
290
     0
176
     1
 90
       50
176
     1
 40
0.0
176
     1
 40
1.0
176
     1
 90
        0
176
     1
 62
    18
420
        0
176
     1
 90
       50
176
     1
 90
        3
176
     1
 62
     5
420
      255
176
     1
290
     0
176
     1
 90
       50
176
     1
 90
       50
176
     1
 90
       50
176
     1
290
     0
176
     1
 90
       50
176
     1
 62
   256
176
     0
 40
1.0
176
     0
 90
        2
176
     1
  1
strokes_ogs.tif
176
     1
290
     0
176
     1
 40
1.0
176
     1
 40
1.0
176
     1
  0
VISUALSTYLE
  5
EE
102
{ACAD_REACTORS
330
E6
102
}
330
E6
100
AcDbVisualStyle
  2
Hidden
 70
     6
177
     3
291
     0
 70
    58
 90
        1
176
     1
 90
        2
176
     1
 90
        2
176
     1
 90
        0
176
     1
 40
0.6
176
     1
 40
30.0
176
     1
 62
     7
420
 16777215
176
     1
 90
        2
176
     1
 90
        2
176
     1
 62
     7
176
     1
 62
   257
176
     1
 90
        2
176
     1
 90
        1
176
     1
 40
40.0
176
     1
 90
        0
176
     1
 62
   257
176
     1
 40
1.0
176
     1
 90
        1
176
     1
 90
        6
176
     1
 90
        2
176
     1
 62
     7
176
     1
 90
        3
176
     1
 90
        0
176
     1
 90
        0
176
     1
290
     0
176
     1
 90
        1
176
     1
 40
0.0
176
     1
 90
        0
176
     1
290
     0
176
     1
290
     1
176
     1
290
     1
176
     1
290
     0
176
     1
290
     0
176
     1
290
     0
176
     1
290
     0
176
     1
290
     0
176
     1
290
     0
176
     1
 90
       50
176
     1
 40
0.0
176
     1
 40
1.0
176
     1
 90
        0
176
     1
 62
    18
420
        0
176
     1
 90
       50
176
     1
 90
        3
176
     1
 62
     5
420
      255
176
     1
290
     0
176
     1
 90
       50
176
     1
 90
       50
176
     1
 90
       50
176
     1
290
     0
176
     1
 90
       50
176
     1
 62
   256
176
     0
 40
1.0
176
     0
 90
        2
176
     1
  1
strokes_ogs.tif
176
     1
290
     0
176
     1
 40
1.0
176
     1
 40
1.0
176
     1
  0
VISUALSTYLE
  5
1DB
102
{ACAD_REACTORS
330
E6
102
}
330
E6
100
AcDbVisualStyle
  2
JitterOff
 70
    20
177
     3
291
     1
 70
    58
 90
        2
176
     0
 90
        2
176
     0
 90
        0
176
     0
 90
        0
176
     0
 40
0.6
176
     0
 40
30.0
176
     0
 62
     7
420
 16777215
176
     0
 90
        1
176
     0
 90
        4
176
     0
 62
     7
176
     0
 62
   257
176
     0
 90
        1
176
     0
 90
        1
176
     0
 40
1.0
176
     0
 90
       10
176
     2
 62
     7
176
     0
 40
1.0
176
     0
 90
        1
176
     0
 90
        6
176
     0
 90
        2
176
     0
 62
     7
176
     0
 90
        5
176
     0
 90
        0
176
     0
 90
        0
176
     0
290
     0
176
     0
 90
        1
176
     0
 40
0.0
176
     0
 90
        0
176
     0
290
     0
176
     1
290
     1
176
     1
290
     1
176
     1
290
     0
176
     1
290
     0
176
     1
290
     0
176
     1
290
     0
176
     1
290
     0
176
     1
290
     0
176
     1
 90
       50
176
     1
 40
0.0
176
     1
 40
1.0
176
     1
 90
        0
176
     1
 62
    18
420
        0
176
     1
 90
       50
176
     1
 90
        3
176
     1
 62
     5
420
      255
176
     1
290
     0
176
     1
 90
       50
176
     1
 90
       50
176
     1
 90
       50
176
     1
290
     0
176
     1
 90
       50
176
     1
 62
   256
176
     0
 40
1.0
176
     0
 90
        2
176
     1
  1
strokes_ogs.tif
176
     1
290
     0
176
     1
 40
1.0
176
     1
 40
1.0
176
     1
  0
VISUALSTYLE
  5
F4
102
{ACAD_REACTORS
330
E6
102
}
330
E6
100
AcDbVisualStyle
  2
Linepattern
 70
    14
177
     3
291
     1
 70
    58
 90
        2
176
     1
 90
        2
176
     1
 90
        1
176
     1
 90
        0
176
     1
 40
0.6
176
     1
 40
30.0
176
     1
 62
     7
420
 16777215
176
     1
 90
        1
176
     1
 90
        4
176
     1
 62
     7
176
     1
 62
   257
176
     1
 90
        7
176
     1
 90
        7
176
     1
 40
1.0
176
     1
 90
        8
176
     1
 62
     7
176
     1
 40
1.0
176
     1
 90
        1
176
     1
 90
        6
176
     1
 90
        2
176
     1
 62
     7
176
     1
 90
        5
176
     1
 90
        0
176
     1
 90
        0
176
     1
290
     0
176
     1
 90
        1
176
     1
 40
0.0
176
     1
 90
        0
176
     1
290
     0
176
     1
290
     1
176
     1
290
     1
176
     1
290
     0
176
     1
290
     0
176
     1
290
     0
176
     1
290
     0
176
     1
290
     0
176
     1
290
     0
176
     1
 90
       50
176
     1
 40
0.0
176
     1
 40
1.0
176
     1
 90
        0
176
     1
 62
    18
420
        0
176
     1
 90
       50
176
     1
 90
        3
176
     1
 62
     5
420
      255
176
     1
290
     0
176
     1
 90
       50
176
     1
 90
       50
176
     1
 90
       50
176
     1
290
     0
176
     1
 90
       50
176
     1
 62
   256
176
     0
 40
1.0
176
     0
 90
        2
176
     1
  1
strokes_ogs.tif
176
     1
290
     0
176
     1
 40
1.0
176
     1
 40
1.0
176
     1
  0
VISUALSTYLE
  5
1DC
102
{ACAD_REACTORS
330
E6
102
}
330
E6
100
AcDbVisualStyle
  2
OverhangOff
 70
    21
177
     3
291
     1
 70
    58
 90
        2
176
     0
 90
        2
176
     0
 90
        0
176
     0
 90
        0
176
     0
 40
0.6
176
     0
 40
30.0
176
     0
 62
     7
420
 16777215
176
     0
 90
        1
176
     0
 90
        4
176
     0
 62
     7
176
     0
 62
   257
176
     0
 90
        1
176
     0
 90
        1
176
     0
 40
1.0
176
     0
 90
        9
176
     2
 62
     7
176
     0
 40
1.0
176
     0
 90
        1
176
     0
 90
        6
176
     0
 90
        2
176
     0
 62
     7
176
     0
 90
        5
176
     0
 90
        0
176
     0
 90
        0
176
     0
290
     0
176
     0
 90
        1
176
     0
 40
0.0
176
     0
 90
        0
176
     0
290
     0
176
     1
290
     1
176
     1
290
     1
176
     1
290
     0
176
     1
290
     0
176
     1
290
     0
176
     1
290
     0
176
     1
290
     0
176
     1
290
     0
176
     1
 90
       50
176
     1
 40
0.0
176
     1
 40
1.0
176
     1
 90
        0
176
     1
 62
    18
420
        0
176
     1
 90
       50
176
     1
 90
        3
176
     1
 62
     5
420
      255
176
     1
290
     0
176
     1
 90
       50
176
     1
 90
       50
176
     1
 90
       50
176
     1
290
     0
176
     1
 90
       50
176
     1
 62
   256
176
     0
 40
1.0
176
     0
 90
        2
176
     1
  1
strokes_ogs.tif
176
     1
290
     0
176
     1
 40
1.0
176
     1
 40
1.0
176
     1
  0
VISUALSTYLE
  5
F0
102
{ACAD_REACTORS
330
E6
102
}
330
E6
100
AcDbVisualStyle
  2
Realistic
 70
     8
177
     3
291
     0
 70
    58
 90
        2
176
     1
 90
        3
176
     1
 90
        0
176
     1
 90
        2
176
     1
 40
0.6
176
     1
 40
30.0
176
     1
 62
     7
420
 16777215
176
     1
 90
        0
176
     1
 90
        0
176
     1
 62
     7
176
     1
 62
   257
176
     1
 90
        1
176
     1
 90
        1
176
     1
 40
1.0
176
     1
 90
        8
176
     1
 62
   257
176
     1
 40
1.0
176
     1
 90
        1
176
     1
 90
        6
176
     1
 90
        2
176
     1
 62
     7
176
     1
 90
        3
176
     1
 90
        0
176
     1
 90
        0
176
     1
290
     0
176
     1
 90
       13
176
     1
 40
0.0
176
     1
 90
        0
176
     1
290
     0
176
     1
290
     1
176
     1
290
     1
176
     1
290
     0
176
     1
290
     0
176
     1
290
     0
176
     1
290
     0
176
     1
290
     0
176
     1
290
     0
176
     1
 90
       50
176
     1
 40
0.0
176
     1
 40
1.0
176
     1
 90
        0
176
     1
 62
    18
420
        0
176
     1
 90
       50
176
     1
 90
        3
176
     1
 62
     5
420
      255
176
     1
290
     0
176
     1
 90
       50
176
     1
 90
       50
176
     1
 90
       50
176
     1
290
     0
176
     1
 90
       50
176
     1
 62
   256
176
     0
 40
1.0
176
     0
 90
        2
176
     1
  1
strokes_ogs.tif
176
     1
290
     0
176
     1
 40
1.0
176
     1
 40
1.0
176
     1
  0
VISUALSTYLE
  5
1EA
102
{ACAD_REACTORS
330
E6
102
}
330
E6
100
AcDbVisualStyle
  2
Shaded
 70
    27
177
     3
291
     0
 70
    58
 90
        2
176
     1
 90
        2
176
     1
 90
        1
176
     1
 90
        2
176
     1
 40
0.6
176
     1
 40
30.0
176
     1
 62
     7
420
 16777215
176
     1
 90
        0
176
     1
 90
        4
176
     1
 62
     7
176
     1
 62
   257
176
     1
 90
        1
176
     1
 90
        1
176
     1
 40
1.0
176
     1
 90
        8
176
     1
 62
   257
176
     1
 40
1.0
176
     1
 90
        1
176
     1
 90
        6
176
     1
 90
        2
176
     1
 62
     8
420
  7895160
176
     1
 90
        3
176
     1
 90
        0
176
     1
 90
        0
176
     1
290
     0
176
     1
 90
        5
176
     1
 40
0.0
176
     1
 90
        0
176
     1
290
     0
176
     1
290
     1
176
     1
290
     1
176
     1
290
     0
176
     1
290
     0
176
     1
290
     0
176
     1
290
     0
176
     1
290
     0
176
     1
290
     0
176
     1
 90
       50
176
     1
 40
0.0
176
     1
 40
1.0
176
     1
 90
        0
176
     1
 62
    18
420
        0
176
     1
 90
       50
176
     1
 90
        3
176
     1
 62
     5
420
      255
176
     1
290
     0
176
     1
 90
       50
176
     1
 90
       50
176
     1
 90
       50
176
     1
290
     0
176
     1
 90
       50
176
     1
 62
   256
176
     0
 40
1.0
176
     0
 90
        2
176
     1
  1
strokes_ogs.tif
176
     1
290
     0
176
     1
 40
1.0
176
     1
 40
1.0
176
     1
  0
VISUALSTYLE
  5
1E9
102
{ACAD_REACTORS
330
E6
102
}
330
E6
100
AcDbVisualStyle
  2
Shaded with edges
 70
    26
177
     3
291
     0
 70
    58
 90
        2
176
     1
 90
        2
176
     1
 90
        1
176
     1
 90
        2
176
     1
 40
0.6
176
     1
 40
30.0
176
     1
 62
     7
420
 16777215
176
     1
 90
        1
176
     1
 90
       10
176
     1
 62
     7
176
     1
 62
   257
176
     1
 90
        2
176
     1
 90
        1
176
     1
 40
1.0
176
     1
 90
        8
176
     1
 62
   257
176
     1
 40
1.0
176
     1
 90
        1
176
     1
 90
        6
176
     1
 90
        2
176
     1
 62
     7
176
     1
 90
        3
176
     1
 90
        0
176
     1
 90
        0
176
     1
290
     0
176
     1
 90
        5
176
     1
 40
0.0
176
     1
 90
        0
176
     1
290
     0
176
     1
290
     1
176
     1
290
     1
176
     1
290
     0
176
     1
290
     0
176
     1
290
     0
176
     1
290
     0
176
     1
290
     0
176
     1
290
     0
176
     1
 90
       50
176
     1
 40
0.0
176
     1
 40
1.0
176
     1
 90
        0
176
     1
 62
    18
420
        0
176
     1
 90
       50
176
     1
 90
        3
176
     1
 62
     5
420
      255
176
     1
290
     0
176
     1
 90
       50
176
     1
 90
       50
176
     1
 90
       50
176
     1
290
     0
176
     1
 90
       50
176
     1
 62
   256
176
     0
 40
1.0
176
     0
 90
        2
176
     1
  1
strokes_ogs.tif
176
     1
290
     0
176
     1
 40
1.0
176
     1
 40
1.0
176
     1
  0
VISUALSTYLE
  5
1E6
102
{ACAD_REACTORS
330
E6
102
}
330
E6
100
AcDbVisualStyle
  2
Shades of Gray
 70
    23
177
     3
291
     0
 70
    58
 90
        2
176
     1
 90
        2
176
     1
 90
        3
176
     1
 90
        0
176
     1
 40
0.6
176
     1
 40
30.0
176
     1
 62
     7
420
 16777215
176
     1
 90
        2
176
     1
 90
        2
176
     1
 62
     7
176
     1
 62
     7
176
     1
 90
        1
176
     1
 90
        1
176
     1
 40
40.0
176
     1
 90
        8
176
     1
 62
     7
176
     1
 40
1.0
176
     1
 90
        1
176
     1
 90
        6
176
     1
 90
        2
176
     1
 62
     7
176
     1
 90
        3
176
     1
 90
        0
176
     1
 90
        0
176
     1
290
     0
176
     1
 90
        1
176
     1
 40
0.0
176
     1
 90
        0
176
     1
290
     0
176
     1
290
     1
176
     1
290
     1
176
     1
290
     0
176
     1
290
     0
176
     1
290
     0
176
     1
290
     0
176
     1
290
     0
176
     1
290
     0
176
     1
 90
       50
176
     1
 40
0.0
176
     1
 40
1.0
176
     1
 90
        0
176
     1
 62
    18
420
        0
176
     1
 90
       50
176
     1
 90
        3
176
     1
 62
     5
420
      255
176
     1
290
     0
176
     1
 90
       50
176
     1
 90
       50
176
     1
 90
       50
176
     1
290
     0
176
     1
 90
       50
176
     1
 62
   256
176
     0
 40
1.0
176
     0
 90
        2
176
     1
  1
strokes_ogs.tif
176
     1
290
     0
176
     1
 40
1.0
176
     1
 40
1.0
176
     1
  0
VISUALSTYLE
  5
1E7
102
{ACAD_REACTORS
330
E6
102
}
330
E6
100
AcDbVisualStyle
  2
Sketchy
 70
    24
177
     3
291
     0
 70
    58
 90
        1
176
     1
 90
        2
176
     1
 90
        2
176
     1
 90
        0
176
     1
 40
0.6
176
     1
 40
30.0
176
     1
 62
     7
420
 16777215
176
     1
 90
        2
176
     1
 90
        2
176
     1
 62
     7
176
     1
 62
     7
176
     1
 90
        1
176
     1
 90
        1
176
     1
 40
40.0
176
     1
 90
       11
176
     1
 62
     7
176
     1
 40
1.0
176
     1
 90
        1
176
     1
 90
        6
176
     1
 90
        2
176
     1
 62
     7
176
     1
 90
        6
176
     1
 90
        0
176
     1
 90
        0
176
     1
290
     0
176
     1
 90
        1
176
     1
 40
0.0
176
     1
 90
        0
176
     1
290
     0
176
     1
290
     1
176
     1
290
     1
176
     1
290
     0
176
     1
290
     0
176
     1
290
     0
176
     1
290
     0
176
     1
290
     0
176
     1
290
     0
176
     1
 90
       50
176
     1
 40
0.0
176
     1
 40
1.0
176
     1
 90
        0
176
     1
 62
    18
420
        0
176
     1
 90
       50
176
     1
 90
        3
176
     1
 62
     5
420
      255
176
     1
290
     0
176
     1
 90
       50
176
     1
 90
       50
176
     1
 90
       50
176
     1
290
     0
176
     1
 90
       50
176
     1
 62
   256
176
     0
 40
1.0
176
     0
 90
        2
176
     1
  1
strokes_ogs.tif
176
     1
290
     0
176
     1
 40
1.0
176
     1
 40
1.0
176
     1
  0
VISUALSTYLE
  5
F3
102
{ACAD_REACTORS
330
E6
102
}
330
E6
100
AcDbVisualStyle
  2
Thicken
 70
    13
177
     3
291
     1
 70
    58
 90
        2
176
     1
 90
        2
176
     1
 90
        1
176
     1
 90
        0
176
     1
 40
0.6
176
     1
 40
30.0
176
     1
 62
     7
420
 16777215
176
     1
 90
        1
176
     1
 90
        4
176
     1
 62
     7
176
     1
 62
   257
176
     1
 90
        1
176
     1
 90
        1
176
     1
 40
1.0
176
     1
 90
       12
176
     1
 62
     7
176
     1
 40
1.0
176
     1
 90
        1
176
     1
 90
        6
176
     1
 90
        2
176
     1
 62
     7
176
     1
 90
        5
176
     1
 90
        0
176
     1
 90
        0
176
     1
290
     0
176
     1
 90
        1
176
     1
 40
0.0
176
     1
 90
        0
176
     1
290
     0
176
     1
290
     1
176
     1
290
     1
176
     1
290
     0
176
     1
290
     0
176
     1
290
     0
176
     1
290
     0
176
     1
290
     0
176
     1
290
     0
176
     1
 90
       50
176
     1
 40
0.0
176
     1
 40
1.0
176
     1
 90
        0
176
     1
 62
    18
420
        0
176
     1
 90
       50
176
     1
 90
        3
176
     1
 62
     5
420
      255
176
     1
290
     0
176
     1
 90
       50
176
     1
 90
       50
176
     1
 90
       50
176
     1
290
     0
176
     1
 90
       50
176
     1
 62
   256
176
     0
 40
1.0
176
     0
 90
        2
176
     1
  1
strokes_ogs.tif
176
     1
290
     0
176
     1
 40
1.0
176
     1
 40
1.0
176
     1
  0
VISUALSTYLE
  5
ED
102
{ACAD_REACTORS
330
E6
102
}
330
E6
100
AcDbVisualStyle
  2
Wireframe
 70
     5
177
     3
291
     0
 70
    58
 90
        0
176
     1
 90
        2
176
     1
 90
        0
176
     1
 90
        0
176
     1
 40
0.6
176
     1
 40
30.0
176
     1
 62
     7
420
 16777215
176
     1
 90
        1
176
     1
 90
        4
176
     1
 62
     7
176
     1
 62
   257
176
     1
 90
        1
176
     1
 90
        1
176
     1
 40
1.0
176
     1
 90
        0
176
     1
 62
   257
176
     1
 40
1.0
176
     1
 90
        1
176
     1
 90
        6
176
     1
 90
        2
176
     1
 62
     7
176
     1
 90
        3
176
     1
 90
        0
176
     1
 90
        0
176
     1
290
     0
176
     1
 90
        1
176
     1
 40
0.0
176
     1
 90
        0
176
     1
290
     0
176
     1
290
     1
176
     1
290
     1
176
     1
290
     0
176
     1
290
     0
176
     1
290
     0
176
     1
290
     0
176
     1
290
     0
176
     1
290
     0
176
     1
 90
       50
176
     1
 40
0.0
176
     1
 40
1.0
176
     1
 90
        0
176
     1
 62
    18
420
        0
176
     1
 90
       50
176
     1
 90
        3
176
     1
 62
     5
420
      255
176
     1
290
     0
176
     1
 90
       50
176
     1
 90
       50
176
     1
 90
       50
176
     1
290
     0
176
     1
 90
       50
176
     1
 62
   256
176
     0
 40
1.0
176
     0
 90
        2
176
     1
  1
strokes_ogs.tif
176
     1
290
     0
176
     1
 40
1.0
176
     1
 40
1.0
176
     1
  0
VISUALSTYLE
  5
1E8
102
{ACAD_REACTORS
330
E6
102
}
330
E6
100
AcDbVisualStyle
  2
X-Ray
 70
    25
177
     3
291
     0
 70
    58
 90
        2
176
     1
 90
        2
176
     1
 90
        1
176
     1
 90
        1
176
     1
 40
0.5
176
     1
 40
30.0
176
     1
 62
     7
420
 16777215
176
     1
 90
        1
176
     1
 90
        0
176
     1
 62
     7
176
     1
 62
   257
176
     1
 90
        1
176
     1
 90
        1
176
     1
 40
1.0
176
     1
 90
        8
176
     1
 62
     7
176
     1
 40
1.0
176
     1
 90
        1
176
     1
 90
        6
176
     1
 90
        2
176
     1
 62
     7
176
     1
 90
        3
176
     1
 90
        0
176
     1
 90
        0
176
     1
290
     0
176
     1
 90
       13
176
     1
 40
0.0
176
     1
 90
        0
176
     1
290
     0
176
     1
290
     1
176
     1
290
     1
176
     1
290
     0
176
     1
290
     0
176
     1
290
     0
176
     1
290
     0
176
     1
290
     0
176
     1
290
     0
176
     1
 90
       50
176
     1
 40
0.0
176
     1
 40
1.0
176
     1
 90
        0
176
     1
 62
    18
420
        0
176
     1
 90
       50
176
     1
 90
        3
176
     1
 62
     5
420
      255
176
     1
290
     0
176
     1
 90
       50
176
     1
 90
       50
176
     1
 90
       50
176
     1
290
     0
176
     1
 90
       50
176
     1
 62
   256
176
     0
 40
1.0
176
     0
 90
        2
176
     1
  1
strokes_ogs.tif
176
     1
290
     0
176
     1
 40
1.0
176
     1
 40
1.0
176
     1
  0
DICTIONARYVAR
  5
13D
102
{ACAD_REACTORS
330
67
102
}
330
67
100
DictionaryVariables
280
     0
  1
1:1
  0
DICTIONARYVAR
  5
13C
102
{ACAD_REACTORS
330
67
102
}
330
67
100
DictionaryVariables
280
     0
  1
STANDARD
  0
DICTIONARYVAR
  5
C5
102
{ACAD_REACTORS
330
67
102
}
330
67
100
DictionaryVariables
280
     0
  1
STANDARD
  0
DICTIONARYVAR
  5
21E
102
{ACAD_REACTORS
330
67
102
}
330
67
100
DictionaryVariables
280
     0
  1
Metric50
  0
DICTIONARYVAR
  5
21F
102
{ACAD_REACTORS
330
67
102
}
330
67
100
DictionaryVariables
280
     0
  1
Metric50
  0
DICTIONARYVAR
  5
68
102
{ACAD_REACTORS
330
67
102
}
330
67
100
DictionaryVariables
280
     0
  1
2
  0
DICTIONARYVAR
  5
DA8
102
{ACAD_REACTORS
330
67
102
}
330
67
100
DictionaryVariables
280
     0
  1
2
  0
DICTIONARYVAR
  5
6C
102
{ACAD_REACTORS
330
67
102
}
330
67
100
DictionaryVariables
280
     0
  1
1
  0
DICTIONARYVAR
  5
1A5
102
{ACAD_REACTORS
330
67
102
}
330
67
100
DictionaryVariables
280
     0
  1
0
  0
DICTIONARYVAR
  5
1A6
102
{ACAD_REACTORS
330
67
102
}
330
67
100
DictionaryVariables
280
     0
  1
0
  0
DICTIONARY
  5
22D
330
213
100
AcDbDictionary
280
     1
281
     1
  3
ACAD_XREC_ROUNDTRIP
360
1EF0
  0
DICTIONARY
  5
1FC
330
22
100
AcDbDictionary
280
     1
281
     1
  3
AcPublish_PlotSettingsOverride
360
DA7
  0
DICTIONARY
  5
1F0
330
E4
100
AcDbDictionary
280
     1
281
     1
  3
FBXASSET
360
1F1
  0
DICTIONARY
  5
1EE
330
E3
100
AcDbDictionary
280
     1
281
     1
  3
FBXASSET
360
1EF
  0
DICTIONARY
  5
16A
330
E5
100
AcDbDictionary
280
     1
281
     1
  3
BUMPTILE
360
16C
  3
DIFFUSETILE
360
16B
  3
FBXASSET
360
1F2
  3
OPACITYTILE
360
16D
  3
REFLECTIONTILE
360
16E
  0
DICTIONARY
  5
22B
330
211
100
AcDbDictionary
280
     1
281
     1
  3
ACAD_XREC_ROUNDTRIP
360
1EEF
  0
DICTIONARY
  5
159
330
98
100
AcDbDictionary
280
     1
281
     1
  3
ACAD_ROUNDTRIP_2008_TABLESTYLE_CELLSTYLEMAP
360
1EEE
  0
XRECORD
  5
1EF0
102
{ACAD_REACTORS
330
22D
102
}
330
22D
100
AcDbXrecord
280
     1
102
DISPLAYNAME
  1
Metric50
102
FLAGS
 90
        0
  0
PLOTSETTINGS
  5
DA7
102
{ACAD_REACTORS
330
1FC
102
}
330
1FC
100
AcDbPlotSettings
  1

  2
Kyocera TASKalfa 3050ci(J) KX
  4
ANSI_A_(8.50_x_11.00_Inches)
  6

 40
4.984749794006347
 41
5.111724853515625
 42
5.154083251953125
 43
4.9847412109375
 44
297.0106506347656
 45
419.9889831542968
 46
0.0
 47
0.0
 48
33316.24093491148
 49
28289.23237812787
140
34996.24093491148
141
29477.23237812787
142
1.0
143
1.0
 70
 11952
 72
     1
 73
     1
 74
     4
  7

 75
    16
147
1.0
 76
     0
 77
     2
 78
   300
148
-33316.24093491148
149
-28289.23237812787
1001
ACAD_PSEXT
1000
Kyocera TASKalfa 3050ci(J) KX
1000
Kyocera TASKalfa 3050ci(J) KX
1000
192.168.11.123
1000

1070
     0
  0
XRECORD
  5
1F1
102
{ACAD_REACTORS
330
1F0
102
}
330
1F0
100
AcDbXrecord
280
     1
 70
     1
 90
429727718
  1
F226E010-5D7B-4EF0-9E0F-00A2E58668EA
310
504B03040A0000080000C270623B3DEE336E79000000790000001B0000006175746F6465736B2D64657369676E2D7061636B6167652E786D6C3C3F786D6C2076657273696F6E3D22312E302220656E636F64696E673D227574662D3822203F3E3C666F726D6174733E3C666F726D61743E687474703A2F2F736368656D612E
310
6175746F6465736B2E636F6D2F64657369676E2D7061636B6167652F323030393C2F666F726D61743E3C2F666F726D6174733E504B0304140006080800C270623BD486FD9CA0000000F4000000130000005B436F6E74656E745F54797065735D2E786D6C7D8EC10E82300C865F65E91D8A1E8C310C0EEA1BF002731658846E
310
D98AC1B77784ABF1D8FE5FBFBF75BBCE937A534CCEB38643598122B6FEE978D0B0485F9C41B54DDD7D022595594E1A469170414C76A4D9A4D207E29CF43ECE46F218070CC6BECC4078ACAA135ACF422C856C0E68EA1BF5669944DDD7BCDE7B1F8E415D77AECB980613C2E4AC91FC167A2B244592486606FC29C8FD7F045B9A
310
EF7053A7E60B504B0304140006080800C270623B132FA9F8EA0000007C01000008000000636F72652E786D6C8D90DD6EC3200C855F05F976223169D2D18850ADDDF6047B010434436D200A30EDF147FA236D77BBB2757C3EDB3A62FF3D5DC8975DA20B7E00562110EB7530CE8F03E474A21CC85E8A2584F4CB06C4ABC90EB0
310
CA20C5B8843CDF251D7CB23E15D50763EFA28AD12620FA529A01A2FEB493AA544EC511CFD5ACF4598DB6628FAEC0393B436E479C29FBDCC9D905E486BFBF1D5ED8336D78D7D2961F90F2233FD2572C8316D9B6EB1A51AFB014C94D8FFB7AB12A5903B241DC51C628361FACED71DB63FB84BC4714F56AFF03E5D9FC13CACEA7
310
4D737FF7864590AC3C721D4851AF5994720DAAD43537F903504B0304140006080800C270623B55019EA25F0000007C00000007000000636E782E786D6C4DCB3B0E80201045D1AD90E915ED2CF8AC45050C11660C8261F98AB1B07AC9C97D42D718D865D3E909258CFD00CCE24AC6E326A164D74DC0B4128928FF326038472B
310
A13128B1252AC747C6BAB984FC68F0B87FE8960A5C09FE86CFB69FBA01504B0304140006080800C270623B0B97CEAB6F010000D40300000C0000006662782F636F72652E786D6CC553ED6E8320147D15C2DF05416B3BD720CDDA6D4FB017A04A1DA98241307DFC5D3F9AAE4BB774BFE60F25E7DCCB3DE7207C736A6AD42BD7
310
696B721C470C23650A5B6A53E538F803C930DA08EEACF55FCA3032B251391E602C78E56C6867A8B0C62BE30135B6543328BB4E798C8A1A1639EE8A0FD5C848060F15DD316A657194958AE20868A813BCF30E04A069C8F0C6E2B03F713AE18287A0CB99D5254CD307AD1C168BECED75FB1C3F92245BA624CDB68C64BB6C475E
310
1810298B57CB65C2E9D02CB8D7CD595DE194F4AAC42261EC89C43161C97B9CAED96ACDD20796AD19E37428BF6A0A6D796753D0C62F9259EED4D66111839091F8E61622F2A8933DE8A182D32144F88C095F070D8140C85EEEEBB38F2340BD2ABC752930A50D17AA9775503095456C7CD0CF0B4EA74E983A6E0EAE6FCE48EE9E
310
F1FB8E70D4D25460427A58EE831F74F249C31C5AAB1CE9FD0919EB1A59DF67E317877FA22EE26F4A2A6C6DDD7F29A2F301D1F9F7A0C37D149F504B0304140006080800C270623BD9317DDA7D0000009D0000000B0000006662782F636E782E786D6C4DCCD10AC2201886E15B91FFDC966B53037588D27D8CE686E4344CA3CB
310
6F8B1D74F4C1C3C72B86CF1AD0DBE5974F5102399D01B9784F938F8B845A66CC010D4AE494CADF0D501C572761675062C9A93E0F9ADC3CD650360D3E3E0E34BDE1DA901EDFAE96E18ED00E6BC65A6C29B78651DEB28B864689E657DA760FAB2F504B0304140006080800C270623B609261632A010000120200003100000066
310
62782F43354338414331352D463944372D343136342D413737322D4436384443373638323733412F636F72652E786D6C8D515B6EC32010BC0AE22B55850D0E7E24C24491A39EA0172086A42831583CAA1CBF503B52FB971F16CDCECC0E2C3B3CA63BF856CE6B6B7A480A0C8132A395DA5C7B18C30575101C3873D6863F3408
310
8C98540F330C39BB3A1BE7151AAD09CA84841A2BD50A0AEF558060BCA74B0FFDF8A52651881812C3DF8A598C3771550529523BF138F3C1A5006019924FC8877AE88E03A9D1C7EED4224A1A8A8E6D5BA153D39D86B6E9AA767B64E522E42C462D57B996298EBE68E55E35C962CE829E9EF147A7445012F20AE31D2204E1EA93
310
D03D6EF698BEE36E8F312B33FD9F28CEF24551D4266CAB35EE22F39013562E0DCEA48DE7FB338C7ACCD60590E76DBC1ADF20C705C635D951562EC4F4FCE4D8D0D5D107EBD2F76E6EE7C425F562DB50CECABCA1547ED7976ADE26FF01504B0304140006080800C270623BAB1CAE584E01000033030000300000006662782F43
310
354338414331352D463944372D343136342D413737322D4436384443373638323733412F636E782E786D6CD593CD6EC32010845F0571AD6CE3D48AD20813A9873E410FBD12D82434182C7EAAE6EDBB2424CD25871E7B41D6EC30B3FA84F9E67BB2E40B4234DE8DB46F1925E094D7C6ED479AD3AE5951B2113C789FEE6C9438
310
39C1488B4C05DF079FE72A69D8C96C13AAD6B8631503449F83828872B949AC57D26200B826A308D316B4064D6E46FCDA41C05550DC9E483A00797BFD207EFB092A45DE9514C1BBD22178396BD39D891265658C238DEA00936C654E5E433CB65A26D9F6EDB5EBC14EBF49A45CB856E66048291F6939A9A81BB5C8917738143C
310
A680F4AA299D66A042CEB3354A2684DC9D8D178FE0D9B8B41CAAD720F880EE7EF93C0C18769E099ECC04D5A102C8049A8A05632F4DDF376CF1DE0F6BB65CB3E189ADD68CF1AED805DF7A6FEB258C81E067A2BC4BE012153DEFCAF811BEEA23DA0464EDC3E90F2011406DBDD0B965FC673EDDF97D23AE807F81F801504B0304
310
140006080800C270623BCB23EE24670500003C100000340000006662782F43354338414331352D463944372D343136342D413737322D4436384443373638323733412F6F626A656374732E786D6CAD575B8F9B3818FD2B887DE69664A6332B866A72ABA26ADAAA51AB7D182932E030EC0046B69966F6D7EF31180224D3662F
310
7908D8D8DFF57CC79FFDF7873C335E2817292BEE4CCF764D8316118BD322B9332BB9B76E4CE37DE073C6646F99691424A777A69A36033FE1AC2AF5544CF7A4CAE468763DFFC310112DA869441911E2CE14D113CD894D2AC9622A9EED98486227FB83EDD9CDC2A1D88493F26924B4249C16129662BE8014A331CA1B0E5DD309
310
7C477D0F7CF5AF574DDF5EE5D4FE0CF5A78590A4884E948DC44CBDD97235B9BAB5AE66B3A935BB9E78D67C3D5F5ADEBBA9BBB85E2C6EEF57B7502C2487246D09A77B33F880D8F034F29DE65367B136FC9C49112B0A1AD5FEC3C3DA662D31A6252D62E431A502DA7A5EBBC3A1A762D3FB3C5563ADB23F7D9957FD1D3D41ADED
310
EDB36F290BFF840BE21254704115AA9AF868471BFCB9C7A8858C65FA5B2A8C9C48CA539219591A72C25FCD004BD592C01F8851E8E40AE1CA0333F08EF2FAB6A2347E8DDD7356EEAB2C53D034831AD93BE09F4A515B96FE45F9796DB009B9AAD242DE6887E46B49CDE0D677EAC9C0578FE9447F6C0269EC339220E570B3F93A
310
7274A16A6FB334838FEBF0B055F5785E79C95949B954F001B4DAC4B54F1525ADD6BB28736A039C19C4FC1894AF88FC2794EFD114E48DA787D961A6B5484E0AB1673C476E6CB7FE196EFB62756FA72FE0B3D1EAD335DDCCBF5AEC3B9DB143C2782B7F00974ACDCD7FCFDF30667DA4F6D217F82F2830C6A73A94DB8864A09E87
310
B4404214288D8C610A5CBE0F0F66B0015382D9B18B644117909317DF79C177FC37B2C156B5FADEB34042477C7B01F323967559C0B637C072C293B562EDDC5B31BFFA5F6AE67EB9FDB8ADF89E44F44113CB92EED32295383B8FE0ED1B3448C4C0A367FAFA83F1188E9E2661DB4F42AE5509445BC55C053E690F0B35386A1E28
310
88B02F618AF3FC5F6878484544B38C149455AD96EE185258ED4846F709A8C226A0D3C908C59CBEA4AA9318AC189885B33EE269A942D61D7A1D4FDB6FF8F26DF309A03483F9EB1C687D3EAE0A8F741FB18CF15DF8BA6B98D004F8B06788EEEF4378EB883A4A0A105F63B9A51C1DE25D9CEEF79500EF9E89E2F7CDA29FA98E48
310
4E5FDA026A35363539033BA3F608D7F06D75A221E004073B2B76298E7194E559E57DDD6305A296FB86FCB0CACB1DC95955C84BC2E4B6FEB4D677C2FB5D8CF84164F46406DBFA69CD41D9318D8FA91AA0401D41677C1AA4673D995CAF5CCFB5AE96EFE6D66CB576ADDB95BBB65CF77EB2BABAB9BEBE59DD7716D596047E7B42
310
F56B10D1C489E8573CD561FEB63996AD193C10299C0F4D413949F3FCB6B1D116FB0EF600E0DDC64D5E6634A785240ABE0FEA25FB4AD0550C6434F39B9C24F402299F3F6C473660E6827D5F54A9D11FA3BD7A76A16AE1AC10F954E56141D26CB4513B6E9745A2DD6E43D93D1B466F876AA4E3893E54B02C8D4138B191509653
310
09DAB980ED794E0510D3EFCA637D7BB860F74BD30F4A1266B4B5E489A025CE04500DB855911CCE1BBFA185535DD49D89C3CE7EC69F2E44D340AAEF4CF09B4C232AEC10C7A36A7C6AE18000BAB08E0401355224193AEB665337EE76A9D8807E70026AFDDD924BBA25EDD7807873529638B507B45ADBA61544FFC8F1D61C8348
310
BC8695EC7C394E74CED46A50598D53FA6E8016E259AB3EA0BE7EEE9667D76B0611B9E89EF4531034522D497852DF0B947DDAA4FBE51707AD80B1F96C9459952097974BB23805982B55E0401150A165964402AA8BDF1FBF7086BB686EAC5340E071C1F29C157A70AFEFB2C6F60937D3F811B440D5F5434C5CCF7BACBB7E7D11
310
D98544509BC4E219136DC1290F465803204F8E539D0247E560B47CB334F4813183D01AB4274D69730D37503CEAE6A84AA54F96E54F1B7FA75E0A3070B4ECC1DF504B0304140006080000C270623B000000000000000000000000350000006662782F43354338414331352D463944372D343136342D413737322D4436384443
310
373638323733412F76657274696365732E62696E504B0304140006080800C270623BF270F1330600000004000000360000006662782F43354338414331352D463944372D343136342D413737322D4436384443373638323733412F747269616E676C65732E62696E636660600000504B0304140006080000C270623B000000
310
000000000000000000370000006662782F43354338414331352D463944372D343136342D413737322D4436384443373638323733412F617474726962757465732E62696E504B0304140006080800C270623B08DA0BD19000000041010000360000006662782F43354338414331352D463944372D343136342D413737322D44
310
36384443373638323733412F6469726563746F72792E786D6C858F410AC3201045AF22B36F53E9A60B35CBEEBAE80D244E44489C6234F4F835464A48035D0DF398FF9F8AF63D0E6CC63039F212F8F9020C7D47C6792B21C5FE7403D62A1188E2E60C98D7234A5830286103A55745067B9D86B8A3CF9C7F90C11DE607FB1443
310
96D7B6A82D282E9A152AD114D5EF2CB866EEE831B8EEA07A7BB5A8D7D61A2BAAEB7FD5F70921FF497D00504B0304140006080800C270623B00848760FC000000A00100003B0000006662782F43354338414331352D463944372D343136342D413737322D4436384443373638323733412F7265736F75726365732F636F7265
310
2E786D6C8D504B6E833010BD0A9A6D65B009201719474DDA9EA017B0CC84580936F2A7EAF16B0295DA5D3733A3F7D13C3D71FC9AEFC527FA609C1D8095140AB4DA8DC64E03A478211C8AA314DEB9F84B068555330EB0C220C5E45D5A76483B1BD1C68C5A37E20EAA103042A1EFF91820E82BCEAA54296645B8958BD2373561
310
C9CA4C679D1421FA1CA0D89EAC13A4C7E092D71844B5B152A464C65D63C6FCD35C0C7A9007FEFE767A611DA979DB90869F28E1677E26AF34130D655DDBD6A25ACD524433FF64D41E55C411644DE933618CD0FA83353DED7ADA3C51DE532AAA55FEC79496F19FA6646C3CD47BDCCD1640B21CE4414851AD7DE5F52833EFB55B
310
F90D504B010214000A0000080000C270623B3DEE336E79000000790000001B00000000000000000000000000000000006175746F6465736B2D64657369676E2D7061636B6167652E786D6C504B01021400140006080800C270623BD486FD9CA0000000F40000001300000000000000000000000000B20000005B436F6E7465
310
6E745F54797065735D2E786D6C504B01021400140006080800C270623B132FA9F8EA0000007C010000080000000000000000000000000083010000636F72652E786D6C504B01021400140006080800C270623B55019EA25F0000007C000000070000000000000000000000000093020000636E782E786D6C504B0102140014
310
0006080800C270623B0B97CEAB6F010000D40300000C00000000000000000000000000170300006662782F636F72652E786D6C504B01021400140006080800C270623BD9317DDA7D0000009D0000000B00000000000000000000000000B00400006662782F636E782E786D6C504B01021400140006080800C270623B609261
310
632A010000120200003100000000000000000000000000560500006662782F43354338414331352D463944372D343136342D413737322D4436384443373638323733412F636F72652E786D6C504B01021400140006080800C270623BAB1CAE584E010000330300003000000000000000000000000000CF0600006662782F43
310
354338414331352D463944372D343136342D413737322D4436384443373638323733412F636E782E786D6C504B01021400140006080800C270623BCB23EE24670500003C10000034000000000000000000000000006B0800006662782F43354338414331352D463944372D343136342D413737322D44363844433736383237
310
33412F6F626A656374732E786D6C504B01021400140006080000C270623B0000000000000000000000003500000000000000000000000000240E00006662782F43354338414331352D463944372D343136342D413737322D4436384443373638323733412F76657274696365732E62696E504B01021400140006080800C270
310
623BF270F13306000000040000003600000000000000000000000000770E00006662782F43354338414331352D463944372D343136342D413737322D4436384443373638323733412F747269616E676C65732E62696E504B01021400140006080000C270623B00000000000000000000000037000000000000000000000000
310
00D10E00006662782F43354338414331352D463944372D343136342D413737322D4436384443373638323733412F617474726962757465732E62696E504B01021400140006080800C270623B08DA0BD190000000410100003600000000000000000000000000260F00006662782F43354338414331352D463944372D343136
310
342D413737322D4436384443373638323733412F6469726563746F72792E786D6C504B01021400140006080800C270623B00848760FC000000A00100003B000000000000000000000000000A1000006662782F43354338414331352D463944372D343136342D413737322D4436384443373638323733412F7265736F757263
310
65732F636F72652E786D6C504B0506000000000E000E00800400005F1100000000
  0
XRECORD
  5
1EF
102
{ACAD_REACTORS
330
1EE
102
}
330
1EE
100
AcDbXrecord
280
     1
 70
     1
 90
429727718
  1
E2304D28-6187-4406-84E4-1B0A0969D8AC
310
504B03040A0000080000C270623B3DEE336E79000000790000001B0000006175746F6465736B2D64657369676E2D7061636B6167652E786D6C3C3F786D6C2076657273696F6E3D22312E302220656E636F64696E673D227574662D3822203F3E3C666F726D6174733E3C666F726D61743E687474703A2F2F736368656D612E
310
6175746F6465736B2E636F6D2F64657369676E2D7061636B6167652F323030393C2F666F726D61743E3C2F666F726D6174733E504B0304140006080800C270623BD486FD9CA0000000F4000000130000005B436F6E74656E745F54797065735D2E786D6C7D8EC10E82300C865F65E91D8A1E8C310C0EEA1BF002731658846E
310
D98AC1B77784ABF1D8FE5FBFBF75BBCE937A534CCEB38643598122B6FEE978D0B0485F9C41B54DDD7D022595594E1A469170414C76A4D9A4D207E29CF43ECE46F218070CC6BECC4078ACAA135ACF422C856C0E68EA1BF5669944DDD7BCDE7B1F8E415D77AECB980613C2E4AC91FC167A2B244592486606FC29C8FD7F045B9A
310
EF7053A7E60B504B0304140006080800C270623B6C505844EA0000007C01000008000000636F72652E786D6C8D90416EC3201045AF82665B61834B1DC7C244B5EB1BF402088883128365A0EAF18B13476A775DCDE8CF7F33A3CF4FDFF30D7D993558EF3AA00501649CF2DABAA98314CFB80174127CF53EFEB2017272361D6C
310
32083EAD3E2DBBA4BC8BC6C5AC3AAFCD2ECA104C04A46EB9E920A88B99652153CC8E702D16A9AE7232057D76194EC96AF4386275DE67CFD6AC20081DC7633D50FCC1688F197BA3F8FD30F6781846D2B3C3D83475C5CB0D163CDAF9795FAD4646A34154841C31A598549F94B5A46E097B214D4B082F37FB1F282DFA9F50B22E
310
BE56FBBB0F2C80A0F991FB40F072CB22977B50B96EB9891F504B0304140006080800C270623B55019EA25F0000007C00000007000000636E782E786D6C4DCB3B0E80201045D1AD90E915ED2CF8AC45050C11660C8261F98AB1B07AC9C97D42D718D865D3E909258CFD00CCE24AC6E326A164D74DC0B4128928FF326038472B
310
A13128B1252AC747C6BAB984FC68F0B87FE8960A5C09FE86CFB69FBA01504B0304140006080800C270623B85AE40E170010000D40300000C0000006662782F636F72652E786D6CC553ED6E8320147D15C2DF4501E7FA15A4593BDF602F40913A53058360FAF8BB7E345D976EE97ECD1F4ACEB9977BCE41F8F6DCD4A8D7AEAB
310
ACC9308B2946DA285B54A6CC70F0C76885D1567067ADFF528691918DCEF00063C14B67433B43CA1AAF8D07D4D842CFA0EC3AED3152352C32DCA90FDDC858060F15DD296EA53AC952C72C061AEA04EFBC0301681A32BCB1381ECE9C4CB8E02154C5CC56054CAB8E9576585096E7EBC59E456F29DB4569FAC2A2D765BE8BF6FB
310
9CEED265BE5A2D124E8666C17DD55CD429A7A5D7051609A5EB88B18826EF2CDDD0C586A64F74B5A19493A1FCA629B4C5834DA132FE3999E54E6D1D160C848CC437B71091479DEC410F119C0C21C2674CF83668080442F6F2505F7C9C00EAB5F2D6A5C014365CA95ED641C3541AD3F1413F2F38993A61EAB839B8BE3B237978
310
C6EF3BC2514B538209E96179087ED0C9270D7368AD7651EFCFC858D7C8FA311BBF38FC1375157F5792B2B575FFA588CC0744E6DF830CF7517C02504B0304140006080800C270623BD959F09C7C0000009D0000000B0000006662782F636E782E786D6C4DCCD10A83201886E15B91FFDC4A2BF0400D0BBD8F581632D3E13476
310
F9ABD1C18E3E78F878F9F0D93D3A6C7ABB180490AA0164C3232E2E6C024A5E310334489E62CC7F374061DEAD808B41F22DC5F2BA69B1EB5C7C3ED5BBF0BCB11F29514A1BACD44471C74C8BC7C968CC28D13D316DC71A06B5E4F5AF74EE15965F504B0304140006080800C270623BD97BE6F829010000120200003100000066
310
62782F35423231414145462D414143322D343846332D424346452D3832314535314633343830382F636F72652E786D6C8D515B6EC32010BC0AE22B55850D0E8EDC081339517C825E8018E2A2C460F1A872FC42ED48ED5F7E58343B333BB0ECF098EEE05B39AFAD6921293004CA0C566A33B630862B6A203870E6AC0D7F6810
310
1831A916661872363A1BE7151AAC09CA84841A2BD50A0AEF558060B8A74B0BFDF0A52651881812C3DF8A590C3731AA8214A99D789CF9E05200B00CC927E4F5B1225D77EE51D79D2A449B7E8B8EA7FE8C9A8A9C6BD26F69831B562E42CE62D472956B99E2E8AB56EE55932CE62CE8E9197F704A042521AF30FE4084205C7D12
310
BAC7BB3DA6EFB8D963CCCA4CFF278AB37C5114B509DB6A8DBBC83CE484954B833369E3E5FE0CA31EB37501E4791BAF8637C87181714D680AB110D3F393E38EAE8E3E5897BE7773BB242EA917DB1DE5ACCC1B4AE5777DA9E66DF21F504B0304140006080800C270623BAB1CAE584E01000033030000300000006662782F3542
310
3231414145462D414143322D343846332D424346452D3832314535314633343830382F636E782E786D6CD593CD6EC32010845F0571AD6CE3D48AD20813A9873E410FBD12D82434182C7EAAE6EDBB2424CD25871E7B41D6EC30B3FA84F9E67BB2E40B4234DE8DB46F1925E094D7C6ED479AD3AE5951B2113C789FEE6C943839
310
C1488B4C05DF079FE72A69D8C96C13AAD6B8631503449F83828872B949AC57D26200B826A308D316B4064D6E46FCDA41C05550DC9E483A00797BFD207EFB092A45DE9514C1BBD22178396BD39D891265658C238DEA00936C654E5E433CB65A26D9F6EDB5EBC14EBF49A45CB856E66048291F6939A9A81BB5C8917738143CA6
310
80F4AA299D66A042CEB3354A2684DC9D8D178FE0D9B8B41CAAD720F880EE7EF93C0C18769E099ECC04D5A102C8049A8A05632F4DDF376CF1DE0F6BB65CB3E189ADD68CF1AED805DF7A6FEB258C81E067A2BC4BE012153DEFCAF811BEEA23DA0464EDC3E90F2011406DBDD0B965FC673EDDF97D23AE807F81F801504B030414
310
0006080800C270623B086A6785630500003C100000340000006662782F35423231414145462D414143322D343846332D424346452D3832314535314633343830382F6F626A656374732E786D6CAD575D739B3814FD2B0CFB0C189BA4CE0EA193D849C6D34DDBA9A79D7DC88C47804CD8006224913AFDF57B040203B65BEF87
310
1F0C12D2FD3CF7E8CA7FBFCB33E3957291B2E2DA74ED8969D02262715A24D76625B7D6DC34DE073E674CF696994641727A6DAA6933F013CEAA524FC5744BAA4C8E66EF6FFF3444440B6A1A514684B83645F44C7362934AB2988A173B2692D8C97667BB76B3702836E1A47C1E092D09A78584A5982F20C5688C7287C389E904
310
BEA3BE07BEFAD7AB66A75739B53F43FD69212429A20365233133D75BDE4D2FAEAC0BCF9B59DEE5D4B56EEF6F9796FB6E36595C2E1657377757502C2487246D09A75B3378406C781AF94EF3A9B3581B7ECCA48815058D6AFFE1616DB39618D3921631F29852016D3DAF27C3A1AB62D3FB3C5363ADB23F7D9E57FD1D3D41ADED
310
EDB36F290BFF820BE21C54704115AA9AF868471BFC4DF6510B19CBF4B75418399194A72433B234E484BF990196AA25813F10A3D0C915C2950766E0EEE5F56D4569FC1ABBC7ACDC5659A6A0690635B237C03F95A2B62CFD41F9716DB009B9AAD242CEB543F2ADA46670E53BF564E0ABC76CAA3F368134B619499072B8D97C1D
310
39BA50B5B75A9AC187FB70B756F5785C79C95949B954F001B4DAC4B54F1525ADD63D2B736A039C19C47C1F942F88FC4794EFDE14E48DA73B6FE7692D9293426C19CF911B7B52FF8C49FB62756F872FE0B3D1EAC335DDCCBF5AEC3B9DB143C238953F804BA566FEDFF3378C591FA9BDF405FE2B0A8CF1990EE53A2219A8E731
310
2D9010054A23639802976FC39D19ACC0946076EC2259D005E4E0C5775EF11DFF8D6CB055ADBEF72C90D011DF9EC1FC88655D16B0ED04580E78B256AC9D3B15F38BFFA5666E96EB0FEB8A6F49441F35B12CE9362D5289B3730FDEBE4183440C3C7AA16FDF198FE1E86112D6FD24E45A9540B455CC55E093F6B05083BDE68182
310
08FB12A638CFFF8586C7544434CB484159D56AE98E2185D58E64749F802A6C023A9B8E50CCE96BAA3A89C18A815938EB239E962A64DDA1D7F1B47DC297AFAB8F00A519DCBEFD41DEFA8419EEE93E6219E39BF06DD330A109F061CF10DDDF86F0D61175941420BEC6724B393AC49B38DD6E2B01DE3D12C56FAB453F531D911C
310
BEB405D46A6C6AD2033BA3F608D7F06D75A221E004073B2B36298E7194E551E57DDD6305A2967B427E58E5E586E4AC2AE439619AB4FEB4D677C2FB5D8CF84E64F46C06EBFA69DD82B2631A9F48A83A828EF83448CFDD7436F196D3B975E9CEDF599E37B9B4E6DE9D67B9B7939BC9D5E5D5727E83F00F2BA03DA1FA358868E2
310
44F42B9EEA307F5DEDCBD60C1E8914CE4353504ED23CBFAE6CB4C5BE833D0078B771959719CD69218982EFA37AC9BE1074150319CDFC2A27093D43CAA787F5C806CC9CB1EFB32A35FA7DB457CF2E542D1C15229FAB3C2C489A8D366AC7EDB248B4DB6D28BB67C3E8ED508D743CD1870A96A53108273612CA722A413B67B03D
310
CFA90062FA5D79AC6F0F67EC7E6DFA4149C28CB6963C13B4C49900AA413A552487F3C66F68E15417756DE2B0B35FF0A70BD13490EA6B13FC26D3880A3BC4F1A81A9F5A3820802EAC2341809E144986CEBAD9D48DBB5D2A36A01F9C805A7FB7E49C6E49FB3520DE9C94254EED01ADD6B66905D13F72BC35C72012AF61253B5F
310
F6139D33B59A005C0377BA075A8817AD7A87FAFAB95BAE5DAF1944E4AC7BD24F41D048B524E1497D2F5041D726DD2C3F3B68058CD527A3CCAA04B93C5F92C529C05CA902078A800A2DB32412505DFCFEF49933DC4573E33E05049E162CCF59A10737FA2E6BAC9F71338D9F400B545D3FC474E2BA4F75D7AF2F229B90086A93
310
58BC60A22D38E5C1086B00E4C171AAAF678ECAC168F96A69E803C383D01AB4074D69730D37503CEAE6A84AA54F96E54F1B7FA75E0A1470B4ECC1DF504B0304140006080000C270623B000000000000000000000000350000006662782F35423231414145462D414143322D343846332D424346452D38323145353146333438
310
30382F76657274696365732E62696E504B0304140006080800C270623BF270F1330600000004000000360000006662782F35423231414145462D414143322D343846332D424346452D3832314535314633343830382F747269616E676C65732E62696E636660600000504B0304140006080000C270623B0000000000000000
310
00000000370000006662782F35423231414145462D414143322D343846332D424346452D3832314535314633343830382F617474726962757465732E62696E504B0304140006080800C270623B08DA0BD19000000041010000360000006662782F35423231414145462D414143322D343846332D424346452D383231453531
310
4633343830382F6469726563746F72792E786D6C858F410AC3201045AF22B36F53E9A60B35CBEEBAE80D244E44489C6234F4F835464A48035D0DF398FF9F8AF63D0E6CC63039F212F8F9020C7D47C6792B21C5FE7403D62A1188E2E60C98D7234A5830286103A55745067B9D86B8A3CF9C7F90C11DE607FB144396D7B6A82D
310
282E9A152AD114D5EF2CB866EEE831B8EEA07A7BB5A8D7D61A2BAAEB7FD5F70921FF497D00504B0304140006080800C270623B7FFB76DCFC000000A00100003B0000006662782F35423231414145462D414143322D343846332D424346452D3832314535314633343830382F7265736F75726365732F636F72652E786D6C8D
310
504B6E833010BD0A9A6D65B029250419478572835EC032136A25D8C89FAAC7AF09546A77DDCC8CDE47F3F4F8E56BB9679FE8BCB6A6039653C8D0283B69337710C39534905D0477D6865F32C88C5CB0830D06C16767E37A40CA9A802624D4D8090F507A8F0132754F47075E7DE02273194352F85BBE4A759333E62C4F74D209
310
EE834B01B2FDC9364138F4363A859E173B2B788C7A3A347A4A3FF555A30341D9389EEB8192B78AF5A4AA5E18793D8D3D198691F6D5696C9ABAE4C566163CE8E527A37228034E204A4ACF843142CB7756B5B46E69F5449B96525E6CF23FA6B84EFF34456DC27379C4DD6D1E044B411E84E0C5D6575A8F32D3DEBA15DF504B01
310
0214000A0000080000C270623B3DEE336E79000000790000001B00000000000000000000000000000000006175746F6465736B2D64657369676E2D7061636B6167652E786D6C504B01021400140006080800C270623BD486FD9CA0000000F40000001300000000000000000000000000B20000005B436F6E74656E745F5479
310
7065735D2E786D6C504B01021400140006080800C270623B6C505844EA0000007C010000080000000000000000000000000083010000636F72652E786D6C504B01021400140006080800C270623B55019EA25F0000007C000000070000000000000000000000000093020000636E782E786D6C504B01021400140006080800
310
C270623B85AE40E170010000D40300000C00000000000000000000000000170300006662782F636F72652E786D6C504B01021400140006080800C270623BD959F09C7C0000009D0000000B00000000000000000000000000B10400006662782F636E782E786D6C504B01021400140006080800C270623BD97BE6F829010000
310
120200003100000000000000000000000000560500006662782F35423231414145462D414143322D343846332D424346452D3832314535314633343830382F636F72652E786D6C504B01021400140006080800C270623BAB1CAE584E010000330300003000000000000000000000000000CE0600006662782F354232314141
310
45462D414143322D343846332D424346452D3832314535314633343830382F636E782E786D6C504B01021400140006080800C270623B086A6785630500003C10000034000000000000000000000000006A0800006662782F35423231414145462D414143322D343846332D424346452D3832314535314633343830382F6F62
310
6A656374732E786D6C504B01021400140006080000C270623B00000000000000000000000035000000000000000000000000001F0E00006662782F35423231414145462D414143322D343846332D424346452D3832314535314633343830382F76657274696365732E62696E504B01021400140006080800C270623BF270F1
310
3306000000040000003600000000000000000000000000720E00006662782F35423231414145462D414143322D343846332D424346452D3832314535314633343830382F747269616E676C65732E62696E504B01021400140006080000C270623B0000000000000000000000003700000000000000000000000000CC0E0000
310
6662782F35423231414145462D414143322D343846332D424346452D3832314535314633343830382F617474726962757465732E62696E504B01021400140006080800C270623B08DA0BD190000000410100003600000000000000000000000000210F00006662782F35423231414145462D414143322D343846332D424346
310
452D3832314535314633343830382F6469726563746F72792E786D6C504B01021400140006080800C270623B7FFB76DCFC000000A00100003B00000000000000000000000000051000006662782F35423231414145462D414143322D343846332D424346452D3832314535314633343830382F7265736F75726365732F636F
310
72652E786D6C504B0506000000000E000E00800400005A1100000000
  0
XRECORD
  5
16C
102
{ACAD_REACTORS
330
16A
102
}
330
16A
100
AcDbXrecord
280
     1
270
     1
271
     1
  0
XRECORD
  5
16B
102
{ACAD_REACTORS
330
16A
102
}
330
16A
100
AcDbXrecord
280
     1
270
     1
271
     1
  0
XRECORD
  5
1F2
102
{ACAD_REACTORS
330
16A
102
}
330
16A
100
AcDbXrecord
280
     1
 70
     0
 90
1673772943
  1
AEB1D1DA-B7DF-4CBA-830A-738AA2653737
310
504B03040A0000080000C270623B3DEE336E79000000790000001B0000006175746F6465736B2D64657369676E2D7061636B6167652E786D6C3C3F786D6C2076657273696F6E3D22312E302220656E636F64696E673D227574662D3822203F3E3C666F726D6174733E3C666F726D61743E687474703A2F2F736368656D612E
310
6175746F6465736B2E636F6D2F64657369676E2D7061636B6167652F323030393C2F666F726D61743E3C2F666F726D6174733E504B0304140006080800C270623BD486FD9CA0000000F4000000130000005B436F6E74656E745F54797065735D2E786D6C7D8EC10E82300C865F65E91D8A1E8C310C0EEA1BF002731658846E
310
D98AC1B77784ABF1D8FE5FBFBF75BBCE937A534CCEB38643598122B6FEE978D0B0485F9C41B54DDD7D022595594E1A469170414C76A4D9A4D207E29CF43ECE46F218070CC6BECC4078ACAA135ACF422C856C0E68EA1BF5669944DDD7BCDE7B1F8E415D77AECB980613C2E4AC91FC167A2B244592486606FC29C8FD7F045B9A
310
EF7053A7E60B504B0304140006080800C270623BC5983BD0EB0000007C01000008000000636F72652E786D6C8D904D6EC3201085AF82665B6103F1BF3091AB2427E80510262E4A0C9681AAC72F4E1CA9DD7535A337EF9B193D7EFC9EEFE84BAFDE38DB03CD08206D951B8D9D7A88E18A1B4047C157E7C22F1B202B67DDC326
310
83E0D3EAE2B24BCAD9A06D48AA75A3DE45E9BD0E80D43D353D78F5A96799C91892C3DFB245AA9B9C74465F5D826334237A1E3163DA67AE46AF20CABAA887E1FD82D9401A5C9CCA136ED8E58CEBF650B2BAA8CE557BE6F9060B1ECCFCBAAF562D831E4130425A4C2926EC83161DA93A52BC91A62384E79BFD0F1497F19F5034
310
361CD8FEEE13F320687AE431103CDFB248E51154AA5B6EE207504B0304140006080800C270623B55019EA25F0000007C00000007000000636E782E786D6C4DCB3B0E80201045D1AD90E915ED2CF8AC45050C11660C8261F98AB1B07AC9C97D42D718D865D3E909258CFD00CCE24AC6E326A164D74DC0B4128928FF32603847
310
2BA13128B1252AC747C6BAB984FC68F0B87FE8960A5C09FE86CFB69FBA01504B0304140006080800C270623BEE35DAD072010000D40300000C0000006662782F636F72652E786D6CC553ED6E8230147D95A67F1768411435A5C6457D82BD4085CA1AA125A5253EFE2E1FC6B938E37E8D1FD09C736FEF39A7946D2E75853A69
310
5B657486A3906224756E0AA5CB0C7B770A96186D38B3C6B86F65186951CB0CF730E6ACB4C63713941BEDA476806A53C809146D2B1D4679058B0CB7F9A7AC4528BC838AF61C36223F8B5286510834D471D63A0B02D038A47F637E3A5E181971CEBC57C5C4AA02A6A9939216F3799AA4DBEDFB2188B7741924BBF92E58C6877D
310
90AE66F3384D16FBC56ACF48DFCC9953F5555D6EA570B2C03CA67415445140E38F2859D3C59A266F74B9A69491BEFCAEC937C58B4D5E69378B27B9635B8B79044206E2875B88C8A15674A0877046FA10E133247C1F340402213B71ACAE3ECE00753277C626C014C6DFA84E545EC2541AD2E141BF2F18193B61EAB039B87E38
310
237E79C6F31DE1A8852EC18470B03C7AD7EB64A38629B446DAA07317A48DAD45F59A8D270EFF44DDC43F94949BCAD8FF5244A60322D3EF41FAFBC8BF00504B0304140006080800C270623BD65DADFA7E0000009D0000000B0000006662782F636E782E786D6C4DCCD10A83201886E15B91FFDC651665A0C64C771FB12C62A6
310
C3E9D8E5AF46073BFAE0E1E3E5FD6773E86DE36B0D5E40792180ACBF8769F58B809C66CC00F592C710D2DF0D901F372BE060907C89213F4F9AEC3C66977675AB7F9C488DBA1A4309AE06D6E25ADD4ADCB5BAC2A4D1BAA135EBD440A190BCF895F63DC2F20B504B0304140006080800C270623B16D345222A01000012020000
310
310000006662782F32454241454532302D334338372D344246312D393744332D3036444436323438394243322F636F72652E786D6C8D515B6EC32010BC0AE2AB55850DC4719C0813358F9EA01720405294182C1E558E5FA81DA9FDCB0F8B66676607966DEFC30D7C6B1F8CB33D241586405BE994B1971EA678461D045BCEBC
310
73F10F0D022B06DDC30243CE2EDEA57186A4B351DB9851EB949E4111828E10C85BBEF430C82F3D884AA49819E15A8D425EC54557A4CAEDCCE32C449F038069483921A7C7DDFBF148315AECBB156A761F04AD578705C2EDE1D0D2A65BEFF694D59390B3948C9AE546E538E66CB47FD6A488398B6678C4975E8BA855D663BC46
310
84204C3F49B3C1ED06376FB8DB60CCEA42FF274AA37A52948C8D0B3AC79D640172C2EAA9C19972E9747B84D1F7D1F908CABC97A0E52BE4B8C2784968CBEA89989F9F1DDB66760CD1F9FCBD2FD753E692E564DB369CD56543B9FCAE2FD7B24DFE03504B0304140006080800C270623BAB1CAE584E0100003303000030000000
310
6662782F32454241454532302D334338372D344246312D393744332D3036444436323438394243322F636E782E786D6CD593CD6EC32010845F0571AD6CE3D48AD20813A9873E410FBD12D82434182C7EAAE6EDBB2424CD25871E7B41D6EC30B3FA84F9E67BB2E40B4234DE8DB46F1925E094D7C6ED479AD3AE5951B2113C78
310
9FEE6C943839C1488B4C05DF079FE72A69D8C96C13AAD6B8631503449F83828872B949AC57D26200B826A308D316B4064D6E46FCDA41C05550DC9E483A00797BFD207EFB092A45DE9514C1BBD22178396BD39D891265658C238DEA00936C654E5E433CB65A26D9F6EDB5EBC14EBF49A45CB856E66048291F6939A9A81BB5C8
310
917738143CA680F4AA299D66A042CEB3354A2684DC9D8D178FE0D9B8B41CAAD720F880EE7EF93C0C18769E099ECC04D5A102C8049A8A05632F4DDF376CF1DE0F6BB65CB3E189ADD68CF1AED805DF7A6FEB258C81E067A2BC4BE012153DEFCAF811BEEA23DA0464EDC3E90F2011406DBDD0B965FC673EDDF97D23AE807F81F8
310
01504B0304140006080800C270623B849BF81A650500003B100000340000006662782F32454241454532302D334338372D344246312D393744332D3036444436323438394243322F6F626A656374732E786D6CAD575B739B3814FE2B0CFB0C98D869921D42C797A6E3E9A4CDD4D3CE3E64C62340266C406224913AFBEBF713
310
080CD869BD173F18248ECEF53B1705EFF7456EBD502133CE6E6DDF9DD81665314F3296DEDA95DA39D7B6F53E0C04E7AA47665B8C14F4D6D6DB7618A48257A5D94AE88E54B91AEDDE2DFEB0644C19B5AD382752DEDA327EA2057149A57842E5B39B1045DC74B7777DB7211CB24D05299F464C4B222853D014FB0C5CAC46297F
310
B89CD85E1878FA7B18E87F43357D9BCAABED19CACF985484C547C2466CA6FE6CF5E1E2F2C6B99CCDA6CEECDD85EF2CEE162BC7BF9A4E96EF96CB9BF9871B08964A8093D144D09D1D7E846F4416075EF3A9D3D8287E4AA5983346E3DA7E5858EB6C3826B4A42C411C332A21AD67F564B8F4B56F7A9FA77A6D44F6B7CFB3AA7F
310
A2C7A8D5BD7DF635E5D19F30419E830A21A94655E31F636883BFC9C16B11E7B9F99649AB208A8A8CE4569E458288573B04A9260983011B8D4EA111AE2DB043FFC0AFAF2B52E3D7D83DA5E5AECA730D4D3BAC91BD05FEA992B566D95F549C96069D10AB2A63EADA18A45E4B6A873781576F86817E4C2FCCC7C691D62E272942
310
0E339BAF2343973AF7D62B3BFC7417ED373A1F4F0B2F052FA9501A3E80561BB8F6A9BD64C4FA67454E1F8031039F1F9CF2159EFF8CF43DA882B8896C3FDBCF8C142508933B2E0AC4C69DD43F6BD2BE38DDDBF10BEAD988FA98A6DBF957C481D7293B2C186FC50FE0D2A1B9FEEFF11BFAAC8FD45EF8C2E00509C6C5D4B87213
310
931CA5E73E63088806A595736CA196EFA2BD1DAE512951D9718AE461E790A397C07BC177FC37BC51AD6AF1BD27434047F5F68CCA0F5FD66901DDDE00CB519DAC051BE3DEF2F9E5FF9233F3D5E6D3A6123B12D37B5358567497B14CA1771EC0DB576810888145CFF4F50717090C3D0EC2A61F84C28892F0B6F6B9767CDA360B
310
BD38481E0888712EE5BAE605BF90709FC998E639619457AD94AE0D69AC7645C6CC09C8C2C6A1D38B118A057DC9F42431A018A8855E1F8BACD42EEB9A5E57A7DD376CF9B6FE0C50823EE711C90F44D1A1DAC73CE7621BBD6E9B4268037B383204F7F721BA8D433DCD0580AFA1DC561CE3E16D92ED769544D93DE1C4EFEB653F
310
505D1D397E69F3A795D8A4E40CC519A94784416F2B13F38020E8EB9C6D33747164E549E17DD96301B2E6FB06FFA82ACA2D2978C5D4396E9AB4F6B4DA77CCFB438CFC4154FC64879BFAE92C50B1139A1C42350081EE40276C1A8467FE61E1AFFCD5DC595CADEE9CD9723177AEA793B97335BD9ECF2FDE5D4EAFA6579D46B526
310
61D036A87E0AC29B6888412532E3E66FEB43D6DAE13D51D2FBD8E4939736CF6F6B175371E0E10CF0DD1D5C17654E0BCA14D1E8BDD72FF95782A162C0A3D95F1724A56770F9F27133D2013B679C7BD099467F8CCE9ADDA5CE85934CD45355448C64F9E8A031DC2D596ACC6E5DD93D9B82DE2EF5CAF81363A8E47996A0DE2456
310
4A794115AACE19C55E14540231FDA13C319787334EBF34E3A022514E5B4D9E0826E25C02D5805B15ABE1BEF51B26383D44DDDAE875EE33FE4C22DA16427D6BA3BCA92CA6D28DD01DF5DC53330704308475351050232CCD31583787BA75774AFB06E5070DD0C8EF48CE19968C5D83BA5B90B244D31E54D55A372320FE4786B7
310
EA5844E135AA5467CB61A333A61683CC6A8C3257034C10CF46F41EF9F573B37CB7A61978E4AC6BD24F41D070751411697D2DD0FA1995E6AB070F9380B5FE629579952296E773720405982B9DE04011506178964401AACBDF1F1F04C755B4B0EE3240E071C98B8233B3989BABACB579C2C534794459A0FAF6212F26BEFF580F
310
FDE61EB28D88A42E49E43336DA84D3168CB006401E755313024FC76044BE5E59A661CCC0B406EDD14CDADCC22D248FBE38EA54E917CBF2A773BF5793020C02137BF837504B0304140006080000C270623B000000000000000000000000350000006662782F32454241454532302D334338372D344246312D393744332D3036
310
444436323438394243322F76657274696365732E62696E504B0304140006080800C270623BF270F1330600000004000000360000006662782F32454241454532302D334338372D344246312D393744332D3036444436323438394243322F747269616E676C65732E62696E636660600000504B0304140006080000C270623B
310
000000000000000000000000370000006662782F32454241454532302D334338372D344246312D393744332D3036444436323438394243322F617474726962757465732E62696E504B0304140006080800C270623B08DA0BD19000000041010000360000006662782F32454241454532302D334338372D344246312D393744
310
332D3036444436323438394243322F6469726563746F72792E786D6C858F410AC3201045AF22B36F53E9A60B35CBEEBAE80D244E44489C6234F4F835464A48035D0DF398FF9F8AF63D0E6CC63039F212F8F9020C7D47C6792B21C5FE7403D62A1188E2E60C98D7234A5830286103A55745067B9D86B8A3CF9C7F90C11DE607
310
FB144396D7B6A82D282E9A152AD114D5EF2CB866EEE831B8EEA07A7BB5A8D7D61A2BAAEB7FD5F70921FF497D00504B0304140006080800C270623BAD7266E1FD000000A00100003B0000006662782F32454241454532302D334338372D344246312D393744332D3036444436323438394243322F7265736F75726365732F63
310
6F72652E786D6C8D50596E833010BD0A9ADFCA6008BB8C23AAD013F4029699502BC1465EAA1EBF26A152FBD79F99D15B344F8F9DBFD67BF289D629A307C8530A096A6966A5970182BF9216923367D618FF4B0689162B0EB0C3C0D9624DD80E481AED51FB886A33E3010AE7D04322EFF118C0C90F5C452A828F0A774B37216F
310
62C1344F231D759C396F6380E4F9649FC02D3A13AC44C7B227CB59086A3E346A8E3FD555A1055E3565338EAF132946DA92F2525D485BBC4DA4E94E55D194F5547713CB7633675EAD3F19A545E171065E50DA913C27B478CFCB9ED63D2D5F68DB53CAB25DFEC714B6F99FA6A0B43F1547DCA7CD01CF639007C159B6F715D7A3
310
CCB8F76EF937504B010214000A0000080000C270623B3DEE336E79000000790000001B00000000000000000000000000000000006175746F6465736B2D64657369676E2D7061636B6167652E786D6C504B01021400140006080800C270623BD486FD9CA0000000F40000001300000000000000000000000000B20000005B43
310
6F6E74656E745F54797065735D2E786D6C504B01021400140006080800C270623BC5983BD0EB0000007C010000080000000000000000000000000083010000636F72652E786D6C504B01021400140006080800C270623B55019EA25F0000007C000000070000000000000000000000000094020000636E782E786D6C504B01
310
021400140006080800C270623BEE35DAD072010000D40300000C00000000000000000000000000180300006662782F636F72652E786D6C504B01021400140006080800C270623BD65DADFA7E0000009D0000000B00000000000000000000000000B40400006662782F636E782E786D6C504B01021400140006080800C27062
310
3B16D345222A0100001202000031000000000000000000000000005B0500006662782F32454241454532302D334338372D344246312D393744332D3036444436323438394243322F636F72652E786D6C504B01021400140006080800C270623BAB1CAE584E010000330300003000000000000000000000000000D406000066
310
62782F32454241454532302D334338372D344246312D393744332D3036444436323438394243322F636E782E786D6C504B01021400140006080800C270623B849BF81A650500003B1000003400000000000000000000000000700800006662782F32454241454532302D334338372D344246312D393744332D303644443632
310
3438394243322F6F626A656374732E786D6C504B01021400140006080000C270623B0000000000000000000000003500000000000000000000000000270E00006662782F32454241454532302D334338372D344246312D393744332D3036444436323438394243322F76657274696365732E62696E504B0102140014000608
310
0800C270623BF270F133060000000400000036000000000000000000000000007A0E00006662782F32454241454532302D334338372D344246312D393744332D3036444436323438394243322F747269616E676C65732E62696E504B01021400140006080000C270623B000000000000000000000000370000000000000000
310
0000000000D40E00006662782F32454241454532302D334338372D344246312D393744332D3036444436323438394243322F617474726962757465732E62696E504B01021400140006080800C270623B08DA0BD190000000410100003600000000000000000000000000290F00006662782F32454241454532302D33433837
310
2D344246312D393744332D3036444436323438394243322F6469726563746F72792E786D6C504B01021400140006080800C270623BAD7266E1FD000000A00100003B000000000000000000000000000D1000006662782F32454241454532302D334338372D344246312D393744332D3036444436323438394243322F726573
310
6F75726365732F636F72652E786D6C504B0506000000000E000E0080040000631100000000
  0
XRECORD
  5
16D
102
{ACAD_REACTORS
330
16A
102
}
330
16A
100
AcDbXrecord
280
     1
270
     1
271
     1
  0
XRECORD
  5
16E
102
{ACAD_REACTORS
330
16A
102
}
330
16A
100
AcDbXrecord
280
     1
270
     1
271
     1
  0
XRECORD
  5
1EEF
102
{ACAD_REACTORS
330
22B
102
}
330
22B
100
AcDbXrecord
280
     1
102
DISPLAYNAME
  1
Metric50
102
FLAGS
 90
        0
  0
CELLSTYLEMAP
  5
1EEE
102
{ACAD_REACTORS
330
159
102
}
330
159
100
AcDbCellStyleMap
 90
        3
300
CELLSTYLE
  1
TABLEFORMAT_BEGIN
 90
        5
170
     1
 91
        0
 92
    32768
 62
   257
 93
        1
300
CONTENTFORMAT
  1
CONTENTFORMAT_BEGIN
 90
        0
 91
        0
 92
      512
 93
        0
300

 40
0.0
140
1.0
 94
        5
 62
     0
340
11
144
6.0
309
CONTENTFORMAT_END
171
     1
301
MARGIN
  1
CELLMARGIN_BEGIN
 40
1.5
 40
1.5
 40
1.5
 40
1.5
 40
4.5
 40
4.5
309
CELLMARGIN_END
 94
        6
 95
        1
302
GRIDFORMAT
  1
GRIDFORMAT_BEGIN
 90
        0
 91
        1
 62
     0
 92
       -2
340
14
 93
        0
 40
1.125
309
GRIDFORMAT_END
 95
        2
302
GRIDFORMAT
  1
GRIDFORMAT_BEGIN
 90
        0
 91
        1
 62
     0
 92
       -2
340
14
 93
        0
 40
1.125
309
GRIDFORMAT_END
 95
        4
302
GRIDFORMAT
  1
GRIDFORMAT_BEGIN
 90
        0
 91
        1
 62
     0
 92
       -2
340
14
 93
        0
 40
1.125
309
GRIDFORMAT_END
 95
        8
302
GRIDFORMAT
  1
GRIDFORMAT_BEGIN
 90
        0
 91
        1
 62
     0
 92
       -2
340
14
 93
        0
 40
1.125
309
GRIDFORMAT_END
 95
       16
302
GRIDFORMAT
  1
GRIDFORMAT_BEGIN
 90
        0
 91
        1
 62
     0
 92
       -2
340
14
 93
        0
 40
1.125
309
GRIDFORMAT_END
 95
       32
302
GRIDFORMAT
  1
GRIDFORMAT_BEGIN
 90
        0
 91
        1
 62
     0
 92
       -2
340
14
 93
        0
 40
1.125
309
GRIDFORMAT_END
309
TABLEFORMAT_END
  1
CELLSTYLE_BEGIN
 90
        1
 91
        1
300
_TITLE
309
CELLSTYLE_END
300
CELLSTYLE
  1
TABLEFORMAT_BEGIN
 90
        5
170
     1
 91
        0
 92
        0
 62
   257
 93
        1
300
CONTENTFORMAT
  1
CONTENTFORMAT_BEGIN
 90
        0
 91
        0
 92
      512
 93
        0
300

 40
0.0
140
1.0
 94
        5
 62
     0
340
11
144
4.5
309
CONTENTFORMAT_END
171
     1
301
MARGIN
  1
CELLMARGIN_BEGIN
 40
1.5
 40
1.5
 40
1.5
 40
1.5
 40
4.5
 40
4.5
309
CELLMARGIN_END
 94
        6
 95
        1
302
GRIDFORMAT
  1
GRIDFORMAT_BEGIN
 90
        0
 91
        1
 62
     0
 92
       -2
340
14
 93
        0
 40
1.125
309
GRIDFORMAT_END
 95
        2
302
GRIDFORMAT
  1
GRIDFORMAT_BEGIN
 90
        0
 91
        1
 62
     0
 92
       -2
340
14
 93
        0
 40
1.125
309
GRIDFORMAT_END
 95
        4
302
GRIDFORMAT
  1
GRIDFORMAT_BEGIN
 90
        0
 91
        1
 62
     0
 92
       -2
340
14
 93
        0
 40
1.125
309
GRIDFORMAT_END
 95
        8
302
GRIDFORMAT
  1
GRIDFORMAT_BEGIN
 90
        0
 91
        1
 62
     0
 92
       -2
340
14
 93
        0
 40
1.125
309
GRIDFORMAT_END
 95
       16
302
GRIDFORMAT
  1
GRIDFORMAT_BEGIN
 90
        0
 91
        1
 62
     0
 92
       -2
340
14
 93
        0
 40
1.125
309
GRIDFORMAT_END
 95
       32
302
GRIDFORMAT
  1
GRIDFORMAT_BEGIN
 90
        0
 91
        1
 62
     0
 92
       -2
340
14
 93
        0
 40
1.125
309
GRIDFORMAT_END
309
TABLEFORMAT_END
  1
CELLSTYLE_BEGIN
 90
        2
 91
        1
300
_HEADER
309
CELLSTYLE_END
300
CELLSTYLE
  1
TABLEFORMAT_BEGIN
 90
        5
170
     1
 91
        0
 92
        0
 62
   257
 93
        1
300
CONTENTFORMAT
  1
CONTENTFORMAT_BEGIN
 90
        0
 91
        0
 92
      512
 93
        0
300

 40
0.0
140
1.0
 94
        2
 62
     0
340
11
144
4.5
309
CONTENTFORMAT_END
171
     1
301
MARGIN
  1
CELLMARGIN_BEGIN
 40
1.5
 40
1.5
 40
1.5
 40
1.5
 40
4.5
 40
4.5
309
CELLMARGIN_END
 94
        6
 95
        1
302
GRIDFORMAT
  1
GRIDFORMAT_BEGIN
 90
        0
 91
        1
 62
     0
 92
       -2
340
14
 93
        0
 40
1.125
309
GRIDFORMAT_END
 95
        2
302
GRIDFORMAT
  1
GRIDFORMAT_BEGIN
 90
        0
 91
        1
 62
     0
 92
       -2
340
14
 93
        0
 40
1.125
309
GRIDFORMAT_END
 95
        4
302
GRIDFORMAT
  1
GRIDFORMAT_BEGIN
 90
        0
 91
        1
 62
     0
 92
       -2
340
14
 93
        0
 40
1.125
309
GRIDFORMAT_END
 95
        8
302
GRIDFORMAT
  1
GRIDFORMAT_BEGIN
 90
        0
 91
        1
 62
     0
 92
       -2
340
14
 93
        0
 40
1.125
309
GRIDFORMAT_END
 95
       16
302
GRIDFORMAT
  1
GRIDFORMAT_BEGIN
 90
        0
 91
        1
 62
     0
 92
       -2
340
14
 93
        0
 40
1.125
309
GRIDFORMAT_END
 95
       32
302
GRIDFORMAT
  1
GRIDFORMAT_BEGIN
 90
        0
 91
        1
 62
     0
 92
       -2
340
14
 93
        0
 40
1.125
309
GRIDFORMAT_END
309
TABLEFORMAT_END
  1
CELLSTYLE_BEGIN
 90
        3
 91
        2
300
_DATA
309
CELLSTYLE_END
  0
ENDSEC
  0
SECTION
  2
ACDSDATA
 70
     2
 71
     8
  0
ACDSSCHEMA
 90
        0
  1
AcDb_Thumbnail_Schema
  2
AcDbDs::ID
280
    10
 91
        8
  2
Thumbnail_Data
280
    15
 91
        0
101
ACDSRECORD
 95
        0
 90
        1
  2
AcDbDs::TreatedAsObjectData
280
     1
291
     1
101
ACDSRECORD
 95
        0
 90
        2
  2
AcDbDs::Legacy
280
     1
291
     1
101
ACDSRECORD
  1
AcDbDs::ID
 90
        3
  2
AcDs:Indexable
280
     1
291
     1
101
ACDSRECORD
  1
AcDbDs::ID
 90
        4
  2
AcDbDs::HandleAttribute
280
     7
282
     1
  0
ACDSSCHEMA
 90
        1
  1
AcDbDs::TreatedAsObjectDataSchema
  2
AcDbDs::TreatedAsObjectData
280
     1
 91
        0
  0
ACDSSCHEMA
 90
        2
  1
AcDbDs::LegacySchema
  2
AcDbDs::Legacy
280
     1
 91
        0
  0
ACDSSCHEMA
 90
        3
  1
AcDbDs::IndexedPropertySchema
  2
AcDs:Indexable
280
     1
 91
        0
  0
ACDSSCHEMA
 90
        4
  1
AcDbDs::HandleAttributeSchema
  2
AcDbDs::HandleAttribute
280
     7
 91
        1
284
     1
  0
ACDSRECORD
 90
        0
  2
AcDbDs::ID
280
    10
320
22
  2
Thumbnail_Data
280
    15
 94
     3659
310
89504E470D0A1A0A0000000D49484452000001340000010008030000000AB47A1600000300504C5445212830000000C8C8C80000000000000000000000000000000000000000000000000000330000660000990000CC0000FF0033000033330033660033990033CC0033FF0066000066330066660066990066CC0066FF0099
310
000099330099660099990099CC0099FF00CC0000CC3300CC6600CC9900CCCC00CCFF00FF0000FF3300FF6600FF9900FFCC00FFFF3300003300333300663300993300CC3300FF3333003333333333663333993333CC3333FF3366003366333366663366993366CC3366FF3399003399333399663399993399CC3399FF33CC00
310
33CC3333CC6633CC9933CCCC33CCFF33FF0033FF3333FF6633FF9933FFCC33FFFF6600006600336600666600996600CC6600FF6633006633336633666633996633CC6633FF6666006666336666666666996666CC6666FF6699006699336699666699996699CC6699FF66CC0066CC3366CC6666CC9966CCCC66CCFF66FF0066
310
FF3366FF6666FF9966FFCC66FFFF9900009900339900669900999900CC9900FF9933009933339933669933999933CC9933FF9966009966339966669966999966CC9966FF9999009999339999669999999999CC9999FF99CC0099CC3399CC6699CC9999CCCC99CCFF99FF0099FF3399FF6699FF9999FFCC99FFFFCC0000CC00
310
33CC0066CC0099CC00CCCC00FFCC3300CC3333CC3366CC3399CC33CCCC33FFCC6600CC6633CC6666CC6699CC66CCCC66FFCC9900CC9933CC9966CC9999CC99CCCC99FFCCCC00CCCC33CCCC66CCCC99CCCCCCCCCCFFCCFF00CCFF33CCFF66CCFF99CCFFCCCCFFFFFF0000FF0033FF0066FF0099FF00CCFF00FFFF3300FF3333
310
FF3366FF3399FF33CCFF33FFFF6600FF6633FF6666FF6699FF66CCFF66FFFF9900FF9933FF9966FF9999FF99CCFF99FFFFCC00FFCC33FFCC66FFCC99FFCCCCFFCCFFFFFF00FFFF33FFFF66FFFF99FFFFCCFFFFFF0000000D0D0D1A1A1A2828283535354343435050505D5D5D6B6B6B787878868686939393A1A1A1AEAEAEBB
310
BBBBC9C9C9D6D6D6E4E4E4F1F1F1FFFFFF000000000000000000000000000000000000000000000000000000000000B21171F6000009DC4944415478DAED9D5B62F23A0C84B59C79C9FE37C336782FE42A39BEC510472933E73F2DA5A4311FB22C29B623E24A8FF71700F34F8F03476251FC8FA6CED77E464FD05EED7FFF37
310
BD0514F41568EAB0DB425BFEF58326EBE7745F68688256E8F3FF1F5AC35B7824CCAC0A9AE0F6D0944FEB040D2D6774357AE293D1B3055AE319FD40EBADA6333AB4348DB0F5C883715AD319FF41708B1F0F6E75A8893A7D046D1CADEF1EDCBEDB8F26688D71DA46ED7FC469072DAD35B8BD3F346989CF7F1D5A53FAFC19B47B
310
FBB4C7946FF68DD38E9E51288AA2288AA2288AA2288AA2288AA2288AA228EABF293389804A315BBE10DC7143A3B51DB3B4191A7EC23EFCCAB127F2ED27D92C422334B68ED0088DCD22344263EB088DD0BC360B6C11A1111AA1FD06B4E722423B002DF81EC119D53F85A6DE5A1BB4DC5FFF04DABB616EA16DC6829CCD0CCF4E
310
C266A5AEA10D6FBD9BFBFA367EC622AFEFE3E3D79761FCE1FD456B585E324C3F4CDFA627876118D49F580F1E86E525E3AB9667C7978DF6FE6EC60BDA78BC6B689099D4F8190F93DD0DB2BC7385206436FF6A7E38BFFBE580E5E1FCCB85DA7ACCF4ECFCD2F9AC32CCAD189BE317DA6855D327ADA0AD66B2BC276369885ADA50
310
6369FA571AF07C5A030DD263B06EA316F169C6A2C20789016348FE90783E7C1CB4424668B8F740F0EC3F10E0FD3F5C425B2C0BF990036B0081789C862FC769CBF1FEA8413FCA41D370CFADE2207C08B7D00AD37D50A0F3C55EB43F95B32E6A0C2D03ADC8EC9CC40E2ED329DBAA54D3504A0771CE07E9931AAA9C07A427B344
310
C2EEA78B56414301D0B7DF0E8EF885EEC496E95FDB83D84B90F829FECCD7A1A9133898B0B67A7E24A1ADDB77AD711C703A33DB3DDD41C34A0EF1810026780310EB3B38179A7A028500BC0BB3756F68C4A141764D8E98C199D0CC19500AC07BB9B482A5C10E16114BC3C996A6CF0064C32274EA9E459F26A14F93EE3E4D2A7C
310
1ABA452495A367EAA7F833978C9E80F41B2390F87E24B23D195A90E8E5BA662F6F873234E3ED82B82D177EB677DDA3D07AAF3A38006DDE3776D949751974B711363EB42E4798C4017B2BD1BDF0A0A1E144ABAFE89F1968339C059AD8FD8E1788B1680162A159830076234E2DB405F42E65811768B3356D71DDB6DDEFF2DC3E
310
7A9F5E016CF6B4AB402DF65884966A1B76E5ADD37B29CAD0046AE4DFD6D9616DDF8A02B1C85787A433C3C0F9E4A0A1545D0912BD2E4B272BA189ED8F269D5833074B0D50BF4F1788379786C3F5B4D019A662F473FB27D27D60CB6236538328F383B535B50BB47A73404525A916DAE2C02041E901D2D3D4FC2D57CC469097AD
310
7744B908599EFB745AE5163527C07905972F41AB2E77A733DAEF4353614FFF48ED0468CA21A682DB70704032F8CE5B5AC75A1B2AEA892DFD53DD864172C1ED8E6824CC284303BAD6DA4E82A6738542701BD69C70CCD0D694C531B4DAFEB96E38A16A6291E07646868FA0F5DF26005F8016BFB08748908E7DC12CE9D3EA98A9
310
8B1DBDA1E5F38FE3FD134186D012DC560EBE57401B278B4EC2E04198674B8ED3B752416F2CA0ED09EDFD6FA8B7B4D3E35B8C134E97E9A3C940455BDAEBB543D7F97FEFB6798436CD6B4DD53976D046B3EC0D2D1FE7945791E01C68AA46E906DACB193CDFFF065F3B0CBDFCDA736CD873095B3C419BE6EB1FB3B4B3FBE76669
310
6AC22A72D09609BFCEA0F5EC9F51685282363C7B2ED578437318728C1FE636EF1CC1045C1B0C4FE345574B7B8E9696AF12F4B634D9A6C4073E0DC10CB011DAB4CCA56BF7549175BB53FB5A93B16BDB7A89269A274C9636485F684FA72B56B6C51BC88F9E2FFFD2179A5AC70A6416B556ACF7C5779A03E36FF74972CCA775EE
310
9EE2DAD222B9E7DEA73DBB871C9A1ED26B9996063DF7C47396767C79D4B274315FF90BCC716AFA350B1D8B0BCA626FE7993BFEF9C556A47CDAB49A96D00E439BE2347FD052084EDB2DE11F404BAEDEBC041A6E01AD2ED0DB8F84674D57D8A9CFEE34E75612BFDA0A48715E0B1C35D70DB4D2F573428B944AAF5EE0733F68E2
310
199A57E1FAA564378426B4B4960E0B426BF072844651144551946F3DAA444E165A1226D93440F37F033942233442233442E3E8E90E1A2D8DD0088D3E8DB9272D8D22B473A0C140EBBA9FC7FDA0AD3B87AD23E5046D5BF37CAAB605FD50BBD0E9AD39D72B952E26611868EAAAF314727432B46D232AB39184791C6C49E7A97B
310
22EC9EA87BD31F6E6CB46702BD01A26C1B72AC1B735C0E4D750ADB3D2B0DED53686A7B4898BDE5564A6AE33038E99E0836BDD003410334F9EF99C46C69EBFE93D021C77E67C953FD5AD25E57B7A6460BB31DE9AF66043154A23674DD8D0E505B76FD6A701B37311D67ACBB080506D81F5B0EDABA276527685BE46346D1001B
310
22BBA65F052DD85AEC1DA749780781B37D9A04C1D9865361D5FBFFCA35E1C7167298846081D6980E84F751A9F82371FF6F5C17A28F2E86061BA741EC27FD917FAA3435ECE27EB5C594097545270B17851C6272BD0FBB670B341BFC6F77D1309E4EE239C315D0A0B7C29D9BF0D140B01D627D7AF61811D191FFE6E6777D5E6D
310
EC8D4BEE92B2F369A80B394C8F2EAE76ABB0B74820166C6506BD293FAEBC84D1040DB1601C01486368E51245C4C1DB0E9B1B0EEE9011E83B06186802732B06D38B0AB7EEB3C1AA7658D8BAE4E6DA2E2D14B56504514BC37E108E76D0FBA7F14DD0D0E6D3B263B135B3DEFB407F060DE7E59E40019A46269E8B4B8FA0067962
310
C25E6B6962F200B7D04C4DF9D42A47069A1A7E65CB2A5D435BAB305741BBDB4060EA7C20B45A9FA647C4EF41C321687A8934504851E5CA059B8F784270081A72F747AB81968A5EA42A37BBA072FBD13502532D8C258CA8B3B454C82790BAACF60E1941BC065413EAA62C0DD1EB8092FD4B9EA1A12A9DAA8496BCA36650464A
310
DF795305254E328248708B0A6889EED952B9DC2EAEAF993EECFD75AE1F7D1FBBEAD8114BB358513D42147ABA9A9110EDAF4EA04918731C841637AE6373606A06007191C60753AD622147FDC4A10FD3F9F05694BB22A4F8822692AEDCE240B7FA0DE9EEA92BB18733825F5A6C30C6AE98BEE2FD00689B00F311B4E026DF3097
310
2144EC75507F45C813EB69F94A5BBA0A6CABBA1E2CDA0734C086B7129B73E5A704FE4814257A43436E0E6A309FC307347B63EFFED06E397AEAD81657410BAE0AEFED4FBDC8BCF4524B33A67FF54C4849A5053B0F878B2D4DE0045A70B93EC8A1B0BBDE77A54F938B2D4DEC8C04339CAE5360F4E53D40AE9A6AA56B5A9741BB
310
5D46C045B2370C6E09ED67E2B4FD3D2F09AD00CDCED124B4EA904382E896D02AE3340966775385EEB9CE82A1A55542D30BEB09ED88A5D97C84D0981130B825344223348AD0088DD0088DD0286604B434AFD0B829E45168BE17F77AB5B4FD8503AA1E1A991DEC9EE260DFCA3B41939ADD6E082D80262284F6419CF6A00E8BC6
310
45517EF5A40E8B5643B17BB27B52144551144551144551144551144551144551144551D4ADF5075C49FB34FCF057340000000049454E44AE426082470DCDC502D05392161B3C9AA8B14546B13D2869844EA091BB99BD3F08213286F4D1B11CA087258DE48804E14EED1018DEBD67B3AE47BDE773D05E9711E824D91706B70A
310
ED67E2B4F09E970A6D079A1CA3A9D08A430E1B1729B4BA388DBCD1DD0A6D473DED281895B442687C62BD42AB913439994DA16946A0C1AD4253680A4DA1293485A6D0149A4253689A11A8A4F50A4DD784AC859619A4A3D0929216761C28B472685049AB534F6AB164EB17410B962A536805D028B5FEA8422B8AD3FEB4553795
310
343A729A0A4DA135813669AB6E2A69AA9EAA9EFDAAE7A8ADBAA97AAA4D6B044D954DD553D553D5F39BD45311A84D539BA6D0149A4253680A4DA1293485A6D0149A4253680A4DA1293485A6D0149A427B3FB47F942CD46428BCDB850000000049454E44AE426082
  0
ACDSRECORD
 90
        0
  2
AcDbDs::ID
280
    10
320
D3
  2
Thumbnail_Data
280
    15
 94
     1155
310
89504E470D0A1A0A0000000D4948445200000100000000B5080300000087DCD12600000300504C5445FFFFFF000000C8C8C80000000000000000000000000000000000000000000000000000330000660000990000CC0000FF0033000033330033660033990033CC0033FF0066000066330066660066990066CC0066FF0099
310
000099330099660099990099CC0099FF00CC0000CC3300CC6600CC9900CCCC00CCFF00FF0000FF3300FF6600FF9900FFCC00FFFF3300003300333300663300993300CC3300FF3333003333333333663333993333CC3333FF3366003366333366663366993366CC3366FF3399003399333399663399993399CC3399FF33CC00
310
33CC3333CC6633CC9933CCCC33CCFF33FF0033FF3333FF6633FF9933FFCC33FFFF6600006600336600666600996600CC6600FF6633006633336633666633996633CC6633FF6666006666336666666666996666CC6666FF6699006699336699666699996699CC6699FF66CC0066CC3366CC6666CC9966CCCC66CCFF66FF0066
310
FF3366FF6666FF9966FFCC66FFFF9900009900339900669900999900CC9900FF9933009933339933669933999933CC9933FF9966009966339966669966999966CC9966FF9999009999339999669999999999CC9999FF99CC0099CC3399CC6699CC9999CCCC99CCFF99FF0099FF3399FF6699FF9999FFCC99FFFFCC0000CC00
310
33CC0066CC0099CC00CCCC00FFCC3300CC3333CC3366CC3399CC33CCCC33FFCC6600CC6633CC6666CC6699CC66CCCC66FFCC9900CC9933CC9966CC9999CC99CCCC99FFCCCC00CCCC33CCCC66CCCC99CCCCCCCCCCFFCCFF00CCFF33CCFF66CCFF99CCFFCCCCFFFFFF0000FF0033FF0066FF0099FF00CCFF00FFFF3300FF3333
310
FF3366FF3399FF33CCFF33FFFF6600FF6633FF6666FF6699FF66CCFF66FFFF9900FF9933FF9966FF9999FF99CCFF99FFFFCC00FFCC33FFCC66FFCC99FFCCCCFFCCFFFFFF00FFFF33FFFF66FFFF99FFFFCCFFFFFF0000000D0D0D1A1A1A2828283535354343435050505D5D5D6B6B6B787878868686939393A1A1A1AEAEAEBB
310
BBBBC9C9C9D6D6D6E4E4E4F1F1F1FFFFFF000000000000000000000000000000000000000000000000000000000000B0E2D2350000013E4944415478DAEDDDB11184301443C1DF7F998A5D0483134A30A07540018FB1F6A26356F99935D547801D20C97EB43D9F009D6F3FAE8000AE8000020860040570050410800214A080
310
0D1040000A508002364000012840010AD8000104A000052860030410800214A0800D1040000A508002364000012840010AD8000104A000052860030410800214A0800D104080BF2A9093E70D0AE4F05B39AE404B80082080004650005740000104A000056C80000250800214B001020840010A50C006082000052840011B20
310
800014A000056C80000250800214B001020840010A50C006082000052840011B20800014A000056C80000250800214B001020840010A50C006082000052840011B20800014A000056C80000250800214B0015F0F50F2EFF2BE2F303EB222802B208000021841016C407D80FD1BBCEF690304B803949F0B2119936F10150AC9
310
0000000049454E44AE426082
  0
ACDSRECORD
 90
        0
  2
AcDbDs::ID
280
    10
320
D7
  2
Thumbnail_Data
280
    15
 94
     1868
310
89504E470D0A1A0A0000000D4948445200000100000000B5080300000087DCD12600000300504C5445FFFFFF000000C8C8C80000000000000000000000000000000000000000000000000000330000660000990000CC0000FF0033000033330033660033990033CC0033FF0066000066330066660066990066CC0066FF0099
310
000099330099660099990099CC0099FF00CC0000CC3300CC6600CC9900CCCC00CCFF00FF0000FF3300FF6600FF9900FFCC00FFFF3300003300333300663300993300CC3300FF3333003333333333663333993333CC3333FF3366003366333366663366993366CC3366FF3399003399333399663399993399CC3399FF33CC00
310
33CC3333CC6633CC9933CCCC33CCFF33FF0033FF3333FF6633FF9933FFCC33FFFF6600006600336600666600996600CC6600FF6633006633336633666633996633CC6633FF6666006666336666666666996666CC6666FF6699006699336699666699996699CC6699FF66CC0066CC3366CC6666CC9966CCCC66CCFF66FF0066
310
FF3366FF6666FF9966FFCC66FFFF9900009900339900669900999900CC9900FF9933009933339933669933999933CC9933FF9966009966339966669966999966CC9966FF9999009999339999669999999999CC9999FF99CC0099CC3399CC6699CC9999CCCC99CCFF99FF0099FF3399FF6699FF9999FFCC99FFFFCC0000CC00
310
33CC0066CC0099CC00CCCC00FFCC3300CC3333CC3366CC3399CC33CCCC33FFCC6600CC6633CC6666CC6699CC66CCCC66FFCC9900CC9933CC9966CC9999CC99CCCC99FFCCCC00CCCC33CCCC66CCCC99CCCCCCCCCCFFCCFF00CCFF33CCFF66CCFF99CCFFCCCCFFFFFF0000FF0033FF0066FF0099FF00CCFF00FFFF3300FF3333
310
FF3366FF3399FF33CCFF33FFFF6600FF6633FF6666FF6699FF66CCFF66FFFF9900FF9933FF9966FF9999FF99CCFF99FFFFCC00FFCC33FFCC66FFCC99FFCCCCFFCCFFFFFF00FFFF33FFFF66FFFF99FFFFCCFFFFFF0000000D0D0D1A1A1A2828283535354343435050505D5D5D6B6B6B787878868686939393A1A1A1AEAEAEBB
310
BBBBC9C9C9D6D6D6E4E4E4F1F1F1FFFFFF000000000000000000000000000000000000000000000000000000000000B0E2D235000004074944415478DAED9D4996AB300C45BD1C4DB2FF05781B8C34AE4514364D6C42938001DB5C551D120CC53FDC484F6E44BEF97BB8993FF368030000000080A9696BF56EF1804D005AF3
310
FD2A0000000044100084000000000044100084000000F00B0029CC926701D9386E3FFEADA4F6EB472DFB45301900A34D22537325004D08C035DBF1A80DCF6ABDB4E99DD56FFC4E33DF9A0E8002202B009F36DF5A2B80E866BBDD5EC2A3D6AB3DC05CE701FDAE7F6DFC3BDF6AFAD67173AD089ACB4360FEED13B240BF2B7299
310
0720829989A04C6FF859006E10C12359C0FE686AB559391C2ADFA607B417FBD18AC80276DCB541EBE7A533C902893DE0074BE8010A806C44D08CC7E6FEF8AC1000403E22780F802359A00A0D200BA001002004C8020040030000000020820020040000801C0134B72F8CDC2C82E302C9DB9E950582BA00A96475782C5BB351
310
B1DD1280B132663CB1740D5800E0DA16003411801A1647874F7CA0B10120F480D2B3C0A47AD3FEEC01A5678179006B22E83DA0A6B14004E05B0D68A2A5F3B2B3C05208AC7B4027FFB794C9A5174179F7032271B32B1E3084BF5456221345C00D1A50C25860A64AE6596381DE031A5F2EE5DF3F6C2C70AA07143023F4AE8E63
310
3EA0EE42C9550F90B3E6032E0690EE91A9222B45935A0695A2B628CB200B44717E6856788F65A001000040A1004CCD000C000881DD00AAE8072082004004014008000000170338F6D53FD96481039D92A4A71538235418801342C0C8B60688917A354045555FED8FFB55ED5E5EDDCEEBE57FDB53720770C01DDBBB7B39D3EE
310
25B4A1C501A87630E443A08B031B5E691A0229F3404E630131EF82181B5EE85303E46C00778C05A28A201B7ECE3180B47D810C9E1D0EBE2CC45583880CBB4B493038A92E0D7021E03666D480B94EA0A44D84396501B15F7584DD79596781233D417F6FB202A40F812C009853D2A073F2A127284B69B0D6192155E9BB3BC64E
310
3B42C6F46FDA8E50CA8E404E63017D03109902185BDADE72CA8171563D41F563810DBBC603EE9A119221F66D78AD8906D43C25F6D570987501D6055817605A1C0000200B9005C802680000004016200B9005D0000000802C4016200BA00100000059802C507216F8AE3EBA620D90C803E2E55F6B1E07601A024501D85F1FD4
310
7D9BC2E2B1DC9E1B4C2B82BE50BAAB13F6E5D1417D70501F5D4416485D28ADA9EBA3737D5EC0FFA1FFAFA3A71A20CFE809CAA2080260D84DFCC0547100923F3266B27A6A4C368F0CD5B2993F35B6CF03C2F2C7CF8EF0B8B92A04AECF02AA2B21E0BE244BBAF279AD540374AD4A74A88E755BA3D903D8178BEB00C6A74924A3
310
AEF0791DA1FEB6E78440CD43B3C0099FFD6959A0304B9E05EA3005000000B053042B3500100200000000104100100200000000C673DC5C6DB55BB2000000000000C4001E6EFFB5E7A6659E470B9C0000000049454E44AE426082
  0
ENDSEC
  0
EOF
