  0
SECTION
  2
HEADER
  9
$ACADVER
  1
AC1027
  9
$ACADMAINTVER
 70
   106
  9
$DWGCODEPAGE
  3
ANSI_932
  9
$LASTSAVEDBY
  1
takamura205
  9
$REQUIREDVERSIONS
160
                 0
  9
$INSBASE
 10
0.0
 20
0.0
 30
0.0
  9
$EXTMIN
 10
33316.24093491148
 20
28289.23237812787
 30
0.0
  9
$EXTMAX
 10
34996.24093491148
 20
29477.23237812787
 30
0.0
  9
$LIMMIN
 10
0.0
 20
0.0
  9
$LIMMAX
 10
420.0
 20
297.0
  9
$ORTHOMODE
 70
     0
  9
$REGENMODE
 70
     1
  9
$FILLMODE
 70
     1
  9
$QTEXTMODE
 70
     0
  9
$MIRRTEXT
 70
     0
  9
$LTSCALE
 40
1.0
  9
$ATTMODE
 70
     1
  9
$TEXTSIZE
 40
2.5
  9
$TRACEWID
 40
1.0
  9
$TEXTSTYLE
  7
Standard
  9
$CLAYER
  8
寸法線
  9
$CELTYPE
  6
ByLayer
  9
$CECOLOR
 62
   256
  9
$CELTSCALE
 40
1.0
  9
$DISPSILH
 70
     0
  9
$DIMSCALE
 40
1.0
  9
$DIMASZ
 40
2.5
  9
$DIMEXO
 40
0.625
  9
$DIMDLI
 40
3.75
  9
$DIMRND
 40
0.0
  9
$DIMDLE
 40
0.0
  9
$DIMEXE
 40
1.25
  9
$DIMTP
 40
0.0
  9
$DIMTM
 40
0.0
  9
$DIMTXT
 40
20.0
  9
$DIMCEN
 40
2.5
  9
$DIMTSZ
 40
0.0
  9
$DIMTOL
 70
     0
  9
$DIMLIM
 70
     0
  9
$DIMTIH
 70
     0
  9
$DIMTOH
 70
     0
  9
$DIMSE1
 70
     0
  9
$DIMSE2
 70
     0
  9
$DIMTAD
 70
     1
  9
$DIMZIN
 70
     8
  9
$DIMBLK
  1

  9
$DIMASO
 70
     1
  9
$DIMSHO
 70
     1
  9
$DIMPOST
  1

  9
$DIMAPOST
  1

  9
$DIMALT
 70
     0
  9
$DIMALTD
 70
     3
  9
$DIMALTF
 40
0.03937007874016
  9
$DIMLFAC
 40
1.0
  9
$DIMTOFL
 70
     1
  9
$DIMTVP
 40
0.0
  9
$DIMTIX
 70
     0
  9
$DIMSOXD
 70
     0
  9
$DIMSAH
 70
     0
  9
$DIMBLK1
  1

  9
$DIMBLK2
  1

  9
$DIMSTYLE
  2
ISO-25
  9
$DIMCLRD
 70
     0
  9
$DIMCLRE
 70
     0
  9
$DIMCLRT
 70
     0
  9
$DIMTFAC
 40
1.0
  9
$DIMGAP
 40
0.625
  9
$DIMJUST
 70
     0
  9
$DIMSD1
 70
     0
  9
$DIMSD2
 70
     0
  9
$DIMTOLJ
 70
     0
  9
$DIMTZIN
 70
     8
  9
$DIMALTZ
 70
     0
  9
$DIMALTTZ
 70
     0
  9
$DIMUPT
 70
     0
  9
$DIMDEC
 70
     2
  9
$DIMTDEC
 70
     2
  9
$DIMALTU
 70
     2
  9
$DIMALTTD
 70
     3
  9
$DIMTXSTY
  7
Standard
  9
$DIMAUNIT
 70
     0
  9
$DIMADEC
 70
     0
  9
$DIMALTRND
 40
0.0
  9
$DIMAZIN
 70
     0
  9
$DIMDSEP
 70
    44
  9
$DIMATFIT
 70
     3
  9
$DIMFRAC
 70
     0
  9
$DIMLDRBLK
  1

  9
$DIMLUNIT
 70
     2
  9
$DIMLWD
 70
    -2
  9
$DIMLWE
 70
    -2
  9
$DIMTMOVE
 70
     0
  9
$DIMFXL
 40
1.0
  9
$DIMFXLON
 70
     0
  9
$DIMJOGANG
 40
0.7853981633974483
  9
$DIMTFILL
 70
     0
  9
$DIMTFILLCLR
 70
     0
  9
$DIMARCSYM
 70
     0
  9
$DIMLTYPE
  6

  9
$DIMLTEX1
  6

  9
$DIMLTEX2
  6

  9
$DIMTXTDIRECTION
 70
     0
  9
$LUNITS
 70
     2
  9
$LUPREC
 70
     4
  9
$SKETCHINC
 40
1.0
  9
$FILLETRAD
 40
1.0
  9
$AUNITS
 70
     0
  9
$AUPREC
 70
     0
  9
$MENU
  1
.
  9
$ELEVATION
 40
0.0
  9
$PELEVATION
 40
0.0
  9
$THICKNESS
 40
0.0
  9
$LIMCHECK
 70
     0
  9
$CHAMFERA
 40
0.0
  9
$CHAMFERB
 40
0.0
  9
$CHAMFERC
 40
0.0
  9
$CHAMFERD
 40
0.0
  9
$SKPOLY
 70
     0
  9
$TDCREATE
 40
2457175.672123785
  9
$TDUCREATE
 40
2457175.297123785
  9
$TDUPDATE
 40
2457871.479169665
  9
$TDUUPDATE
 40
2457871.104169664
  9
$TDINDWG
 40
0.9552224653
  9
$TDUSRTIMER
 40
0.9552223611
  9
$USRTIMER
 70
     1
  9
$ANGBASE
 50
0.0
  9
$ANGDIR
 70
     0
  9
$PDMODE
 70
     0
  9
$PDSIZE
 40
0.0
  9
$PLINEWID
 40
0.0
  9
$SPLFRAME
 70
     0
  9
$SPLINETYPE
 70
     6
  9
$SPLINESEGS
 70
     8
  9
$HANDSEED
  5
2475
  9
$SURFTAB1
 70
     6
  9
$SURFTAB2
 70
     6
  9
$SURFTYPE
 70
     6
  9
$SURFU
 70
     6
  9
$SURFV
 70
     6
  9
$UCSBASE
  2

  9
$UCSNAME
  2

  9
$UCSORG
 10
0.0
 20
0.0
 30
0.0
  9
$UCSXDIR
 10
1.0
 20
0.0
 30
0.0
  9
$UCSYDIR
 10
0.0
 20
1.0
 30
0.0
  9
$UCSORTHOREF
  2

  9
$UCSORTHOVIEW
 70
     0
  9
$UCSORGTOP
 10
0.0
 20
0.0
 30
0.0
  9
$UCSORGBOTTOM
 10
0.0
 20
0.0
 30
0.0
  9
$UCSORGLEFT
 10
0.0
 20
0.0
 30
0.0
  9
$UCSORGRIGHT
 10
0.0
 20
0.0
 30
0.0
  9
$UCSORGFRONT
 10
0.0
 20
0.0
 30
0.0
  9
$UCSORGBACK
 10
0.0
 20
0.0
 30
0.0
  9
$PUCSBASE
  2

  9
$PUCSNAME
  2

  9
$PUCSORG
 10
0.0
 20
0.0
 30
0.0
  9
$PUCSXDIR
 10
1.0
 20
0.0
 30
0.0
  9
$PUCSYDIR
 10
0.0
 20
1.0
 30
0.0
  9
$PUCSORTHOREF
  2

  9
$PUCSORTHOVIEW
 70
     0
  9
$PUCSORGTOP
 10
0.0
 20
0.0
 30
0.0
  9
$PUCSORGBOTTOM
 10
0.0
 20
0.0
 30
0.0
  9
$PUCSORGLEFT
 10
0.0
 20
0.0
 30
0.0
  9
$PUCSORGRIGHT
 10
0.0
 20
0.0
 30
0.0
  9
$PUCSORGFRONT
 10
0.0
 20
0.0
 30
0.0
  9
$PUCSORGBACK
 10
0.0
 20
0.0
 30
0.0
  9
$USERI1
 70
     0
  9
$USERI2
 70
     0
  9
$USERI3
 70
     0
  9
$USERI4
 70
     0
  9
$USERI5
 70
     0
  9
$USERR1
 40
0.0
  9
$USERR2
 40
0.0
  9
$USERR3
 40
0.0
  9
$USERR4
 40
0.0
  9
$USERR5
 40
0.0
  9
$WORLDVIEW
 70
     1
  9
$SHADEDGE
 70
     3
  9
$SHADEDIF
 70
    70
  9
$TILEMODE
 70
     1
  9
$MAXACTVP
 70
    64
  9
$PINSBASE
 10
0.0
 20
0.0
 30
0.0
  9
$PLIMCHECK
 70
     0
  9
$PEXTMIN
 10
25.69999999999999
 20
19.5
 30
0.0
  9
$PEXTMAX
 10
231.3
 20
175.5
 30
0.0
  9
$PLIMMIN
 10
-4.9847412109375
 20
-4.984749794006347
  9
$PLIMMAX
 10
415.0042419433593
 20
292.0259008407593
  9
$UNITMODE
 70
     0
  9
$VISRETAIN
 70
     1
  9
$PLINEGEN
 70
     0
  9
$PSLTSCALE
 70
     1
  9
$TREEDEPTH
 70
  3020
  9
$CMLSTYLE
  2
Standard
  9
$CMLJUST
 70
     0
  9
$CMLSCALE
 40
20.0
  9
$PROXYGRAPHICS
 70
     1
  9
$MEASUREMENT
 70
     1
  9
$CELWEIGHT
370
    -1
  9
$ENDCAPS
280
     0
  9
$JOINSTYLE
280
     0
  9
$LWDISPLAY
290
     0
  9
$INSUNITS
 70
     4
  9
$HYPERLINKBASE
  1

  9
$STYLESHEET
  1
monochrome.stb
  9
$XEDIT
290
     1
  9
$CEPSNTYPE
380
     0
  9
$PSTYLEMODE
290
     0
  9
$FINGERPRINTGUID
  2
{083708C7-F509-4151-B42C-06F3721D7F80}
  9
$VERSIONGUID
  2
{5F863840-79F0-44FF-8762-DC29E735C3BA}
  9
$EXTNAMES
290
     1
  9
$PSVPSCALE
 40
0.0
  9
$OLESTARTUP
290
     0
  9
$SORTENTS
280
   127
  9
$INDEXCTL
280
     0
  9
$HIDETEXT
280
     1
  9
$XCLIPFRAME
280
     2
  9
$HALOGAP
280
     0
  9
$OBSCOLOR
 70
   257
  9
$OBSLTYPE
280
     0
  9
$INTERSECTIONDISPLAY
280
     0
  9
$INTERSECTIONCOLOR
 70
   257
  9
$DIMASSOC
280
     2
  9
$PROJECTNAME
  1

  9
$CAMERADISPLAY
290
     0
  9
$LENSLENGTH
 40
50.0
  9
$CAMERAHEIGHT
 40
1524.0
  9
$STEPSPERSEC
 40
2.0
  9
$STEPSIZE
 40
6.0
  9
$3DDWFPREC
 40
2.0
  9
$PSOLWIDTH
 40
5.0
  9
$PSOLHEIGHT
 40
80.0
  9
$LOFTANG1
 40
1.570796326794896
  9
$LOFTANG2
 40
1.570796326794896
  9
$LOFTMAG1
 40
0.0
  9
$LOFTMAG2
 40
0.0
  9
$LOFTPARAM
 70
     7
  9
$LOFTNORMALS
280
     1
  9
$LATITUDE
 40
37.795
  9
$LONGITUDE
 40
-122.394
  9
$NORTHDIRECTION
 40
0.0
  9
$TIMEZONE
 70
 -8000
  9
$LIGHTGLYPHDISPLAY
280
     1
  9
$TILEMODELIGHTSYNCH
280
     1
  9
$CMATERIAL
347
E3
  9
$SOLIDHIST
280
     0
  9
$SHOWHIST
280
     1
  9
$DWFFRAME
280
     2
  9
$DGNFRAME
280
     0
  9
$REALWORLDSCALE
290
     1
  9
$INTERFERECOLOR
 62
     1
  9
$INTERFEREOBJVS
345
F0
  9
$INTERFEREVPVS
346
ED
  9
$CSHADOW
280
     0
  9
$SHADOWPLANELOCATION
 40
0.0
  0
ENDSEC
  0
SECTION
  2
CLASSES
  0
CLASS
  1
ACDBDICTIONARYWDFLT
  2
AcDbDictionaryWithDefault
  3
ObjectDBX Classes
 90
        0
 91
        1
280
     0
281
     0
  0
CLASS
  1
DICTIONARYVAR
  2
AcDbDictionaryVar
  3
ObjectDBX Classes
 90
        0
 91
       10
280
     0
281
     0
  0
CLASS
  1
TABLESTYLE
  2
AcDbTableStyle
  3
ObjectDBX Classes
 90
     4095
 91
        1
280
     0
281
     0
  0
CLASS
  1
MATERIAL
  2
AcDbMaterial
  3
ObjectDBX Classes
 90
     1153
 91
        3
280
     0
281
     0
  0
CLASS
  1
VISUALSTYLE
  2
AcDbVisualStyle
  3
ObjectDBX Classes
 90
     4095
 91
       24
280
     0
281
     0
  0
CLASS
  1
SCALE
  2
AcDbScale
  3
ObjectDBX Classes
 90
     1153
 91
       17
280
     0
281
     0
  0
CLASS
  1
MLEADERSTYLE
  2
AcDbMLeaderStyle
  3
ACDB_MLEADERSTYLE_CLASS
 90
     4095
 91
        2
280
     0
281
     0
  0
CLASS
  1
CELLSTYLEMAP
  2
AcDbCellStyleMap
  3
ObjectDBX Classes
 90
     1152
 91
        1
280
     0
281
     0
  0
CLASS
  1
EXACXREFPANELOBJECT
  2
ExAcXREFPanelObject
  3
EXAC_ESW
 90
     1025
 91
        0
280
     0
281
     0
  0
CLASS
  1
NPOCOLLECTION
  2
AcDbImpNonPersistentObjectsCollection
  3
ObjectDBX Classes
 90
     1153
 91
        0
280
     0
281
     0
  0
CLASS
  1
LAYER_INDEX
  2
AcDbLayerIndex
  3
ObjectDBX Classes
 90
        0
 91
        0
280
     0
281
     0
  0
CLASS
  1
SPATIAL_INDEX
  2
AcDbSpatialIndex
  3
ObjectDBX Classes
 90
        0
 91
        0
280
     0
281
     0
  0
CLASS
  1
IDBUFFER
  2
AcDbIdBuffer
  3
ObjectDBX Classes
 90
        0
 91
        0
280
     0
281
     0
  0
CLASS
  1
ACDBSECTIONVIEWSTYLE
  2
AcDbSectionViewStyle
  3
ObjectDBX Classes
 90
     1025
 91
        1
280
     0
281
     0
  0
CLASS
  1
ACDBDETAILVIEWSTYLE
  2
AcDbDetailViewStyle
  3
ObjectDBX Classes
 90
     1025
 91
        1
280
     0
281
     0
  0
CLASS
  1
DIMASSOC
  2
AcDbDimAssoc
  3
"AcDbDimAssoc|Product Desc:     AcDim ARX App For Dimension|Company:          Autodesk, Inc.|WEB Address:      www.autodesk.com"
 90
        0
 91
        9
280
     0
281
     0
  0
CLASS
  1
SORTENTSTABLE
  2
AcDbSortentsTable
  3
ObjectDBX Classes
 90
        0
 91
        1
280
     0
281
     0
  0
CLASS
  1
PLOTSETTINGS
  2
AcDbPlotSettings
  3
ObjectDBX Classes
 90
        0
 91
        1
280
     0
281
     0
  0
ENDSEC
  0
SECTION
  2
TABLES
  0
TABLE
  2
VPORT
  5
8
330
0
100
AcDbSymbolTable
 70
     1
  0
VPORT
  5
E1
330
8
100
AcDbSymbolTableRecord
100
AcDbViewportTableRecord
  2
*Active
 70
     0
 10
0.0
 20
0.0
 11
1.0
 21
1.0
 12
34215.95235542767
 22
29118.14394067789
 13
0.0
 23
0.0
 14
10.0
 24
10.0
 15
10.0
 25
10.0
 16
0.0
 26
0.0
 36
1.0
 17
0.0
 27
0.0
 37
0.0
 40
3101.069416589958
 41
1.203585147247119
 42
50.0
 43
0.0
 44
0.0
 50
0.0
 51
0.0
 71
     0
 72
  1000
 73
     1
 74
     3
 75
     0
 76
     1
 77
     0
 78
     0
281
     0
 65
     1
110
0.0
120
0.0
130
0.0
111
1.0
121
0.0
131
0.0
112
0.0
122
1.0
132
0.0
 79
     0
146
0.0
348
EC
 60
     3
 61
     5
292
     1
282
     1
141
0.0
142
0.0
 63
   250
421
  3355443
1001
ACAD_NAV_VCDISPLAY
1070
     3
  0
ENDTAB
  0
TABLE
  2
LTYPE
  5
5
330
0
100
AcDbSymbolTable
 70
     4
  0
LTYPE
  5
14
330
5
100
AcDbSymbolTableRecord
100
AcDbLinetypeTableRecord
  2
ByBlock
 70
     0
  3

 72
    65
 73
     0
 40
0.0
  0
LTYPE
  5
15
330
5
100
AcDbSymbolTableRecord
100
AcDbLinetypeTableRecord
  2
ByLayer
 70
     0
  3

 72
    65
 73
     0
 40
0.0
  0
LTYPE
  5
16
330
5
100
AcDbSymbolTableRecord
100
AcDbLinetypeTableRecord
  2
Continuous
 70
     0
  3
Solid line
 72
    65
 73
     0
 40
0.0
  0
LTYPE
  5
25A
330
5
100
AcDbSymbolTableRecord
100
AcDbLinetypeTableRecord
  2
ACAD_ISO04W100
 70
     0
  3
ISO long-dash dot ____ . ____ . ____ . ____ . _
 72
    65
 73
     4
 40
30.0
 49
24.0
 74
     0
 49
-3.0
 74
     0
 49
0.0
 74
     0
 49
-3.0
 74
     0
  0
LTYPE
  5
25E
330
5
100
AcDbSymbolTableRecord
100
AcDbLinetypeTableRecord
  2
ACAD_ISO02W100
 70
     0
  3
ISO dash __ __ __ __ __ __ __ __ __ __ __ __ __
 72
    65
 73
     2
 40
15.0
 49
12.0
 74
     0
 49
-3.0
 74
     0
  0
LTYPE
  5
260
330
5
100
AcDbSymbolTableRecord
100
AcDbLinetypeTableRecord
  2
ACAD_ISO07W100
 70
     0
  3
ISO dot . . . . . . . . . . . . . . . . . . . .
 72
    65
 73
     2
 40
3.0
 49
0.0
 74
     0
 49
-3.0
 74
     0
  0
ENDTAB
  0
TABLE
  2
LAYER
  5
2
102
{ACAD_XDICTIONARY
360
1F6
102
}
330
0
100
AcDbSymbolTable
 70
    14
  0
LAYER
  5
10
102
{ACAD_XDICTIONARY
360
133
102
}
330
2
100
AcDbSymbolTableRecord
100
AcDbLayerTableRecord
  2
0
 70
     0
 62
     7
  6
Continuous
370
    -3
390
F
347
E5
348
0
  0
LAYER
  5
255
330
2
100
AcDbSymbolTableRecord
100
AcDbLayerTableRecord
  2
中心線
 70
     0
 62
     3
  6
ACAD_ISO04W100
370
     9
390
F
347
E5
348
0
1001
AcAecLayerStandard
1000

1000

1001
AcCmTransparency
1071
        0
  0
LAYER
  5
25B
330
2
100
AcDbSymbolTableRecord
100
AcDbLayerTableRecord
  2
外形線②
 70
     0
 62
     7
  6
Continuous
370
    15
390
F
347
E5
348
0
1001
AcAecLayerStandard
1000

1000

1001
AcCmTransparency
1071
        0
  0
LAYER
  5
25C
330
2
100
AcDbSymbolTableRecord
100
AcDbLayerTableRecord
  2
寸法線
 70
     0
 62
     3
  6
Continuous
370
    13
390
F
347
E5
348
0
1001
AcAecLayerStandard
1000

1000

1001
AcCmTransparency
1071
        0
  0
LAYER
  5
25D
330
2
100
AcDbSymbolTableRecord
100
AcDbLayerTableRecord
  2
点線
 70
     0
 62
     4
  6
ACAD_ISO02W100
370
     9
390
F
347
E5
348
0
1001
AcAecLayerStandard
1000

1000

1001
AcCmTransparency
1071
        0
  0
LAYER
  5
25F
330
2
100
AcDbSymbolTableRecord
100
AcDbLayerTableRecord
  2
オフセット
 70
     0
 62
    -6
  6
Continuous
370
    13
390
F
347
E5
348
0
1001
AcAecLayerStandard
1000

1000

1001
AcCmTransparency
1071
        0
  0
LAYER
  5
271
330
2
100
AcDbSymbolTableRecord
100
AcDbLayerTableRecord
  2
Defpoints
 70
     0
 62
     7
  6
Continuous
290
     0
370
    -3
390
F
347
E5
348
0
  0
LAYER
  5
2F1
330
2
100
AcDbSymbolTableRecord
100
AcDbLayerTableRecord
  2
ビューポート
 70
     0
 62
     3
  6
Continuous
370
    15
390
F
347
E5
348
0
1001
AcAecLayerStandard
1000

1000

1001
AcCmTransparency
1071
        0
  0
LAYER
  5
382
330
2
100
AcDbSymbolTableRecord
100
AcDbLayerTableRecord
  2
外形線
 70
     0
 62
     7
  6
Continuous
370
    15
390
F
347
E5
348
0
1001
AcAecLayerStandard
1000

1000

1001
AcCmTransparency
1071
        0
  0
LAYER
  5
430
330
2
100
AcDbSymbolTableRecord
100
AcDbLayerTableRecord
  2
LED器具
 70
     0
 62
     4
  6
Continuous
370
    13
390
F
347
E5
348
0
1001
AcAecLayerStandard
1000

1000

1001
AcCmTransparency
1071
        0
  0
LAYER
  5
44D
330
2
100
AcDbSymbolTableRecord
100
AcDbLayerTableRecord
  2
孔
 70
     0
 62
     4
  6
Continuous
370
    15
390
F
347
E5
348
0
1001
AcAecLayerStandard
1000

1000

1001
AcCmTransparency
1071
        0
  0
LAYER
  5
AAC
330
2
100
AcDbSymbolTableRecord
100
AcDbLayerTableRecord
  2
枠線
 70
     0
 62
     2
  6
Continuous
370
     9
390
F
347
E5
348
0
1001
AcAecLayerStandard
1000

1000

1001
AcCmTransparency
1071
        0
  0
LAYER
  5
CEA
102
{ACAD_XDICTIONARY
360
CEB
102
}
330
2
100
AcDbSymbolTableRecord
100
AcDbLayerTableRecord
  2
1
 70
     0
 62
     7
  6
Continuous
370
    -3
390
F
347
E5
348
0
  0
LAYER
  5
DBB
330
2
100
AcDbSymbolTableRecord
100
AcDbLayerTableRecord
  2
○
 70
     0
 62
     3
  6
Continuous
370
     9
390
F
347
E5
348
0
1001
AcAecLayerStandard
1000

1000

1001
AcCmTransparency
1071
        0
  0
ENDTAB
  0
TABLE
  2
STYLE
  5
3
330
0
100
AcDbSymbolTable
 70
     4
  0
STYLE
  5
11
330
3
100
AcDbSymbolTableRecord
100
AcDbTextStyleTableRecord
  2
Standard
 70
     0
 40
0.0
 41
1.0
 50
0.0
 71
     0
 42
2.5
  3
arial.ttf
  4

1001
ACAD
1000
Arial
1071
       34
  0
STYLE
  5
129
330
3
100
AcDbSymbolTableRecord
100
AcDbTextStyleTableRecord
  2
Annotative
 70
     0
 40
0.0
 41
1.0
 50
0.0
 71
     0
 42
2.5
  3
arial.ttf
  4

1001
AcadAnnotative
1000
AnnotativeData
1002
{
1070
     1
1070
     1
1002
}
1001
ACAD
1000
Arial
1071
       34
  0
STYLE
  5
259
330
3
100
AcDbSymbolTableRecord
100
AcDbTextStyleTableRecord
  2

 70
     1
 40
0.0
 41
1.0
 50
0.0
 71
     0
 42
2.5
  3
ltypeshp.shx
  4

  0
STYLE
  5
CEC
330
3
100
AcDbSymbolTableRecord
100
AcDbTextStyleTableRecord
  2
BIGFONT
 70
     0
 40
1.0
 41
1.0
 50
0.0
 71
     0
 42
1.0
  3
TXT
  4
BIGFONT
  0
ENDTAB
  0
TABLE
  2
VIEW
  5
6
330
0
100
AcDbSymbolTable
 70
     0
  0
ENDTAB
  0
TABLE
  2
UCS
  5
7
330
0
100
AcDbSymbolTable
 70
     0
  0
ENDTAB
  0
TABLE
  2
APPID
  5
9
330
0
100
AcDbSymbolTable
 70
    13
  0
APPID
  5
12
330
9
100
AcDbSymbolTableRecord
100
AcDbRegAppTableRecord
  2
ACAD
 70
     0
  0
APPID
  5
A0
330
9
100
AcDbSymbolTableRecord
100
AcDbRegAppTableRecord
  2
ACAD_PSEXT
 70
     0
  0
APPID
  5
12A
330
9
100
AcDbSymbolTableRecord
100
AcDbRegAppTableRecord
  2
AcadAnnoPO
 70
     0
  0
APPID
  5
12B
330
9
100
AcDbSymbolTableRecord
100
AcDbRegAppTableRecord
  2
AcadAnnotative
 70
     0
  0
APPID
  5
12C
330
9
100
AcDbSymbolTableRecord
100
AcDbRegAppTableRecord
  2
ACAD_DSTYLE_DIMJAG
 70
     0
  0
APPID
  5
12D
330
9
100
AcDbSymbolTableRecord
100
AcDbRegAppTableRecord
  2
ACAD_DSTYLE_DIMTALN
 70
     0
  0
APPID
  5
15C
330
9
100
AcDbSymbolTableRecord
100
AcDbRegAppTableRecord
  2
ACAD_MLEADERVER
 70
     0
  0
APPID
  5
20E
330
9
100
AcDbSymbolTableRecord
100
AcDbRegAppTableRecord
  2
ACAD_NAV_VCDISPLAY
 70
     0
  0
APPID
  5
256
330
9
100
AcDbSymbolTableRecord
100
AcDbRegAppTableRecord
  2
AcAecLayerStandard
 70
     0
  0
APPID
  5
257
330
9
100
AcDbSymbolTableRecord
100
AcDbRegAppTableRecord
  2
AcCmTransparency
 70
     0
  0
APPID
  5
264
330
9
100
AcDbSymbolTableRecord
100
AcDbRegAppTableRecord
  2
ACAD_EXEMPT_FROM_CAD_STANDARDS
 70
     0
  0
APPID
  5
26F
330
9
100
AcDbSymbolTableRecord
100
AcDbRegAppTableRecord
  2
ACAD_DSTYLE_DIMRADIAL_EXTENSION
 70
     0
  0
APPID
  5
A2B
330
9
100
AcDbSymbolTableRecord
100
AcDbRegAppTableRecord
  2
AcadAnnoMonitorAlertIconDisabled
 70
     0
  0
ENDTAB
  0
TABLE
  2
DIMSTYLE
  5
A
330
0
100
AcDbSymbolTable
 70
     3
100
AcDbDimStyleTable
 71
     2
340
27
340
12E
  0
DIMSTYLE
105
1A7
330
A
100
AcDbSymbolTableRecord
100
AcDbDimStyleTableRecord
  2
Standard
 70
     0
340
11
  0
DIMSTYLE
105
12E
330
A
100
AcDbSymbolTableRecord
100
AcDbDimStyleTableRecord
  2
Annotative
 70
     0
 40
0.0
 41
2.5
 42
0.625
 43
3.75
 44
1.25
 73
     0
 74
     0
 77
     1
 78
     8
140
2.5
141
2.5
143
0.03937007874016
147
0.625
171
     3
172
     1
271
     2
272
     2
274
     3
278
    44
283
     0
284
     8
340
11
1001
AcadAnnotative
1000
AnnotativeData
1002
{
1070
     1
1070
     1
1002
}
1001
ACAD_DSTYLE_DIMJAG
1070
   388
1040
1.5
1001
ACAD_DSTYLE_DIMTALN
1070
   392
1070
     0
  0
DIMSTYLE
105
27
102
{ACAD_REACTORS
330
220B
330
2223
330
223B
330
2261
330
2296
330
22BA
330
22E0
330
22F8
330
2310
102
}
330
A
100
AcDbSymbolTableRecord
100
AcDbDimStyleTableRecord
  2
ISO-25
 70
     0
 41
2.5
 42
0.625
 43
3.75
 44
1.25
 73
     0
 74
     0
 77
     1
 78
     8
140
20.0
141
2.5
143
0.03937007874016
147
0.625
171
     3
172
     1
271
     2
272
     2
274
     3
278
    44
283
     0
284
     8
340
11
1001
ACAD_DSTYLE_DIMJAG
1070
   388
1040
1.5
1001
ACAD_DSTYLE_DIMTALN
1070
   392
1070
     0
  0
ENDTAB
  0
TABLE
  2
BLOCK_RECORD
  5
1
330
0
100
AcDbSymbolTable
 70
    10
  0
BLOCK_RECORD
  5
1F
102
{ACAD_XDICTIONARY
360
1C5
102
}
330
1
100
AcDbSymbolTableRecord
100
AcDbBlockTableRecord
  2
*Model_Space
340
22
 70
     0
280
     1
281
     0
  0
BLOCK_RECORD
  5
D2
330
1
100
AcDbSymbolTableRecord
100
AcDbBlockTableRecord
  2
*Paper_Space
340
D3
 70
     0
280
     1
281
     0
  0
BLOCK_RECORD
  5
D6
330
1
100
AcDbSymbolTableRecord
100
AcDbBlockTableRecord
  2
*Paper_Space0
340
D7
 70
     0
280
     1
281
     0
  0
BLOCK_RECORD
  5
220C
330
1
100
AcDbSymbolTableRecord
100
AcDbBlockTableRecord
  2
*D1
340
0
 70
     0
280
     1
281
     0
  0
BLOCK_RECORD
  5
2224
330
1
100
AcDbSymbolTableRecord
100
AcDbBlockTableRecord
  2
*D2
340
0
 70
     0
280
     1
281
     0
  0
BLOCK_RECORD
  5
223C
330
1
100
AcDbSymbolTableRecord
100
AcDbBlockTableRecord
  2
*D3
340
0
 70
     0
280
     1
281
     0
  0
BLOCK_RECORD
  5
2262
330
1
100
AcDbSymbolTableRecord
100
AcDbBlockTableRecord
  2
*D4
340
0
 70
     0
280
     1
281
     0
  0
BLOCK_RECORD
  5
2297
330
1
100
AcDbSymbolTableRecord
100
AcDbBlockTableRecord
  2
*D5
340
0
 70
     0
280
     1
281
     0
  0
BLOCK_RECORD
  5
22BB
330
1
100
AcDbSymbolTableRecord
100
AcDbBlockTableRecord
  2
*D6
340
0
 70
     0
280
     1
281
     0
  0
BLOCK_RECORD
  5
22E1
330
1
100
AcDbSymbolTableRecord
100
AcDbBlockTableRecord
  2
*D7
340
0
 70
     0
280
     1
281
     0
  0
BLOCK_RECORD
  5
22F9
330
1
100
AcDbSymbolTableRecord
100
AcDbBlockTableRecord
  2
*D8
340
0
 70
     0
280
     1
281
     0
  0
BLOCK_RECORD
  5
2311
330
1
100
AcDbSymbolTableRecord
100
AcDbBlockTableRecord
  2
*D9
340
0
 70
     0
280
     1
281
     0
  0
ENDTAB
  0
ENDSEC
  0
SECTION
  2
BLOCKS
  0
BLOCK
  5
20
330
1F
100
AcDbEntity
  8
0
100
AcDbBlockBegin
  2
*Model_Space
 70
     0
 10
0.0
 20
0.0
 30
0.0
  3
*Model_Space
  1

  0
ENDBLK
  5
21
330
1F
100
AcDbEntity
  8
0
100
AcDbBlockEnd
  0
BLOCK
  5
D4
330
D2
100
AcDbEntity
 67
     1
  8
0
100
AcDbBlockBegin
  2
*Paper_Space
 70
     0
 10
0.0
 20
0.0
 30
0.0
  3
*Paper_Space
  1

  0
ENDBLK
  5
D5
330
D2
100
AcDbEntity
 67
     1
  8
0
100
AcDbBlockEnd
  0
BLOCK
  5
D8
330
D6
100
AcDbEntity
 67
     1
  8
0
100
AcDbBlockBegin
  2
*Paper_Space0
 70
     0
 10
0.0
 20
0.0
 30
0.0
  3
*Paper_Space0
  1

  0
VIEWPORT
  5
1DC6
102
{ACAD_XDICTIONARY
360
1DC7
102
}
330
D6
100
AcDbEntity
 67
     1
  8
0
100
AcDbViewport
 10
128.5
 20
97.5
 30
0.0
 40
314.2260000000001
 41
261.0750063829788
 68
     0
 69
     0
 12
128.5
 22
97.5
 13
0.0
 23
0.0
 14
10.0
 24
10.0
 15
10.0
 25
10.0
 16
0.0
 26
0.0
 36
1.0
 17
0.0
 27
0.0
 37
0.0
 42
50.0
 43
0.0
 44
0.0
 45
261.0750063829788
 50
0.0
 51
0.0
 72
  1000
 90
   557088
  1

281
     0
 71
     1
 74
     0
110
0.0
120
0.0
130
0.0
111
1.0
121
0.0
131
0.0
112
0.0
122
1.0
132
0.0
 79
     0
146
0.0
170
     0
 61
     5
348
EC
292
     1
282
     1
141
0.0
142
0.0
 63
   250
421
  3355443
  0
VIEWPORT
  5
1DCA
102
{ACAD_XDICTIONARY
360
1DCB
102
}
330
D6
100
AcDbEntity
 67
     1
  8
寸法線
100
AcDbViewport
 10
128.5
 20
97.5
 30
0.0
 40
205.6
 41
156.0
 68
     0
 69
     0
 12
34156.24093491147
 22
28028.60257583398
 13
0.0
 23
0.0
 14
10.0
 24
10.0
 15
10.0
 25
10.0
 16
0.0
 26
0.0
 36
1.0
 17
0.0
 27
0.0
 37
0.0
 42
50.0
 43
0.0
 44
0.0
 45
2934.563376320673
 50
0.0
 51
0.0
 72
  1000
 90
   819808
  1

281
     0
 71
     1
 74
     0
110
0.0
120
0.0
130
0.0
111
1.0
121
0.0
131
0.0
112
0.0
122
1.0
132
0.0
 79
     0
146
0.0
170
     0
 61
     5
348
EC
292
     1
282
     1
141
0.0
142
0.0
 63
   250
421
  3355443
  0
ENDBLK
  5
D9
330
D6
100
AcDbEntity
 67
     1
  8
0
100
AcDbBlockEnd
  0
BLOCK
  5
220D
330
220C
100
AcDbEntity
  8
0
100
AcDbBlockBegin
  2
*D1
 70
     1
 10
0.0
 20
0.0
 30
0.0
  3
*D1
  1

  0
LINE
  5
23C9
330
220C
100
AcDbEntity
  8
寸法線
 62
     0
440
 16777216
370
    -2
100
AcDbLine
 10
33631.43934656768
 20
29006.54092820193
 30
0.0
 11
33631.43934656768
 21
29125.35337110758
 31
0.0
  0
LINE
  5
23CA
330
220C
100
AcDbEntity
  8
寸法線
 62
     0
440
 16777216
370
    -2
100
AcDbLine
 10
34255.43934656769
 20
29006.54092820193
 30
0.0
 11
34255.43934656769
 21
29125.35337110758
 31
0.0
  0
LINE
  5
23CB
330
220C
100
AcDbEntity
  8
寸法線
 62
     0
440
 16777216
370
    -2
100
AcDbLine
 10
33633.93934656769
 20
29124.10337110758
 30
0.0
 11
34252.93934656768
 21
29124.10337110758
 31
0.0
  0
SOLID
  5
23CC
330
220C
100
AcDbEntity
  8
寸法線
 62
     0
440
 16777216
100
AcDbTrace
 10
33633.93934656769
 20
29124.52003777425
 30
0.0
 11
33633.93934656769
 21
29123.68670444091
 31
0.0
 12
33631.43934656768
 22
29124.10337110758
 32
0.0
 13
33631.43934656768
 23
29124.10337110758
 33
0.0
  0
SOLID
  5
23CD
330
220C
100
AcDbEntity
  8
寸法線
 62
     0
440
 16777216
100
AcDbTrace
 10
34252.93934656768
 20
29124.52003777425
 30
0.0
 11
34252.93934656768
 21
29123.68670444091
 31
0.0
 12
34255.43934656769
 22
29124.10337110758
 32
0.0
 13
34255.43934656769
 23
29124.10337110758
 33
0.0
  0
MTEXT
  5
23CE
330
220C
100
AcDbEntity
  8
寸法線
 62
     0
440
 16777216
100
AcDbMText
 10
33943.43934656768
 20
29134.93983086202
 30
0.0
 40
20.0
 41
0.0
 46
0.0
 71
     5
 72
     1
  1
624
 73
     1
 44
1.0
  0
POINT
  5
23CF
330
220C
100
AcDbEntity
  8
Defpoints
 62
     0
440
 16777216
100
AcDbPoint
 10
33631.43934656768
 20
29005.91592820192
 30
0.0
  0
POINT
  5
23D0
330
220C
100
AcDbEntity
  8
Defpoints
 62
     0
440
 16777216
100
AcDbPoint
 10
34255.43934656769
 20
29005.91592820192
 30
0.0
  0
POINT
  5
23D1
330
220C
100
AcDbEntity
  8
Defpoints
 62
     0
440
 16777216
100
AcDbPoint
 10
34255.43934656769
 20
29124.10337110758
 30
0.0
  0
ENDBLK
  5
220E
330
220C
100
AcDbEntity
  8
0
100
AcDbBlockEnd
  0
BLOCK
  5
2225
330
2224
100
AcDbEntity
  8
0
100
AcDbBlockBegin
  2
*D2
 70
     1
 10
0.0
 20
0.0
 30
0.0
  3
*D2
  1

  0
LINE
  5
23D2
330
2224
100
AcDbEntity
  8
寸法線
 62
     0
440
 16777216
370
    -2
100
AcDbLine
 10
34255.06434656769
 20
28828.53371882437
 30
0.0
 11
34320.68934656766
 21
28828.53371882437
 31
0.0
  0
LINE
  5
23D3
330
2224
100
AcDbEntity
  8
寸法線
 62
     0
440
 16777216
370
    -2
100
AcDbLine
 10
34255.06434656769
 20
28776.53371882437
 30
0.0
 11
34320.68934656766
 21
28776.53371882437
 31
0.0
  0
LINE
  5
23D4
330
2224
100
AcDbEntity
  8
寸法線
 62
     0
440
 16777216
370
    -2
100
AcDbLine
 10
34319.43934656766
 20
28826.03371882437
 30
0.0
 11
34319.43934656766
 21
28779.03371882437
 31
0.0
  0
SOLID
  5
23D5
330
2224
100
AcDbEntity
  8
寸法線
 62
     0
440
 16777216
100
AcDbTrace
 10
34319.022679901
 20
28826.03371882437
 30
0.0
 11
34319.85601323433
 21
28826.03371882437
 31
0.0
 12
34319.43934656766
 22
28828.53371882437
 32
0.0
 13
34319.43934656766
 23
28828.53371882437
 33
0.0
  0
SOLID
  5
23D6
330
2224
100
AcDbEntity
  8
寸法線
 62
     0
440
 16777216
100
AcDbTrace
 10
34319.022679901
 20
28779.03371882437
 30
0.0
 11
34319.85601323433
 21
28779.03371882437
 31
0.0
 12
34319.43934656766
 22
28776.53371882437
 32
0.0
 13
34319.43934656766
 23
28776.53371882437
 33
0.0
  0
MTEXT
  5
23D7
330
2224
100
AcDbEntity
  8
寸法線
 62
     0
440
 16777216
100
AcDbMText
 10
34308.60288681322
 20
28802.53371882437
 30
0.0
 40
20.0
 41
0.0
 46
0.0
 71
     5
 72
     1
  1
52
 11
0.0000000000000001
 21
1.0
 31
0.0
 73
     1
 44
1.0
  0
POINT
  5
23D8
330
2224
100
AcDbEntity
  8
Defpoints
 62
     0
440
 16777216
100
AcDbPoint
 10
34254.43934656768
 20
28828.53371882437
 30
0.0
  0
POINT
  5
23D9
330
2224
100
AcDbEntity
  8
Defpoints
 62
     0
440
 16777216
100
AcDbPoint
 10
34254.43934656768
 20
28776.53371882437
 30
0.0
  0
POINT
  5
23DA
330
2224
100
AcDbEntity
  8
Defpoints
 62
     0
440
 16777216
100
AcDbPoint
 10
34319.43934656766
 20
28776.53371882437
 30
0.0
  0
ENDBLK
  5
2226
330
2224
100
AcDbEntity
  8
0
100
AcDbBlockEnd
  0
BLOCK
  5
223D
330
223C
100
AcDbEntity
  8
0
100
AcDbBlockBegin
  2
*D3
 70
     1
 10
0.0
 20
0.0
 30
0.0
  3
*D3
  1

  0
LINE
  5
23DB
330
223C
100
AcDbEntity
  8
寸法線
 62
     0
440
 16777216
370
    -2
100
AcDbLine
 10
34255.06434656769
 20
28776.53371882437
 30
0.0
 11
34320.68934656766
 21
28776.53371882437
 31
0.0
  0
LINE
  5
23DC
330
223C
100
AcDbEntity
  8
寸法線
 62
     0
440
 16777216
370
    -2
100
AcDbLine
 10
33983.26434656769
 20
28751.53371882437
 30
0.0
 11
34320.68934656766
 21
28751.53371882437
 31
0.0
  0
LINE
  5
23DD
330
223C
100
AcDbEntity
  8
寸法線
 62
     0
440
 16777216
370
    -2
100
AcDbLine
 10
34319.43934656766
 20
28774.03371882437
 30
0.0
 11
34319.43934656766
 21
28754.03371882437
 31
0.0
  0
LINE
  5
23DE
330
223C
100
AcDbEntity
  8
寸法線
 62
     0
440
 16777216
370
    -2
100
AcDbLine
 10
34319.43934656766
 20
28712.92396377332
 30
0.0
 11
34319.43934656766
 21
28751.53371882437
 31
0.0
  0
MTEXT
  5
23DF
330
223C
100
AcDbEntity
  8
寸法線
 62
     0
440
 16777216
100
AcDbMText
 10
34308.60288681322
 20
28728.11922298206
 30
0.0
 40
20.0
 41
0.0
 46
0.0
 71
     5
 72
     1
  1
25
 11
0.0000000000000001
 21
1.0
 31
0.0
 73
     1
 44
1.0
  0
SOLID
  5
23E0
330
223C
100
AcDbEntity
  8
寸法線
 62
     0
440
 16777216
100
AcDbTrace
 10
34319.022679901
 20
28774.03371882437
 30
0.0
 11
34319.85601323433
 21
28774.03371882437
 31
0.0
 12
34319.43934656766
 22
28776.53371882437
 32
0.0
 13
34319.43934656766
 23
28776.53371882437
 33
0.0
  0
SOLID
  5
23E1
330
223C
100
AcDbEntity
  8
寸法線
 62
     0
440
 16777216
100
AcDbTrace
 10
34319.022679901
 20
28754.03371882437
 30
0.0
 11
34319.85601323433
 21
28754.03371882437
 31
0.0
 12
34319.43934656766
 22
28751.53371882437
 32
0.0
 13
34319.43934656766
 23
28751.53371882437
 33
0.0
  0
POINT
  5
23E2
330
223C
100
AcDbEntity
  8
Defpoints
 62
     0
440
 16777216
100
AcDbPoint
 10
34254.43934656768
 20
28776.53371882437
 30
0.0
  0
POINT
  5
23E3
330
223C
100
AcDbEntity
  8
Defpoints
 62
     0
440
 16777216
100
AcDbPoint
 10
33982.63934656769
 20
28751.53371882437
 30
0.0
  0
POINT
  5
23E4
330
223C
100
AcDbEntity
  8
Defpoints
 62
     0
440
 16777216
100
AcDbPoint
 10
34319.43934656766
 20
28751.53371882437
 30
0.0
  0
ENDBLK
  5
223E
330
223C
100
AcDbEntity
  8
0
100
AcDbBlockEnd
  0
BLOCK
  5
2263
330
2262
100
AcDbEntity
  8
0
100
AcDbBlockBegin
  2
*D4
 70
     1
 10
0.0
 20
0.0
 30
0.0
  3
*D4
  1

  0
LINE
  5
23E5
330
2262
100
AcDbEntity
  8
寸法線
 62
     0
440
 16777216
370
    -2
100
AcDbLine
 10
34429.74170103496
 20
28810.8931547363
 30
0.0
 11
34429.74170103496
 21
28846.12692698659
 31
0.0
  0
LINE
  5
23E6
330
2262
100
AcDbEntity
  8
寸法線
 62
     0
440
 16777216
370
    -2
100
AcDbLine
 10
34461.74170103496
 20
28811.48899208748
 30
0.0
 11
34461.74170103496
 21
28846.12692698659
 31
0.0
  0
LINE
  5
23E7
330
2262
100
AcDbEntity
  8
寸法線
 62
     0
440
 16777216
370
    -2
100
AcDbLine
 10
34432.24170103496
 20
28844.87692698659
 30
0.0
 11
34459.24170103496
 21
28844.87692698659
 31
0.0
  0
SOLID
  5
23E8
330
2262
100
AcDbEntity
  8
寸法線
 62
     0
440
 16777216
100
AcDbTrace
 10
34432.24170103496
 20
28845.29359365325
 30
0.0
 11
34432.24170103496
 21
28844.46026031992
 31
0.0
 12
34429.74170103496
 22
28844.87692698659
 32
0.0
 13
34429.74170103496
 23
28844.87692698659
 33
0.0
  0
SOLID
  5
23E9
330
2262
100
AcDbEntity
  8
寸法線
 62
     0
440
 16777216
100
AcDbTrace
 10
34459.24170103496
 20
28845.29359365325
 30
0.0
 11
34459.24170103496
 21
28844.46026031992
 31
0.0
 12
34461.74170103496
 22
28844.87692698659
 32
0.0
 13
34461.74170103496
 23
28844.87692698659
 33
0.0
  0
MTEXT
  5
23EA
330
2262
100
AcDbEntity
  8
寸法線
 62
     0
440
 16777216
100
AcDbMText
 10
34445.74170103496
 20
28855.72020802342
 30
0.0
 40
20.0
 41
0.0
 46
0.0
 71
     5
 72
     1
  1
32
 73
     1
 44
1.0
  0
POINT
  5
23EB
330
2262
100
AcDbEntity
  8
Defpoints
 62
     0
440
 16777216
100
AcDbPoint
 10
34429.74170103496
 20
28810.26815473631
 30
0.0
  0
POINT
  5
23EC
330
2262
100
AcDbEntity
  8
Defpoints
 62
     0
440
 16777216
100
AcDbPoint
 10
34461.74170103496
 20
28810.86399208748
 30
0.0
  0
POINT
  5
23ED
330
2262
100
AcDbEntity
  8
Defpoints
 62
     0
440
 16777216
100
AcDbPoint
 10
34461.74170103496
 20
28844.87692698659
 30
0.0
  0
ENDBLK
  5
2264
330
2262
100
AcDbEntity
  8
0
100
AcDbBlockEnd
  0
BLOCK
  5
2298
330
2297
100
AcDbEntity
  8
0
100
AcDbBlockBegin
  2
*D5
 70
     1
 10
0.0
 20
0.0
 30
0.0
  3
*D5
  1

  0
LINE
  5
23EE
330
2297
100
AcDbEntity
  8
寸法線
 62
     0
440
 16777216
370
    -2
100
AcDbLine
 10
34421.74170103495
 20
28776.65871917338
 30
0.0
 11
34421.74170103495
 21
28913.90448756838
 31
0.0
  0
LINE
  5
23EF
330
2297
100
AcDbEntity
  8
寸法線
 62
     0
440
 16777216
370
    -2
100
AcDbLine
 10
34445.74170103496
 20
28839.15871917338
 30
0.0
 11
34445.74170103496
 21
28913.90448756838
 31
0.0
  0
LINE
  5
23F0
330
2297
100
AcDbEntity
  8
寸法線
 62
     0
440
 16777216
370
    -2
100
AcDbLine
 10
34443.24170103496
 20
28912.65448756838
 30
0.0
 11
34424.24170103495
 21
28912.65448756838
 31
0.0
  0
LINE
  5
23F1
330
2297
100
AcDbEntity
  8
寸法線
 62
     0
440
 16777216
370
    -2
100
AcDbLine
 10
34421.74170103495
 20
28912.65448756838
 30
0.0
 11
34389.08310621913
 21
28912.65448756838
 31
0.0
  0
SOLID
  5
23F2
330
2297
100
AcDbEntity
  8
寸法線
 62
     0
440
 16777216
100
AcDbTrace
 10
34443.24170103496
 20
28913.07115423504
 30
0.0
 11
34443.24170103496
 21
28912.23782090171
 31
0.0
 12
34445.74170103496
 22
28912.65448756838
 32
0.0
 13
34445.74170103496
 23
28912.65448756838
 33
0.0
  0
SOLID
  5
23F3
330
2297
100
AcDbEntity
  8
寸法線
 62
     0
440
 16777216
100
AcDbTrace
 10
34424.24170103495
 20
28913.07115423504
 30
0.0
 11
34424.24170103495
 21
28912.23782090171
 31
0.0
 12
34421.74170103495
 22
28912.65448756838
 32
0.0
 13
34421.74170103495
 23
28912.65448756838
 33
0.0
  0
MTEXT
  5
23F4
330
2297
100
AcDbEntity
  8
寸法線
 62
     0
440
 16777216
100
AcDbMText
 10
34404.16240362704
 20
28923.32041526278
 30
0.0
 40
20.0
 41
0.0
 46
0.0
 71
     5
 72
     1
  1
24
 73
     1
 44
1.0
  0
POINT
  5
23F5
330
2297
100
AcDbEntity
  8
Defpoints
 62
     0
440
 16777216
100
AcDbPoint
 10
34421.74170103495
 20
28776.03371917338
 30
0.0
  0
POINT
  5
23F6
330
2297
100
AcDbEntity
  8
Defpoints
 62
     0
440
 16777216
100
AcDbPoint
 10
34445.74170103496
 20
28838.53371917338
 30
0.0
  0
POINT
  5
23F7
330
2297
100
AcDbEntity
  8
Defpoints
 62
     0
440
 16777216
100
AcDbPoint
 10
34445.74170103496
 20
28912.65448756838
 30
0.0
  0
ENDBLK
  5
2299
330
2297
100
AcDbEntity
  8
0
100
AcDbBlockEnd
  0
BLOCK
  5
22BC
330
22BB
100
AcDbEntity
  8
0
100
AcDbBlockBegin
  2
*D6
 70
     1
 10
0.0
 20
0.0
 30
0.0
  3
*D6
  1

  0
LINE
  5
23F8
330
22BB
100
AcDbEntity
  8
寸法線
 62
     0
440
 16777216
370
    -2
100
AcDbLine
 10
34445.74170103496
 20
28839.15871917338
 30
0.0
 11
34445.74170103496
 21
28913.90448756838
 31
0.0
  0
LINE
  5
23F9
330
22BB
100
AcDbEntity
  8
寸法線
 62
     0
440
 16777216
370
    -2
100
AcDbLine
 10
34466.74170103495
 20
28776.65871917338
 30
0.0
 11
34466.74170103495
 21
28913.90448756838
 31
0.0
  0
LINE
  5
23FA
330
22BB
100
AcDbEntity
  8
寸法線
 62
     0
440
 16777216
370
    -2
100
AcDbLine
 10
34448.24170103496
 20
28912.65448756838
 30
0.0
 11
34464.24170103495
 21
28912.65448756838
 31
0.0
  0
LINE
  5
23FB
330
22BB
100
AcDbEntity
  8
寸法線
 62
     0
440
 16777216
370
    -2
100
AcDbLine
 10
34497.90238024226
 20
28912.65448756838
 30
0.0
 11
34466.74170103495
 21
28912.65448756838
 31
0.0
  0
MTEXT
  5
23FC
330
22BB
100
AcDbEntity
  8
寸法線
 62
     0
440
 16777216
100
AcDbMText
 10
34484.71257805945
 20
28923.32041526278
 30
0.0
 40
20.0
 41
0.0
 46
0.0
 71
     5
 72
     1
  1
21
 73
     1
 44
1.0
  0
SOLID
  5
23FD
330
22BB
100
AcDbEntity
  8
寸法線
 62
     0
440
 16777216
100
AcDbTrace
 10
34448.24170103496
 20
28913.07115423504
 30
0.0
 11
34448.24170103496
 21
28912.23782090171
 31
0.0
 12
34445.74170103496
 22
28912.65448756838
 32
0.0
 13
34445.74170103496
 23
28912.65448756838
 33
0.0
  0
SOLID
  5
23FE
330
22BB
100
AcDbEntity
  8
寸法線
 62
     0
440
 16777216
100
AcDbTrace
 10
34464.24170103495
 20
28913.07115423504
 30
0.0
 11
34464.24170103495
 21
28912.23782090171
 31
0.0
 12
34466.74170103495
 22
28912.65448756838
 32
0.0
 13
34466.74170103495
 23
28912.65448756838
 33
0.0
  0
POINT
  5
23FF
330
22BB
100
AcDbEntity
  8
Defpoints
 62
     0
440
 16777216
100
AcDbPoint
 10
34445.74170103496
 20
28838.53371917338
 30
0.0
  0
POINT
  5
2400
330
22BB
100
AcDbEntity
  8
Defpoints
 62
     0
440
 16777216
100
AcDbPoint
 10
34466.74170103495
 20
28776.03371917338
 30
0.0
  0
POINT
  5
2401
330
22BB
100
AcDbEntity
  8
Defpoints
 62
     0
440
 16777216
100
AcDbPoint
 10
34466.74170103495
 20
28912.65448756838
 30
0.0
  0
ENDBLK
  5
22BD
330
22BB
100
AcDbEntity
  8
0
100
AcDbBlockEnd
  0
BLOCK
  5
22E2
330
22E1
100
AcDbEntity
  8
0
100
AcDbBlockBegin
  2
*D7
 70
     1
 10
0.0
 20
0.0
 30
0.0
  3
*D7
  1

  0
LINE
  5
2402
330
22E1
100
AcDbEntity
  8
寸法線
 62
     0
440
 16777216
370
    -2
100
AcDbLine
 10
34421.74170103495
 20
28776.65871917338
 30
0.0
 11
34421.74170103495
 21
28956.54318193607
 31
0.0
  0
LINE
  5
2403
330
22E1
100
AcDbEntity
  8
寸法線
 62
     0
440
 16777216
370
    -2
100
AcDbLine
 10
34466.74170103495
 20
28776.65871917338
 30
0.0
 11
34466.74170103495
 21
28956.54318193607
 31
0.0
  0
LINE
  5
2404
330
22E1
100
AcDbEntity
  8
寸法線
 62
     0
440
 16777216
370
    -2
100
AcDbLine
 10
34424.24170103495
 20
28955.29318193607
 30
0.0
 11
34464.24170103495
 21
28955.29318193607
 31
0.0
  0
SOLID
  5
2405
330
22E1
100
AcDbEntity
  8
寸法線
 62
     0
440
 16777216
100
AcDbTrace
 10
34424.24170103495
 20
28955.70984860274
 30
0.0
 11
34424.24170103495
 21
28954.8765152694
 31
0.0
 12
34421.74170103495
 22
28955.29318193607
 32
0.0
 13
34421.74170103495
 23
28955.29318193607
 33
0.0
  0
SOLID
  5
2406
330
22E1
100
AcDbEntity
  8
寸法線
 62
     0
440
 16777216
100
AcDbTrace
 10
34464.24170103495
 20
28955.70984860274
 30
0.0
 11
34464.24170103495
 21
28954.8765152694
 31
0.0
 12
34466.74170103495
 22
28955.29318193607
 32
0.0
 13
34466.74170103495
 23
28955.29318193607
 33
0.0
  0
MTEXT
  5
2407
330
22E1
100
AcDbEntity
  8
寸法線
 62
     0
440
 16777216
100
AcDbMText
 10
34444.24170103495
 20
28966.0887139961
 30
0.0
 40
20.0
 41
0.0
 46
0.0
 71
     5
 72
     1
  1
45
 73
     1
 44
1.0
  0
POINT
  5
2408
330
22E1
100
AcDbEntity
  8
Defpoints
 62
     0
440
 16777216
100
AcDbPoint
 10
34421.74170103495
 20
28776.03371917338
 30
0.0
  0
POINT
  5
2409
330
22E1
100
AcDbEntity
  8
Defpoints
 62
     0
440
 16777216
100
AcDbPoint
 10
34466.74170103495
 20
28776.03371917338
 30
0.0
  0
POINT
  5
240A
330
22E1
100
AcDbEntity
  8
Defpoints
 62
     0
440
 16777216
100
AcDbPoint
 10
34466.74170103495
 20
28955.29318193607
 30
0.0
  0
ENDBLK
  5
22E3
330
22E1
100
AcDbEntity
  8
0
100
AcDbBlockEnd
  0
BLOCK
  5
22FA
330
22F9
100
AcDbEntity
  8
0
100
AcDbBlockBegin
  2
*D8
 70
     1
 10
0.0
 20
0.0
 30
0.0
  3
*D8
  1

  0
LINE
  5
240B
330
22F9
100
AcDbEntity
  8
寸法線
 62
     0
440
 16777216
370
    -2
100
AcDbLine
 10
34445.11670103495
 20
28828.53371917338
 30
0.0
 11
34381.27248238758
 21
28828.53371917338
 31
0.0
  0
LINE
  5
240C
330
22F9
100
AcDbEntity
  8
寸法線
 62
     0
440
 16777216
370
    -2
100
AcDbLine
 10
34445.11670103496
 20
28751.53371917338
 30
0.0
 11
34381.27248238758
 21
28751.53371917338
 31
0.0
  0
LINE
  5
240D
330
22F9
100
AcDbEntity
  8
寸法線
 62
     0
440
 16777216
370
    -2
100
AcDbLine
 10
34382.52248238758
 20
28826.03371917338
 30
0.0
 11
34382.52248238758
 21
28754.03371917338
 31
0.0
  0
SOLID
  5
240E
330
22F9
100
AcDbEntity
  8
寸法線
 62
     0
440
 16777216
100
AcDbTrace
 10
34382.10581572091
 20
28826.03371917338
 30
0.0
 11
34382.93914905424
 21
28826.03371917338
 31
0.0
 12
34382.52248238758
 22
28828.53371917338
 32
0.0
 13
34382.52248238758
 23
28828.53371917338
 33
0.0
  0
SOLID
  5
240F
330
22F9
100
AcDbEntity
  8
寸法線
 62
     0
440
 16777216
100
AcDbTrace
 10
34382.10581572091
 20
28754.03371917338
 30
0.0
 11
34382.93914905424
 21
28754.03371917338
 31
0.0
 12
34382.52248238758
 22
28751.53371917338
 32
0.0
 13
34382.52248238758
 23
28751.53371917338
 33
0.0
  0
MTEXT
  5
2410
330
22F9
100
AcDbEntity
  8
寸法線
 62
     0
440
 16777216
100
AcDbMText
 10
34371.89748238757
 20
28790.03371917339
 30
0.0
 40
20.0
 41
0.0
 46
0.0
 71
     5
 72
     1
  1
77
 11
0.0000000000000001
 21
1.0
 31
0.0
 73
     1
 44
1.0
  0
POINT
  5
2411
330
22F9
100
AcDbEntity
  8
Defpoints
 62
     0
440
 16777216
100
AcDbPoint
 10
34445.74170103495
 20
28828.53371917338
 30
0.0
  0
POINT
  5
2412
330
22F9
100
AcDbEntity
  8
Defpoints
 62
     0
440
 16777216
100
AcDbPoint
 10
34445.74170103496
 20
28751.53371917338
 30
0.0
  0
POINT
  5
2413
330
22F9
100
AcDbEntity
  8
Defpoints
 62
     0
440
 16777216
100
AcDbPoint
 10
34382.52248238758
 20
28751.53371917338
 30
0.0
  0
ENDBLK
  5
22FB
330
22F9
100
AcDbEntity
  8
0
100
AcDbBlockEnd
  0
BLOCK
  5
2312
330
2311
100
AcDbEntity
  8
0
100
AcDbBlockBegin
  2
*D9
 70
     1
 10
0.0
 20
0.0
 30
0.0
  3
*D9
  1

  0
LINE
  5
2414
330
2311
100
AcDbEntity
  8
寸法線
 62
     0
440
 16777216
370
    -2
100
AcDbLine
 10
34255.06434656769
 20
28776.53371882437
 30
0.0
 11
34290.69391788012
 21
28776.53371882437
 31
0.0
  0
LINE
  5
2415
330
2311
100
AcDbEntity
  8
寸法線
 62
     0
440
 16777216
370
    -2
100
AcDbLine
 10
34255.06434656769
 20
28812.28371882437
 30
0.0
 11
34290.69391788012
 21
28812.28371882437
 31
0.0
  0
LINE
  5
2416
330
2311
100
AcDbEntity
  8
寸法線
 62
     0
440
 16777216
370
    -2
100
AcDbLine
 10
34289.44391788012
 20
28779.03371882437
 30
0.0
 11
34289.44391788012
 21
28809.78371882437
 31
0.0
  0
LINE
  5
2417
330
2311
100
AcDbEntity
  8
寸法線
 62
     0
440
 16777216
370
    -2
100
AcDbLine
 10
34289.44391788012
 20
28812.28371882437
 30
0.0
 11
34289.44391788012
 21
28883.65991254879
 31
0.0
  0
SOLID
  5
2418
330
2311
100
AcDbEntity
  8
寸法線
 62
     0
440
 16777216
100
AcDbTrace
 10
34289.02725121345
 20
28779.03371882437
 30
0.0
 11
34289.86058454678
 21
28779.03371882437
 31
0.0
 12
34289.44391788012
 22
28776.53371882437
 32
0.0
 13
34289.44391788012
 23
28776.53371882437
 33
0.0
  0
SOLID
  5
2419
330
2311
100
AcDbEntity
  8
寸法線
 62
     0
440
 16777216
100
AcDbTrace
 10
34289.02725121345
 20
28809.78371882437
 30
0.0
 11
34289.86058454678
 21
28809.78371882437
 31
0.0
 12
34289.44391788012
 22
28812.28371882437
 32
0.0
 13
34289.44391788012
 23
28812.28371882437
 33
0.0
  0
MTEXT
  5
241A
330
2311
100
AcDbEntity
  8
寸法線
 62
     0
440
 16777216
100
AcDbMText
 10
34276.79981828939
 20
28849.22181568658
 30
0.0
 40
20.0
 41
0.0
 46
0.0
 71
     5
 72
     1
  1
35,75
 11
0.0000000000000001
 21
1.0
 31
0.0
 73
     1
 44
1.0
  0
POINT
  5
241B
330
2311
100
AcDbEntity
  8
Defpoints
 62
     0
440
 16777216
100
AcDbPoint
 10
34254.43934656768
 20
28776.53371882437
 30
0.0
  0
POINT
  5
241C
330
2311
100
AcDbEntity
  8
Defpoints
 62
     0
440
 16777216
100
AcDbPoint
 10
34254.43934656768
 20
28812.28371882437
 30
0.0
  0
POINT
  5
241D
330
2311
100
AcDbEntity
  8
Defpoints
 62
     0
440
 16777216
100
AcDbPoint
 10
34289.44391788012
 20
28812.28371882437
 30
0.0
  0
ENDBLK
  5
2313
330
2311
100
AcDbEntity
  8
0
100
AcDbBlockEnd
  0
ENDSEC
  0
SECTION
  2
ENTITIES
  0
LINE
  5
7C2
330
1F
100
AcDbEntity
  8
外形線
100
AcDbLine
 10
34437.49170103496
 20
28772.53371917338
 30
0.0
 11
34453.99170103496
 21
28772.53371917338
 31
0.0
  0
XLINE
  5
7E4
330
1F
100
AcDbEntity
  8
オフセット
100
AcDbXline
 10
32915.44093491146
 20
28102.11527306976
 30
0.0
 11
-1.0
 21
0.0
 31
0.0
  0
LINE
  5
86A
330
1F
100
AcDbEntity
  8
外形線
100
AcDbLine
 10
34466.24170103496
 20
28776.53371917338
 30
0.0
 11
34422.24170103495
 21
28776.53371917338
 31
0.0
  0
ARC
  5
86B
330
1F
100
AcDbEntity
  8
外形線
100
AcDbCircle
 10
34466.24170103496
 20
28776.03371917338
 30
0.0
 40
0.5
100
AcDbArc
 50
0.0
 51
90.0
  0
LINE
  5
86C
330
1F
100
AcDbEntity
  8
外形線
100
AcDbLine
 10
34421.74170103495
 20
28776.03371917338
 30
0.0
 11
34421.74170103495
 21
28757.03371917338
 31
0.0
  0
ARC
  5
86D
102
{ACAD_REACTORS
330
22AF
330
22F7
102
}
330
1F
100
AcDbEntity
  8
外形線
100
AcDbCircle
 10
34422.24170103495
 20
28776.03371917338
 30
0.0
 40
0.5
100
AcDbArc
 50
90.0
 51
180.0
  0
LINE
  5
86E
330
1F
100
AcDbEntity
  8
外形線
100
AcDbLine
 10
34422.24170103495
 20
28756.53371917339
 30
0.0
 11
34428.74170103496
 21
28756.53371917339
 31
0.0
  0
ARC
  5
86F
330
1F
100
AcDbEntity
  8
外形線
100
AcDbCircle
 10
34422.24170103495
 20
28757.03371917338
 30
0.0
 40
0.5
100
AcDbArc
 50
180.0
 51
270.0
  0
LINE
  5
870
102
{ACAD_REACTORS
330
22D5
330
22F7
102
}
330
1F
100
AcDbEntity
  8
外形線
100
AcDbLine
 10
34466.74170103495
 20
28757.03371917338
 30
0.0
 11
34466.74170103495
 21
28776.03371917338
 31
0.0
  0
ARC
  5
871
330
1F
100
AcDbEntity
  8
外形線
100
AcDbCircle
 10
34466.24170103496
 20
28757.03371917338
 30
0.0
 40
0.5
100
AcDbArc
 50
270.0
 51
0.0
  0
XLINE
  5
873
330
1F
100
AcDbEntity
  8
オフセット
100
AcDbXline
 10
32915.44093491146
 20
28273.73237812786
 30
0.0
 11
-1.0
 21
0.0
 31
0.0
  0
LINE
  5
89C
330
1F
100
AcDbEntity
  8
外形線
100
AcDbLine
 10
33795.43934656771
 20
28986.41592820192
 30
0.0
 11
33795.43934656771
 21
28993.91592820192
 31
0.0
  0
ARC
  5
89D
330
1F
100
AcDbEntity
  8
外形線
100
AcDbCircle
 10
33795.93934656771
 20
28986.41592820192
 30
0.0
 40
0.5
100
AcDbArc
 50
180.0
 51
270.0
  0
ARC
  5
89E
330
1F
100
AcDbEntity
  8
外形線
100
AcDbCircle
 10
33795.93934656771
 20
29030.41592820192
 30
0.0
 40
0.5
100
AcDbArc
 50
90.0
 51
180.0
  0
LINE
  5
89F
330
1F
100
AcDbEntity
  8
外形線
100
AcDbLine
 10
33795.93934656771
 20
29030.91592820193
 30
0.0
 11
33816.93934656771
 21
29030.91592820193
 31
0.0
  0
ARC
  5
8A2
330
1F
100
AcDbEntity
  8
外形線
100
AcDbCircle
 10
33816.93934656771
 20
28986.41592820192
 30
0.0
 40
0.5
100
AcDbArc
 50
270.0
 51
0.0
  0
LINE
  5
8A3
330
1F
100
AcDbEntity
  8
外形線
100
AcDbLine
 10
33816.93934656771
 20
28985.91592820192
 30
0.0
 11
33795.93934656771
 21
28985.91592820192
 31
0.0
  0
ARC
  5
8A7
330
1F
100
AcDbEntity
  8
外形線
100
AcDbCircle
 10
33828.93934656771
 20
29030.41592820192
 30
0.0
 40
0.5
100
AcDbArc
 50
0.0
 51
90.0
  0
LINE
  5
8A8
330
1F
100
AcDbEntity
  8
外形線
100
AcDbLine
 10
33828.93934656771
 20
29030.91592820193
 30
0.0
 11
33816.93934656771
 21
29030.91592820193
 31
0.0
  0
LINE
  5
8C4
330
1F
100
AcDbEntity
  8
外形線
100
AcDbLine
 10
33795.43934656771
 20
29017.91592820193
 30
0.0
 11
33795.43934656771
 21
29030.41592820192
 31
0.0
  0
LINE
  5
8C5
330
1F
100
AcDbEntity
  8
外形線
100
AcDbLine
 10
33817.43934656771
 20
28993.91592820192
 30
0.0
 11
33817.43934656771
 21
28986.41592820192
 31
0.0
  0
LINE
  5
8C6
330
1F
100
AcDbEntity
  8
外形線
100
AcDbLine
 10
33829.43934656771
 20
29017.91592820193
 30
0.0
 11
33829.43934656771
 21
29030.41592820192
 31
0.0
  0
LINE
  5
906
330
1F
100
AcDbEntity
  8
外形線
100
AcDbLine
 10
33856.63934656769
 20
29021.91592820191
 30
0.0
 11
33856.63934656769
 21
29017.91592820191
 31
0.0
  0
ARC
  5
907
330
1F
100
AcDbEntity
  8
外形線
100
AcDbCircle
 10
33857.63934656769
 20
29021.91592820191
 30
0.0
 40
1.0
100
AcDbArc
 50
90.0
 51
180.0
  0
LINE
  5
908
330
1F
100
AcDbEntity
  8
外形線
100
AcDbLine
 10
33857.63934656769
 20
28988.91592820191
 30
0.0
 11
33982.63934656769
 21
28988.91592820191
 31
0.0
  0
ARC
  5
909
330
1F
100
AcDbEntity
  8
外形線
100
AcDbCircle
 10
33857.63934656769
 20
28989.91592820191
 30
0.0
 40
1.0
100
AcDbArc
 50
180.0
 51
270.0
  0
LINE
  5
90A
330
1F
100
AcDbEntity
  8
外形線
100
AcDbLine
 10
33983.63934656769
 20
28989.91592820191
 30
0.0
 11
33983.63934656769
 21
28993.91592820192
 31
0.0
  0
ARC
  5
90B
330
1F
100
AcDbEntity
  8
外形線
100
AcDbCircle
 10
33982.63934656769
 20
28989.91592820191
 30
0.0
 40
1.0
100
AcDbArc
 50
270.0
 51
0.0
  0
LINE
  5
90C
330
1F
100
AcDbEntity
  8
外形線
100
AcDbLine
 10
33982.63934656769
 20
29022.91592820191
 30
0.0
 11
33857.63934656769
 21
29022.91592820191
 31
0.0
  0
ARC
  5
90D
330
1F
100
AcDbEntity
  8
外形線
100
AcDbCircle
 10
33982.63934656769
 20
29021.91592820191
 30
0.0
 40
1.0
100
AcDbArc
 50
0.0
 51
90.0
  0
LINE
  5
93A
330
1F
100
AcDbEntity
  8
外形線
100
AcDbLine
 10
33856.63934656769
 20
28993.91592820192
 30
0.0
 11
33856.63934656769
 21
28989.91592820191
 31
0.0
  0
LINE
  5
93B
330
1F
100
AcDbEntity
  8
外形線
100
AcDbLine
 10
33983.63934656769
 20
29017.91592820191
 30
0.0
 11
33983.63934656769
 21
29021.91592820191
 31
0.0
  0
LINE
  5
981
330
1F
100
AcDbEntity
  8
外形線
100
AcDbLine
 10
34462.74170103496
 20
28776.53371917338
 30
0.0
 11
34462.74170103496
 21
28752.53371917338
 31
0.0
  0
LINE
  5
982
102
{ACAD_REACTORS
330
230F
102
}
330
1F
100
AcDbEntity
  8
外形線
100
AcDbLine
 10
34461.74170103496
 20
28751.53371917338
 30
0.0
 11
34429.74170103496
 21
28751.53371917338
 31
0.0
  0
ARC
  5
983
330
1F
100
AcDbEntity
  8
外形線
100
AcDbCircle
 10
34429.74170103496
 20
28752.53371917338
 30
0.0
 40
1.0
100
AcDbArc
 50
180.0
 51
270.0
  0
ARC
  5
984
330
1F
100
AcDbEntity
  8
外形線
100
AcDbCircle
 10
34461.74170103496
 20
28752.53371917338
 30
0.0
 40
1.0
100
AcDbArc
 50
270.0
 51
0.0
  0
LINE
  5
985
330
1F
100
AcDbEntity
  8
外形線
100
AcDbLine
 10
34428.74170103496
 20
28752.53371917338
 30
0.0
 11
34428.74170103496
 21
28776.53371917338
 31
0.0
  0
ARC
  5
98D
330
1F
100
AcDbEntity
  8
外形線
100
AcDbCircle
 10
34444.59825068629
 20
28772.4742942315
 30
0.0
 40
6.479445445243836
100
AcDbArc
 50
322.5430267977124
 51
0.5254841836972296
  0
LINE
  5
98E
330
1F
100
AcDbEntity
  8
外形線
100
AcDbLine
 10
34449.74170103496
 20
28768.53371917338
 30
0.0
 11
34451.74170103496
 21
28768.53371917338
 31
0.0
  0
LINE
  5
98F
330
1F
100
AcDbEntity
  8
外形線
100
AcDbLine
 10
34451.74170103496
 20
28768.53371917338
 30
0.0
 11
34451.74170103496
 21
28772.53371917338
 31
0.0
  0
LINE
  5
990
330
1F
100
AcDbEntity
  8
外形線
100
AcDbLine
 10
34449.74170103496
 20
28772.53371917338
 30
0.0
 11
34449.74170103496
 21
28768.53371917338
 31
0.0
  0
ARC
  5
991
330
1F
100
AcDbEntity
  8
外形線
100
AcDbCircle
 10
34446.88515138364
 20
28772.4742942315
 30
0.0
 40
6.479445445243836
100
AcDbArc
 50
179.4745158163027
 51
217.4569732022549
  0
LINE
  5
992
330
1F
100
AcDbEntity
  8
外形線
100
AcDbLine
 10
34441.74170103496
 20
28768.53371917338
 30
0.0
 11
34439.74170103496
 21
28768.53371917338
 31
0.0
  0
LINE
  5
993
330
1F
100
AcDbEntity
  8
外形線
100
AcDbLine
 10
34439.74170103496
 20
28768.53371917338
 30
0.0
 11
34439.74170103496
 21
28772.53371917338
 31
0.0
  0
LINE
  5
994
330
1F
100
AcDbEntity
  8
外形線
100
AcDbLine
 10
34441.74170103496
 20
28772.53371917338
 30
0.0
 11
34441.74170103496
 21
28768.53371917338
 31
0.0
  0
LINE
  5
99A
330
1F
100
AcDbEntity
  8
外形線
100
AcDbLine
 10
34462.74170103496
 20
28756.53371917339
 30
0.0
 11
34466.24170103496
 21
28756.53371917339
 31
0.0
  0
XLINE
  5
9A0
330
1F
100
AcDbEntity
  8
オフセット
100
AcDbXline
 10
32915.44093491146
 20
28288.23237812785
 30
0.0
 11
-1.0
 21
0.0
 31
0.0
  0
XLINE
  5
9A1
330
1F
100
AcDbEntity
  8
オフセット
100
AcDbXline
 10
32915.44093491146
 20
28259.23237812785
 30
0.0
 11
-1.0
 21
0.0
 31
0.0
  0
XLINE
  5
9A2
330
1F
100
AcDbEntity
  8
オフセット
100
AcDbXline
 10
32915.44093491146
 20
28288.73237812786
 30
0.0
 11
-1.0
 21
0.0
 31
0.0
  0
XLINE
  5
9A3
330
1F
100
AcDbEntity
  8
オフセット
100
AcDbXline
 10
32915.44093491146
 20
28258.73237812785
 30
0.0
 11
-1.0
 21
0.0
 31
0.0
  0
XLINE
  5
9A6
330
1F
100
AcDbEntity
  8
オフセット
100
AcDbXline
 10
32915.44093491146
 20
28289.23237812785
 30
0.0
 11
-1.0
 21
0.0
 31
0.0
  0
XLINE
  5
9A7
330
1F
100
AcDbEntity
  8
オフセット
100
AcDbXline
 10
32915.44093491146
 20
28258.23237812786
 30
0.0
 11
-1.0
 21
0.0
 31
0.0
  0
XLINE
  5
9C5
330
1F
100
AcDbEntity
  8
オフセット
100
AcDbXline
 10
32930.94093491146
 20
27902.11527306976
 30
0.0
 11
0.0
 21
-1.0
 31
0.0
  0
LINE
  5
B1F
330
1F
100
AcDbEntity
  8
枠線
100
AcDbLine
 10
34528.24093491148
 20
28322.23237812787
 30
0.0
 11
34528.24093491148
 21
28712.23237812787
 31
0.0
  0
LINE
  5
B20
330
1F
100
AcDbEntity
  8
枠線
100
AcDbLine
 10
34528.24093491148
 20
28712.23237812787
 30
0.0
 11
34948.24093491148
 21
28712.23237812787
 31
0.0
  0
LINE
  5
B21
330
1F
100
AcDbEntity
  8
枠線
100
AcDbLine
 10
34528.24093491148
 20
28364.23237812787
 30
0.0
 11
34948.24093491148
 21
28364.23237812787
 31
0.0
  0
LINE
  5
B22
330
1F
100
AcDbEntity
  8
枠線
100
AcDbLine
 10
34528.24093491148
 20
28406.23237812787
 30
0.0
 11
34948.24093491148
 21
28406.23237812787
 31
0.0
  0
LINE
  5
B23
330
1F
100
AcDbEntity
  8
枠線
100
AcDbLine
 10
34528.24093491148
 20
28448.23237812787
 30
0.0
 11
34948.24093491148
 21
28448.23237812787
 31
0.0
  0
LINE
  5
B24
330
1F
100
AcDbEntity
  8
枠線
100
AcDbLine
 10
34528.24093491148
 20
28490.23237812787
 30
0.0
 11
34948.24093491148
 21
28490.23237812787
 31
0.0
  0
LINE
  5
B25
330
1F
100
AcDbEntity
  8
枠線
100
AcDbLine
 10
34528.24093491148
 20
28532.23237812787
 30
0.0
 11
34948.24093491148
 21
28532.23237812787
 31
0.0
  0
LINE
  5
B26
330
1F
100
AcDbEntity
  8
枠線
100
AcDbLine
 10
34528.24093491148
 20
28574.23237812787
 30
0.0
 11
34948.24093491148
 21
28574.23237812787
 31
0.0
  0
LINE
  5
B27
330
1F
100
AcDbEntity
  8
枠線
100
AcDbLine
 10
34528.24093491148
 20
28616.23237812787
 30
0.0
 11
34948.24093491148
 21
28616.23237812787
 31
0.0
  0
LINE
  5
B28
330
1F
100
AcDbEntity
  8
枠線
100
AcDbLine
 10
34528.24093491148
 20
28658.23237812787
 30
0.0
 11
34948.24093491148
 21
28658.23237812787
 31
0.0
  0
LINE
  5
B29
330
1F
100
AcDbEntity
  8
枠線
100
AcDbLine
 10
34630.24093491148
 20
28712.23237812787
 30
0.0
 11
34630.24093491148
 21
28322.23237812787
 31
0.0
  0
LINE
  5
B2A
330
1F
100
AcDbEntity
  8
枠線
100
AcDbLine
 10
34636.24093491147
 20
28712.23237812787
 30
0.0
 11
34636.24093491147
 21
28322.23237812787
 31
0.0
  0
LINE
  5
B2B
330
1F
100
AcDbEntity
  8
枠線
100
AcDbLine
 10
34696.24093491148
 20
28448.23237812787
 30
0.0
 11
34696.24093491148
 21
28406.23237812787
 31
0.0
  0
LINE
  5
B2C
330
1F
100
AcDbEntity
  8
枠線
100
AcDbLine
 10
34702.24093491148
 20
28448.23237812787
 30
0.0
 11
34702.24093491148
 21
28406.23237812787
 31
0.0
  0
LINE
  5
B2D
330
1F
100
AcDbEntity
  8
枠線
100
AcDbLine
 10
34822.24093491148
 20
28448.23237812787
 30
0.0
 11
34822.24093491148
 21
28406.23237812787
 31
0.0
  0
LINE
  5
B2E
330
1F
100
AcDbEntity
  8
枠線
100
AcDbLine
 10
34828.24093491148
 20
28448.23237812787
 30
0.0
 11
34828.24093491148
 21
28406.23237812787
 31
0.0
  0
LINE
  5
B2F
330
1F
100
AcDbEntity
  8
枠線
100
AcDbLine
 10
34888.24093491148
 20
28448.23237812787
 30
0.0
 11
34888.24093491148
 21
28406.23237812787
 31
0.0
  0
LINE
  5
B30
330
1F
100
AcDbEntity
  8
枠線
100
AcDbLine
 10
34762.24093491147
 20
28448.23237812787
 30
0.0
 11
34762.24093491147
 21
28406.23237812787
 31
0.0
  0
LINE
  5
B31
330
1F
100
AcDbEntity
  8
枠線
100
AcDbLine
 10
34468.24093491148
 20
29444.23237812787
 30
0.0
 11
34468.24093491148
 21
29204.23237812787
 31
0.0
  0
LINE
  5
B32
330
1F
100
AcDbEntity
  8
枠線
100
AcDbLine
 10
34528.24093491148
 20
29444.23237812787
 30
0.0
 11
34528.24093491148
 21
29204.23237812787
 31
0.0
  0
LINE
  5
B33
330
1F
100
AcDbEntity
  8
枠線
100
AcDbLine
 10
34534.24093491148
 20
29204.23237812787
 30
0.0
 11
34534.24093491148
 21
29444.23237812787
 31
0.0
  0
LINE
  5
B34
330
1F
100
AcDbEntity
  8
枠線
100
AcDbLine
 10
34468.24093491148
 20
29384.23237812787
 30
0.0
 11
34948.24093491148
 21
29384.23237812787
 31
0.0
  0
LINE
  5
B35
330
1F
100
AcDbEntity
  8
枠線
100
AcDbLine
 10
34468.24093491148
 20
29348.23237812787
 30
0.0
 11
34948.24093491148
 21
29348.23237812787
 31
0.0
  0
LINE
  5
B36
330
1F
100
AcDbEntity
  8
枠線
100
AcDbLine
 10
34468.24093491148
 20
29312.23237812787
 30
0.0
 11
34948.24093491148
 21
29312.23237812787
 31
0.0
  0
LINE
  5
B37
330
1F
100
AcDbEntity
  8
枠線
100
AcDbLine
 10
34468.24093491148
 20
29276.23237812787
 30
0.0
 11
34948.24093491148
 21
29276.23237812787
 31
0.0
  0
LINE
  5
B38
330
1F
100
AcDbEntity
  8
枠線
100
AcDbLine
 10
34468.24093491148
 20
29240.23237812787
 30
0.0
 11
34948.24093491148
 21
29240.23237812787
 31
0.0
  0
LINE
  5
B39
330
1F
100
AcDbEntity
  8
枠線
100
AcDbLine
 10
34468.24093491148
 20
29204.23237812787
 30
0.0
 11
34948.24093491148
 21
29204.23237812787
 31
0.0
  0
LINE
  5
B3A
330
1F
100
AcDbEntity
  8
枠線
100
AcDbLine
 10
34714.24093491147
 20
29444.23237812787
 30
0.0
 11
34714.24093491147
 21
29204.23237812787
 31
0.0
  0
LINE
  5
B3B
330
1F
100
AcDbEntity
  8
枠線
100
AcDbLine
 10
34831.24093491148
 20
29444.23237812787
 30
0.0
 11
34831.24093491148
 21
29204.23237812787
 31
0.0
  0
LINE
  5
B3C
330
1F
100
AcDbEntity
  8
外形線
100
AcDbLine
 10
33346.24093491147
 20
29462.23237812787
 30
0.0
 11
33346.24093491147
 21
28304.23237812787
 31
0.0
  0
LINE
  5
B3D
330
1F
100
AcDbEntity
  8
外形線
100
AcDbLine
 10
34966.24093491148
 20
29462.23237812787
 30
0.0
 11
33346.24093491147
 21
29462.23237812787
 31
0.0
  0
LINE
  5
B3E
330
1F
100
AcDbEntity
  8
枠線
100
AcDbLine
 10
33364.24093491148
 20
29444.23237812787
 30
0.0
 11
33364.24093491148
 21
28322.23237812787
 31
0.0
  0
LINE
  5
B3F
330
1F
100
AcDbEntity
  8
枠線
100
AcDbLine
 10
33364.24093491148
 20
28322.23237812787
 30
0.0
 11
34948.24093491148
 21
28322.23237812787
 31
0.0
  0
LINE
  5
B40
330
1F
100
AcDbEntity
  8
枠線
100
AcDbLine
 10
34948.24093491148
 20
28322.23237812787
 30
0.0
 11
34948.24093491148
 21
29444.23237812787
 31
0.0
  0
LINE
  5
B41
330
1F
100
AcDbEntity
  8
枠線
100
AcDbLine
 10
34948.24093491148
 20
29444.23237812787
 30
0.0
 11
33364.24093491148
 21
29444.23237812787
 31
0.0
  0
LINE
  5
B42
330
1F
100
AcDbEntity
  8
枠線
100
AcDbLine
 10
34462.24093491148
 20
29444.23237812787
 30
0.0
 11
34462.24093491148
 21
29204.23237812787
 31
0.0
  0
LINE
  5
B43
330
1F
100
AcDbEntity
  8
枠線
100
AcDbLine
 10
34468.24093491148
 20
29204.23237812787
 30
0.0
 11
34468.24093491148
 21
29444.23237812787
 31
0.0
  0
LINE
  5
B44
330
1F
100
AcDbEntity
  8
枠線
100
AcDbLine
 10
33982.24093491148
 20
29444.23237812787
 30
0.0
 11
33982.24093491148
 21
29204.23237812787
 31
0.0
  0
LINE
  5
B45
330
1F
100
AcDbEntity
  8
枠線
100
AcDbLine
 10
34042.24093491148
 20
29444.23237812787
 30
0.0
 11
34042.24093491148
 21
29204.23237812787
 31
0.0
  0
LINE
  5
B46
330
1F
100
AcDbEntity
  8
枠線
100
AcDbLine
 10
34048.24093491148
 20
29204.23237812787
 30
0.0
 11
34048.24093491148
 21
29444.23237812787
 31
0.0
  0
LINE
  5
B47
330
1F
100
AcDbEntity
  8
枠線
100
AcDbLine
 10
33982.24093491148
 20
29384.23237812787
 30
0.0
 11
34462.24093491148
 21
29384.23237812787
 31
0.0
  0
LINE
  5
B48
330
1F
100
AcDbEntity
  8
枠線
100
AcDbLine
 10
33982.24093491148
 20
29348.23237812787
 30
0.0
 11
34462.24093491148
 21
29348.23237812787
 31
0.0
  0
LINE
  5
B49
330
1F
100
AcDbEntity
  8
枠線
100
AcDbLine
 10
33982.24093491148
 20
29312.23237812787
 30
0.0
 11
34462.24093491148
 21
29312.23237812787
 31
0.0
  0
LINE
  5
B4A
330
1F
100
AcDbEntity
  8
枠線
100
AcDbLine
 10
33982.24093491148
 20
29276.23237812787
 30
0.0
 11
34462.24093491148
 21
29276.23237812787
 31
0.0
  0
LINE
  5
B4B
330
1F
100
AcDbEntity
  8
枠線
100
AcDbLine
 10
33982.24093491148
 20
29240.23237812787
 30
0.0
 11
34462.24093491148
 21
29240.23237812787
 31
0.0
  0
LINE
  5
B4C
330
1F
100
AcDbEntity
  8
枠線
100
AcDbLine
 10
33982.24093491148
 20
29204.23237812787
 30
0.0
 11
34462.24093491148
 21
29204.23237812787
 31
0.0
  0
LINE
  5
B4D
330
1F
100
AcDbEntity
  8
枠線
100
AcDbLine
 10
34228.24093491148
 20
29444.23237812787
 30
0.0
 11
34228.24093491148
 21
29204.23237812787
 31
0.0
  0
LINE
  5
B4E
330
1F
100
AcDbEntity
  8
枠線
100
AcDbLine
 10
34345.24093491148
 20
29444.23237812787
 30
0.0
 11
34345.24093491148
 21
29204.23237812787
 31
0.0
  0
LINE
  5
B4F
330
1F
100
AcDbEntity
  8
枠線
100
AcDbLine
 10
33982.24093491148
 20
29204.23237812787
 30
0.0
 11
33982.24093491148
 21
29444.23237812787
 31
0.0
  0
LINE
  5
B50
330
1F
100
AcDbEntity
  8
外形線
100
AcDbLine
 10
34966.24093491148
 20
29462.23237812787
 30
0.0
 11
34966.24093491148
 21
28304.23237812787
 31
0.0
  0
LINE
  5
B51
330
1F
100
AcDbEntity
  8
外形線
100
AcDbLine
 10
34966.24093491148
 20
28304.23237812787
 30
0.0
 11
33346.24093491147
 21
28304.23237812787
 31
0.0
  0
MTEXT
  5
B52
330
1F
100
AcDbEntity
  8
寸法線
100
AcDbMText
 10
34137.11638898822
 20
29414.1938412054
 30
0.0
 40
30.00000000000001
 41
174.8674808517826
 46
0.0
 71
     5
 72
     5
  1
{\fMS PGothic|b0|i0|c128|p50;部品名}
 73
     1
 44
1.0
1001
ACAD
1000
ACAD_MTEXT_COLUMN_INFO_BEGIN
1070
    75
1070
     2
1070
    79
1070
     0
1070
    76
1070
     1
1070
    78
1070
     0
1070
    48
1040
174.8674808517826
1070
    49
1040
12.5
1070
    50
1070
     1
1040
0.0
1000
ACAD_MTEXT_COLUMN_INFO_END
  0
MTEXT
  5
B53
330
1F
100
AcDbEntity
  8
寸法線
100
AcDbMText
 10
34285.61638898813
 20
29414.27906847816
 30
0.0
 40
30.00000000000001
 41
109.1764692682045
 46
0.0
 71
     5
 72
     5
  1
{\fMS PGothic|b0|i0|c128|p50;材質}
 73
     1
 44
1.0
1001
ACAD
1000
ACAD_MTEXT_COLUMN_INFO_BEGIN
1070
    75
1070
     2
1070
    79
1070
     0
1070
    76
1070
     1
1070
    78
1070
     0
1070
    48
1040
109.1764692682045
1070
    49
1040
12.5
1070
    50
1070
     1
1040
0.0
1000
ACAD_MTEXT_COLUMN_INFO_END
  0
MTEXT
  5
B54
330
1F
100
AcDbEntity
  8
寸法線
100
AcDbMText
 10
34402.61638898822
 20
29414.10861393269
 30
0.0
 40
30.00000000000001
 41
115.2368875816973
 46
0.0
 71
     5
 72
     5
  1
{\fMS PGothic|b0|i0|c128|p50;摘要}
 73
     1
 44
1.0
1001
ACAD
1000
ACAD_MTEXT_COLUMN_INFO_BEGIN
1070
    75
1070
     2
1070
    79
1070
     0
1070
    76
1070
     1
1070
    78
1070
     0
1070
    48
1040
115.2368875816973
1070
    49
1040
12.5
1070
    50
1070
     1
1040
0.0
1000
ACAD_MTEXT_COLUMN_INFO_END
  0
MTEXT
  5
B55
330
1F
100
AcDbEntity
  8
寸法線
100
AcDbMText
 10
34013.36548083485
 20
29413.02691770291
 30
0.0
 40
18.0
 41
10.0
 46
0.0
 71
     5
 72
     5
  1
{\fMS PGothic|b0|i0|c128|p50;部番}
 73
     1
 44
1.0
1001
ACAD
1000
ACAD_MTEXT_COLUMN_INFO_BEGIN
1070
    75
1070
     2
1070
    79
1070
     0
1070
    76
1070
     1
1070
    78
1070
     0
1070
    48
1040
10.0
1070
    49
1040
12.5
1070
    50
1070
     1
1040
0.0
1000
ACAD_MTEXT_COLUMN_INFO_END
  0
MTEXT
  5
B56
330
1F
100
AcDbEntity
  8
寸法線
100
AcDbMText
 10
34012.24093491148
 20
29366.24465360855
 30
0.0
 40
21.00000000000001
 41
10.0
 46
0.0
 71
     5
 72
     5
  1
{\fMS PGothic|b0|i0|c128|p50;①}
 73
     1
 44
1.0
1001
ACAD
1000
ACAD_MTEXT_COLUMN_INFO_BEGIN
1070
    75
1070
     2
1070
    79
1070
     0
1070
    76
1070
     1
1070
    78
1070
     0
1070
    48
1040
10.0
1070
    49
1040
12.5
1070
    50
1070
     1
1040
0.0
1000
ACAD_MTEXT_COLUMN_INFO_END
  0
MTEXT
  5
B57
330
1F
100
AcDbEntity
  8
寸法線
100
AcDbMText
 10
34012.24093491148
 20
29330.24465360855
 30
0.0
 40
21.00000000000001
 41
10.0
 46
0.0
 71
     5
 72
     5
  1
{\fMS PGothic|b0|i0|c128|p50;②}
 73
     1
 44
1.0
1001
ACAD
1000
ACAD_MTEXT_COLUMN_INFO_BEGIN
1070
    75
1070
     2
1070
    79
1070
     0
1070
    76
1070
     1
1070
    78
1070
     0
1070
    48
1040
10.0
1070
    49
1040
12.5
1070
    50
1070
     1
1040
0.0
1000
ACAD_MTEXT_COLUMN_INFO_END
  0
MTEXT
  5
B58
330
1F
100
AcDbEntity
  8
寸法線
100
AcDbMText
 10
34012.24093491148
 20
29294.24465360858
 30
0.0
 40
21.00000000000001
 41
10.0
 46
0.0
 71
     5
 72
     5
  1
{\fMS PGothic|b0|i0|c128|p50;③}
 73
     1
 44
1.0
1001
ACAD
1000
ACAD_MTEXT_COLUMN_INFO_BEGIN
1070
    75
1070
     2
1070
    79
1070
     0
1070
    76
1070
     1
1070
    78
1070
     0
1070
    48
1040
10.0
1070
    49
1040
12.5
1070
    50
1070
     1
1040
0.0
1000
ACAD_MTEXT_COLUMN_INFO_END
  0
MTEXT
  5
B59
330
1F
100
AcDbEntity
  8
寸法線
100
AcDbMText
 10
34012.24093491148
 20
29258.24465360855
 30
0.0
 40
21.00000000000001
 41
10.0
 46
0.0
 71
     5
 72
     5
  1
{\fMS PGothic|b0|i0|c128|p50;④}
 73
     1
 44
1.0
1001
ACAD
1000
ACAD_MTEXT_COLUMN_INFO_BEGIN
1070
    75
1070
     2
1070
    79
1070
     0
1070
    76
1070
     1
1070
    78
1070
     0
1070
    48
1040
10.0
1070
    49
1040
12.5
1070
    50
1070
     1
1040
0.0
1000
ACAD_MTEXT_COLUMN_INFO_END
  0
MTEXT
  5
B5A
330
1F
100
AcDbEntity
  8
寸法線
100
AcDbMText
 10
34012.24093491148
 20
29222.24465360855
 30
0.0
 40
21.00000000000001
 41
10.0
 46
0.0
 71
     5
 72
     5
  1
{\fMS PGothic|b0|i0|c128|p50;⑤}
 73
     1
 44
1.0
1001
ACAD
1000
ACAD_MTEXT_COLUMN_INFO_BEGIN
1070
    75
1070
     2
1070
    79
1070
     0
1070
    76
1070
     1
1070
    78
1070
     0
1070
    48
1040
10.0
1070
    49
1040
12.5
1070
    50
1070
     1
1040
0.0
1000
ACAD_MTEXT_COLUMN_INFO_END
  0
MTEXT
  5
B5B
330
1F
100
AcDbEntity
  8
寸法線
100
AcDbMText
 10
34623.11638898813
 20
29414.1938412054
 30
0.0
 40
30.00000000000001
 41
208.789682174116
 46
0.0
 71
     5
 72
     5
  1
{\fMS PGothic|b0|i0|c128|p50;部品名}
 73
     1
 44
1.0
1001
ACAD
1000
ACAD_MTEXT_COLUMN_INFO_BEGIN
1070
    75
1070
     2
1070
    79
1070
     0
1070
    76
1070
     1
1070
    78
1070
     0
1070
    48
1040
208.789682174116
1070
    49
1040
12.5
1070
    50
1070
     1
1040
0.0
1000
ACAD_MTEXT_COLUMN_INFO_END
  0
MTEXT
  5
B5C
330
1F
100
AcDbEntity
  8
寸法線
100
AcDbMText
 10
34771.61638898813
 20
29414.27906847816
 30
0.0
 40
30.00000000000001
 41
121.2416595124814
 46
0.0
 71
     5
 72
     5
  1
{\fMS PGothic|b0|i0|c128|p50;材質}
 73
     1
 44
1.0
1001
ACAD
1000
ACAD_MTEXT_COLUMN_INFO_BEGIN
1070
    75
1070
     2
1070
    79
1070
     0
1070
    76
1070
     1
1070
    78
1070
     0
1070
    48
1040
121.2416595124814
1070
    49
1040
12.5
1070
    50
1070
     1
1040
0.0
1000
ACAD_MTEXT_COLUMN_INFO_END
  0
MTEXT
  5
B5D
330
1F
100
AcDbEntity
  8
寸法線
100
AcDbMText
 10
34888.61638898813
 20
29414.10861393269
 30
0.0
 40
30.00000000000001
 41
124.8927565777121
 46
0.0
 71
     5
 72
     5
  1
{\fMS PGothic|b0|i0|c128|p50;摘要}
 73
     1
 44
1.0
1001
ACAD
1000
ACAD_MTEXT_COLUMN_INFO_BEGIN
1070
    75
1070
     2
1070
    79
1070
     0
1070
    76
1070
     1
1070
    78
1070
     0
1070
    48
1040
124.8927565777121
1070
    49
1040
12.5
1070
    50
1070
     1
1040
0.0
1000
ACAD_MTEXT_COLUMN_INFO_END
  0
MTEXT
  5
B5E
330
1F
100
AcDbEntity
  8
寸法線
100
AcDbMText
 10
34499.36548083491
 20
29413.02691770291
 30
0.0
 40
18.0
 41
10.0
 46
0.0
 71
     5
 72
     5
  1
{\fMS PGothic|b0|i0|c128|p50;部番}
 73
     1
 44
1.0
1001
ACAD
1000
ACAD_MTEXT_COLUMN_INFO_BEGIN
1070
    75
1070
     2
1070
    79
1070
     0
1070
    76
1070
     1
1070
    78
1070
     0
1070
    48
1040
10.0
1070
    49
1040
12.5
1070
    50
1070
     1
1040
0.0
1000
ACAD_MTEXT_COLUMN_INFO_END
  0
MTEXT
  5
B5F
330
1F
100
AcDbEntity
  8
寸法線
100
AcDbMText
 10
34498.24093491153
 20
29366.24465360855
 30
0.0
 40
21.00000000000001
 41
10.0
 46
0.0
 71
     5
 72
     5
  1
{\fMS PGothic|b0|i0|c128|p50;⑥}
 73
     1
 44
1.0
1001
ACAD
1000
ACAD_MTEXT_COLUMN_INFO_BEGIN
1070
    75
1070
     2
1070
    79
1070
     0
1070
    76
1070
     1
1070
    78
1070
     0
1070
    48
1040
10.0
1070
    49
1040
12.5
1070
    50
1070
     1
1040
0.0
1000
ACAD_MTEXT_COLUMN_INFO_END
  0
MTEXT
  5
B60
330
1F
100
AcDbEntity
  8
寸法線
100
AcDbMText
 10
34498.24093491153
 20
29330.24465360855
 30
0.0
 40
21.00000000000001
 41
10.0
 46
0.0
 71
     5
 72
     5
  1
{\fMS PGothic|b0|i0|c128|p50;⑦}
 73
     1
 44
1.0
1001
ACAD
1000
ACAD_MTEXT_COLUMN_INFO_BEGIN
1070
    75
1070
     2
1070
    79
1070
     0
1070
    76
1070
     1
1070
    78
1070
     0
1070
    48
1040
10.0
1070
    49
1040
12.5
1070
    50
1070
     1
1040
0.0
1000
ACAD_MTEXT_COLUMN_INFO_END
  0
MTEXT
  5
B61
330
1F
100
AcDbEntity
  8
寸法線
100
AcDbMText
 10
34498.24093491153
 20
29294.24465360858
 30
0.0
 40
21.00000000000001
 41
10.0
 46
0.0
 71
     5
 72
     5
  1
{\fMS PGothic|b0|i0|c128|p50;⑧}
 73
     1
 44
1.0
1001
ACAD
1000
ACAD_MTEXT_COLUMN_INFO_BEGIN
1070
    75
1070
     2
1070
    79
1070
     0
1070
    76
1070
     1
1070
    78
1070
     0
1070
    48
1040
10.0
1070
    49
1040
12.5
1070
    50
1070
     1
1040
0.0
1000
ACAD_MTEXT_COLUMN_INFO_END
  0
MTEXT
  5
B62
330
1F
100
AcDbEntity
  8
寸法線
100
AcDbMText
 10
34498.24093491153
 20
29258.24465360855
 30
0.0
 40
21.00000000000001
 41
10.0
 46
0.0
 71
     5
 72
     5
  1
{\fMS PGothic|b0|i0|c128|p50;⑨}
 73
     1
 44
1.0
1001
ACAD
1000
ACAD_MTEXT_COLUMN_INFO_BEGIN
1070
    75
1070
     2
1070
    79
1070
     0
1070
    76
1070
     1
1070
    78
1070
     0
1070
    48
1040
10.0
1070
    49
1040
12.5
1070
    50
1070
     1
1040
0.0
1000
ACAD_MTEXT_COLUMN_INFO_END
  0
MTEXT
  5
B63
330
1F
100
AcDbEntity
  8
寸法線
100
AcDbMText
 10
34498.24093491153
 20
29222.24465360855
 30
0.0
 40
21.00000000000001
 41
10.0
 46
0.0
 71
     5
 72
     5
  1
{\fMS PGothic|b0|i0|c128|p50;⑩}
 73
     1
 44
1.0
1001
ACAD
1000
ACAD_MTEXT_COLUMN_INFO_BEGIN
1070
    75
1070
     2
1070
    79
1070
     0
1070
    76
1070
     1
1070
    78
1070
     0
1070
    48
1040
10.0
1070
    49
1040
12.5
1070
    50
1070
     1
1040
0.0
1000
ACAD_MTEXT_COLUMN_INFO_END
  0
TEXT
  5
B64
330
1F
100
AcDbEntity
  8
寸法線
100
AcDbText
 10
34642.29498834434
 20
28689.92047589611
 30
0.0
 40
12.9
  1
広告灯内用放電灯器具（LEDランプ用）
100
AcDbText
  0
TEXT
  5
B65
330
1F
100
AcDbEntity
  8
寸法線
100
AcDbText
 10
34642.84125018251
 20
28670.80502638053
 30
0.0
 40
9.0
  1
AC100/200V　　50/60Hz
100
AcDbText
  0
MTEXT
  5
B66
330
1F
100
AcDbEntity
  8
寸法線
100
AcDbMText
 10
34579.24093491147
 20
28635.39930591076
 30
0.0
 40
21.00000000000001
 41
134.5371276319638
 46
0.0
 71
     5
 72
     5
  1
{\fMS PGothic|b0|i0|c128|p50;品名}
 73
     1
 44
1.0
1001
ACAD
1000
ACAD_MTEXT_COLUMN_INFO_BEGIN
1070
    75
1070
     2
1070
    79
1070
     0
1070
    76
1070
     1
1070
    78
1070
     0
1070
    48
1040
134.5371276319638
1070
    49
1040
12.5
1070
    50
1070
     1
1040
0.0
1000
ACAD_MTEXT_COLUMN_INFO_END
  0
MTEXT
  5
B67
330
1F
100
AcDbEntity
  8
寸法線
100
AcDbMText
 10
34579.24093491147
 20
28593.33964681988
 30
0.0
 40
21.00000000000001
 41
107.3977478795059
 46
0.0
 71
     5
 72
     5
  1
{\fMS PGothic|b0|i0|c128|p50;型番}
 73
     1
 44
1.0
1001
ACAD
1000
ACAD_MTEXT_COLUMN_INFO_BEGIN
1070
    75
1070
     2
1070
    79
1070
     0
1070
    76
1070
     1
1070
    78
1070
     0
1070
    48
1040
107.3977478795059
1070
    49
1040
12.5
1070
    50
1070
     1
1040
0.0
1000
ACAD_MTEXT_COLUMN_INFO_END
  0
MTEXT
  5
B68
330
1F
100
AcDbEntity
  8
寸法線
100
AcDbMText
 10
34579.24093491147
 20
28551.33964681988
 30
0.0
 40
21.00000000000001
 41
111.0985654956457
 46
0.0
 71
     5
 72
     5
  1
{\fMS PGothic|b0|i0|c128|p50;図番}
 73
     1
 44
1.0
1001
ACAD
1000
ACAD_MTEXT_COLUMN_INFO_BEGIN
1070
    75
1070
     2
1070
    79
1070
     0
1070
    76
1070
     1
1070
    78
1070
     0
1070
    48
1040
111.0985654956457
1070
    49
1040
12.5
1070
    50
1070
     1
1040
0.0
1000
ACAD_MTEXT_COLUMN_INFO_END
  0
MTEXT
  5
B69
330
1F
100
AcDbEntity
  8
寸法線
100
AcDbMText
 10
34579.24093491147
 20
28509.10101045623
 30
0.0
 40
21.00000000000001
 41
79.75
 46
0.0
 71
     5
 72
     5
  1
{\fMS PGothic|b0|i0|c128|p50;尺度}
 73
     1
 44
1.0
1001
ACAD
1000
ACAD_MTEXT_COLUMN_INFO_BEGIN
1070
    75
1070
     2
1070
    79
1070
     0
1070
    76
1070
     1
1070
    78
1070
     0
1070
    48
1040
79.75
1070
    49
1040
12.5
1070
    50
1070
     1
1040
0.0
1000
ACAD_MTEXT_COLUMN_INFO_END
  0
MTEXT
  5
B6A
330
1F
100
AcDbEntity
  8
寸法線
100
AcDbMText
 10
34579.24093491147
 20
28467.75726045623
 30
0.0
 40
21.00000000000001
 41
79.75
 46
0.0
 71
     5
 72
     5
  1
{\fMS PGothic|b0|i0|c128|p50;日付}
 73
     1
 44
1.0
1001
ACAD
1000
ACAD_MTEXT_COLUMN_INFO_BEGIN
1070
    75
1070
     2
1070
    79
1070
     0
1070
    76
1070
     1
1070
    78
1070
     0
1070
    48
1040
79.75
1070
    49
1040
12.5
1070
    50
1070
     1
1040
0.0
1000
ACAD_MTEXT_COLUMN_INFO_END
  0
MTEXT
  5
B6B
330
1F
100
AcDbEntity
  8
寸法線
100
AcDbMText
 10
34579.24093491147
 20
28425.27998772897
 30
0.0
 40
21.00000000000001
 41
79.75
 46
0.0
 71
     5
 72
     5
  1
{\fMS PGothic|b0|i0|c128|p50;設計}
 73
     1
 44
1.0
1001
ACAD
1000
ACAD_MTEXT_COLUMN_INFO_BEGIN
1070
    75
1070
     2
1070
    79
1070
     0
1070
    76
1070
     1
1070
    78
1070
     0
1070
    48
1040
79.75
1070
    49
1040
12.5
1070
    50
1070
     1
1040
0.0
1000
ACAD_MTEXT_COLUMN_INFO_END
  0
MTEXT
  5
B6C
330
1F
100
AcDbEntity
  8
寸法線
100
AcDbMText
 10
34732.24093491154
 20
28427.61862409259
 30
0.0
 40
16.8
 41
77.95127031754964
 46
0.0
 71
     5
 72
     5
  1
{\fMS PGothic|b0|i0|c128|p50;製図}
 73
     1
 44
1.0
1001
ACAD
1000
ACAD_MTEXT_COLUMN_INFO_BEGIN
1070
    75
1070
     2
1070
    79
1070
     0
1070
    76
1070
     1
1070
    78
1070
     0
1070
    48
1040
77.95127031754964
1070
    49
1040
12.5
1070
    50
1070
     1
1040
0.0
1000
ACAD_MTEXT_COLUMN_INFO_END
  0
MTEXT
  5
B6D
330
1F
100
AcDbEntity
  8
寸法線
100
AcDbMText
 10
34858.24093491153
 20
28428.2390786381
 30
0.0
 40
16.8
 41
64.78344696047134
 46
0.0
 71
     5
 72
     5
  1
{\fMS PGothic|b0|i0|c128|p50;承認}
 73
     1
 44
1.0
1001
ACAD
1000
ACAD_MTEXT_COLUMN_INFO_BEGIN
1070
    75
1070
     2
1070
    79
1070
     0
1070
    76
1070
     1
1070
    78
1070
     0
1070
    48
1040
64.78344696047134
1070
    49
1040
12.5
1070
    50
1070
     1
1040
0.0
1000
ACAD_MTEXT_COLUMN_INFO_END
  0
MTEXT
  5
B6E
330
1F
100
AcDbEntity
  8
寸法線
100
AcDbMText
 10
34792.24093491153
 20
28345.02908009996
 30
0.0
 40
21.00000000000001
 41
479.1527611076308
 46
0.0
 71
     5
 72
     5
  1
{\fMS PGothic|b0|i0|c128|p50;高村電機工業株式会社}
 73
     1
 44
1.0
1001
ACAD
1000
ACAD_MTEXT_COLUMN_INFO_BEGIN
1070
    75
1070
     2
1070
    79
1070
     0
1070
    76
1070
     1
1070
    78
1070
     0
1070
    48
1040
479.1527611076308
1070
    49
1040
12.5
1070
    50
1070
     1
1040
0.0
1000
ACAD_MTEXT_COLUMN_INFO_END
  0
MTEXT
  5
B6F
330
1F
100
AcDbEntity
  8
寸法線
100
AcDbMText
 10
34644.66432509464
 20
28656.2275760284
 30
0.0
 40
24.00000000000002
 41
379.4707622710557
 46
0.0
 71
     1
 72
     5
  1
{\fMS PGothic|b0|i0|c128|p50;ゼブライト・V　}20W
 73
     1
 44
1.0
1001
ACAD
1000
ACAD_MTEXT_COLUMN_INFO_BEGIN
1070
    75
1070
     2
1070
    79
1070
     0
1070
    76
1070
     1
1070
    78
1070
     0
1070
    48
1040
379.4707622710557
1070
    49
1040
12.5
1070
    50
1070
     1
1040
0.0
1000
ACAD_MTEXT_COLUMN_INFO_END
  0
MTEXT
  5
B70
330
1F
100
AcDbEntity
  8
寸法線
100
AcDbMText
 10
34645.6002752264
 20
28609.06489565321
 30
0.0
 40
24.00000000000002
 41
326.790400944592
 46
0.0
 71
     1
 72
     5
  1
CST{\fMS PGothic|b0|i0|c128|p50;‐}200KB-V
 73
     1
 44
1.0
1001
ACAD
1000
ACAD_MTEXT_COLUMN_INFO_BEGIN
1070
    75
1070
     2
1070
    79
1070
     0
1070
    76
1070
     1
1070
    78
1070
     0
1070
    48
1040
326.790400944592
1070
    49
1040
12.5
1070
    50
1070
     1
1040
0.0
1000
ACAD_MTEXT_COLUMN_INFO_END
  0
LINE
  5
B71
330
1F
100
AcDbEntity
  8
枠線
100
AcDbLine
 10
34789.24093491148
 20
28532.23237812787
 30
0.0
 11
34789.24093491148
 21
28490.23237812787
 31
0.0
  0
LINE
  5
B72
330
1F
100
AcDbEntity
  8
枠線
100
AcDbLine
 10
34795.24093491148
 20
28532.23237812787
 30
0.0
 11
34795.24093491148
 21
28490.23237812787
 31
0.0
  0
CIRCLE
  5
B73
330
1F
100
AcDbEntity
  8
枠線
100
AcDbCircle
 10
34840.24093491147
 20
28511.23237812787
 30
0.0
 40
12.0
  0
CIRCLE
  5
B74
330
1F
100
AcDbEntity
  8
枠線
100
AcDbCircle
 10
34840.24093491147
 20
28511.23237812787
 30
0.0
 40
6.0
  0
LINE
  5
B75
330
1F
100
AcDbEntity
  8
枠線
100
AcDbLine
 10
34885.24093491148
 20
28517.23237812787
 30
0.0
 11
34885.24093491148
 21
28505.23237812787
 31
0.0
  0
LINE
  5
B76
330
1F
100
AcDbEntity
  8
枠線
100
AcDbLine
 10
34885.24093491148
 20
28505.23237812787
 30
0.0
 11
34915.24093491148
 21
28499.23237812787
 31
0.0
  0
LINE
  5
B77
330
1F
100
AcDbEntity
  8
枠線
100
AcDbLine
 10
34915.24093491148
 20
28499.23237812787
 30
0.0
 11
34915.24093491148
 21
28523.23237812787
 31
0.0
  0
LINE
  5
B78
330
1F
100
AcDbEntity
  8
枠線
100
AcDbLine
 10
34915.24093491148
 20
28523.23237812787
 30
0.0
 11
34885.24093491148
 21
28517.23237812787
 31
0.0
  0
LINE
  5
B79
330
1F
100
AcDbEntity
  8
中心線
 48
0.5
100
AcDbLine
 10
34825.24093491148
 20
28511.23237812787
 30
0.0
 11
34918.24093491147
 21
28511.23237812787
 31
0.0
  0
LINE
  5
B7A
330
1F
100
AcDbEntity
  8
中心線
 48
0.5
100
AcDbLine
 10
34840.24093491147
 20
28526.23237812787
 30
0.0
 11
34840.24093491147
 21
28496.23237812787
 31
0.0
  0
MTEXT
  5
B7B
330
1F
100
AcDbEntity
  8
中心線
100
AcDbMText
 10
34712.93231111212
 20
28511.46389548492
 30
0.0
 40
24.00000000000002
 41
137.1373031534895
 46
0.0
 71
     5
 72
     5
  1
1  :  4
 73
     1
 44
1.0
1001
ACAD
1000
ACAD_MTEXT_COLUMN_INFO_BEGIN
1070
    75
1070
     2
1070
    79
1070
     0
1070
    76
1070
     1
1070
    78
1070
     0
1070
    48
1040
137.1373031534895
1070
    49
1040
12.5
1070
    50
1070
     1
1040
0.0
1000
ACAD_MTEXT_COLUMN_INFO_END
  0
MTEXT
  5
B7C
330
1F
100
AcDbEntity
  8
寸法線
100
AcDbMText
 10
34053.8154419997
 20
29377.17287490402
 30
0.0
 40
9.600000000000001
 41
151.6297294085016
 46
0.0
 71
     1
 72
     5
  1
{\fMS PGothic|b0|i0|c128|p50;器具本体}
 73
     1
 44
1.0
1001
ACAD
1000
ACAD_MTEXT_COLUMN_INFO_BEGIN
1070
    75
1070
     2
1070
    79
1070
     0
1070
    76
1070
     1
1070
    78
1070
     0
1070
    48
1040
151.6297294085016
1070
    49
1040
12.5
1070
    50
1070
     1
1040
0.0
1000
ACAD_MTEXT_COLUMN_INFO_END
  0
MTEXT
  5
B7D
330
1F
100
AcDbEntity
  8
寸法線
100
AcDbMText
 10
34234.698096507
 20
29381.69618849504
 30
0.0
 40
8.0
 41
163.0743348696414
 46
0.0
 71
     1
 72
     5
  1
{\fMS PGothic|b0|i0|c128|p50;鋼鈑　}0.6{\fMS PGothic|b0|i0|c128|p50;ｔ}\P{\fMS PGothic|b0|i0|c128|p50;（亜鉛メッキ板）}
 73
     1
 44
1.0
1001
ACAD
1000
ACAD_MTEXT_COLUMN_INFO_BEGIN
1070
    75
1070
     2
1070
    79
1070
     0
1070
    76
1070
     1
1070
    78
1070
     0
1070
    48
1040
163.0743348696414
1070
    49
1040
12.5
1070
    50
1070
     1
1040
0.0
1000
ACAD_MTEXT_COLUMN_INFO_END
  0
MTEXT
  5
B7E
330
1F
100
AcDbEntity
  8
寸法線
100
AcDbMText
 10
34348.57369779563
 20
29373.12563430944
 30
0.0
 40
8.0
 41
127.6574633589698
 46
0.0
 71
     1
 72
     5
  1
{\fMS PGothic|b0|i0|c128|p50;ホーミング加工}
 73
     1
 44
1.0
1001
ACAD
1000
ACAD_MTEXT_COLUMN_INFO_BEGIN
1070
    75
1070
     2
1070
    79
1070
     0
1070
    76
1070
     1
1070
    78
1070
     0
1070
    48
1040
127.6574633589698
1070
    49
1040
12.5
1070
    50
1070
     1
1040
0.0
1000
ACAD_MTEXT_COLUMN_INFO_END
  0
MTEXT
  5
B7F
330
1F
100
AcDbEntity
  8
寸法線
100
AcDbMText
 10
34053.80752779395
 20
29303.57512239933
 30
0.0
 40
9.600000000000001
 41
177.2417588968819
 46
0.0
 71
     1
 72
     5
  1
{\fMS PGothic|b0|i0|c128|p50;絶縁ブッシング}
 73
     1
 44
1.0
1001
ACAD
1000
ACAD_MTEXT_COLUMN_INFO_BEGIN
1070
    75
1070
     2
1070
    79
1070
     0
1070
    76
1070
     1
1070
    78
1070
     0
1070
    48
1040
177.2417588968819
1070
    49
1040
12.5
1070
    50
1070
     1
1040
0.0
1000
ACAD_MTEXT_COLUMN_INFO_END
  0
MTEXT
  5
B80
330
1F
100
AcDbEntity
  8
寸法線
100
AcDbMText
 10
34236.90006209636
 20
29308.52212094796
 30
0.0
 40
8.0
 41
112.0581813088574
 46
0.0
 71
     1
 72
     5
  1
P.P{\fMS PGothic|b0|i0|c128|p50;樹脂}
 73
     1
 44
1.0
1001
ACAD
1000
ACAD_MTEXT_COLUMN_INFO_BEGIN
1070
    75
1070
     2
1070
    79
1070
     0
1070
    76
1070
     1
1070
    78
1070
     0
1070
    48
1040
112.0581813088574
1070
    49
1040
12.5
1070
    50
1070
     1
1040
0.0
1000
ACAD_MTEXT_COLUMN_INFO_END
  0
MTEXT
  5
B81
330
1F
100
AcDbEntity
  8
寸法線
100
AcDbMText
 10
34051.95199683309
 20
29270.04860513708
 30
0.0
 40
9.600000000000001
 41
209.7639475286996
 46
0.0
 71
     1
 72
     5
  1
{\fMS PGothic|b0|i0|c128|p50;ランプソケット（固定側）}
 73
     1
 44
1.0
1001
ACAD
1000
ACAD_MTEXT_COLUMN_INFO_BEGIN
1070
    75
1070
     2
1070
    79
1070
     0
1070
    76
1070
     1
1070
    78
1070
     0
1070
    48
1040
209.7639475286996
1070
    49
1040
12.5
1070
    50
1070
     1
1040
0.0
1000
ACAD_MTEXT_COLUMN_INFO_END
  0
MTEXT
  5
B82
330
1F
100
AcDbEntity
  8
寸法線
100
AcDbMText
 10
34235.66305875464
 20
29272.52213748464
 30
0.0
 40
8.0
 41
114.358547341013
 46
0.0
 71
     1
 72
     5
  1
{\fMS PGothic|b0|i0|c128|p50;P.P樹脂\P黄銅}
 73
     1
 44
1.0
1001
ACAD
1000
ACAD_MTEXT_COLUMN_INFO_BEGIN
1070
    75
1070
     2
1070
    79
1070
     0
1070
    76
1070
     1
1070
    78
1070
     0
1070
    48
1040
114.358547341013
1070
    49
1040
12.5
1070
    50
1070
     1
1040
0.0
1000
ACAD_MTEXT_COLUMN_INFO_END
  0
MTEXT
  5
B83
330
1F
100
AcDbEntity
  8
寸法線
100
AcDbMText
 10
34053.80752779395
 20
29233.43025098923
 30
0.0
 40
9.600000000000001
 41
210.5417588968994
 46
0.0
 71
     1
 72
     5
  1
{\fMS PGothic|b0|i0|c128|p50;ランプソケット（スプリング側）}
 73
     1
 44
1.0
1001
ACAD
1000
ACAD_MTEXT_COLUMN_INFO_BEGIN
1070
    75
1070
     2
1070
    79
1070
     0
1070
    76
1070
     1
1070
    78
1070
     0
1070
    48
1040
210.5417588968994
1070
    49
1040
12.5
1070
    50
1070
     1
1040
0.0
1000
ACAD_MTEXT_COLUMN_INFO_END
  0
MTEXT
  5
B84
330
1F
100
AcDbEntity
  8
寸法線
100
AcDbMText
 10
34232.57049850398
 20
29237.14050816909
 30
0.0
 40
8.0
 41
140.8380455093865
 46
0.0
 71
     1
 72
     5
  1
P.P{\fMS PGothic|b0|i0|c128|p50;樹脂}\P{\fMS PGothic|b0|i0|c128|p50;黄銅}
 73
     1
 44
1.0
1001
ACAD
1000
ACAD_MTEXT_COLUMN_INFO_BEGIN
1070
    75
1070
     2
1070
    79
1070
     0
1070
    76
1070
     1
1070
    78
1070
     0
1070
    48
1040
140.8380455093865
1070
    49
1040
12.5
1070
    50
1070
     1
1040
0.0
1000
ACAD_MTEXT_COLUMN_INFO_END
  0
MTEXT
  5
B85
330
1F
100
AcDbEntity
  8
寸法線
100
AcDbMText
 10
34540.5040557496
 20
29377.34442588753
 30
0.0
 40
9.600000000000001
 41
181.3710989523388
 46
0.0
 71
     1
 72
     5
  1
{\fMS PGothic|b0|i0|c128|p50;専用電源装置}
 73
     1
 44
1.0
1001
ACAD
1000
ACAD_MTEXT_COLUMN_INFO_BEGIN
1070
    75
1070
     2
1070
    79
1070
     0
1070
    76
1070
     1
1070
    78
1070
     0
1070
    48
1040
181.3710989523388
1070
    49
1040
12.5
1070
    50
1070
     1
1040
0.0
1000
ACAD_MTEXT_COLUMN_INFO_END
  0
MTEXT
  5
B86
330
1F
100
AcDbEntity
  8
寸法線
100
AcDbMText
 10
34835.88935017924
 20
29377.38356808708
 30
0.0
 40
6.4
 41
162.8281777420561
 46
0.0
 71
     1
 72
     5
  1
{\fMS PGothic|b0|i0|c128|p50;レシップ製定電流電源装置}\PK68-023C059-302
 73
     1
 44
1.0
1001
ACAD
1000
ACAD_MTEXT_COLUMN_INFO_BEGIN
1070
    75
1070
     2
1070
    79
1070
     0
1070
    76
1070
     1
1070
    78
1070
     0
1070
    48
1040
162.8281777420561
1070
    49
1040
12.5
1070
    50
1070
     1
1040
0.0
1000
ACAD_MTEXT_COLUMN_INFO_END
  0
LINE
  5
B87
330
1F
100
AcDbEntity
  8
外形線
100
AcDbLine
 10
33316.24093491148
 20
29477.23237812787
 30
0.0
 11
33316.24093491148
 21
28289.23237812787
 31
0.0
  0
LINE
  5
B88
330
1F
100
AcDbEntity
  8
外形線
100
AcDbLine
 10
33316.24093491148
 20
28289.23237812787
 30
0.0
 11
34996.24093491148
 21
28289.23237812787
 31
0.0
  0
LINE
  5
B89
330
1F
100
AcDbEntity
  8
外形線
100
AcDbLine
 10
34996.24093491148
 20
28289.23237812787
 30
0.0
 11
34996.24093491148
 21
29477.23237812787
 31
0.0
  0
LINE
  5
B8A
330
1F
100
AcDbEntity
  8
外形線
100
AcDbLine
 10
34996.24093491148
 20
29477.23237812787
 30
0.0
 11
33316.24093491148
 21
29477.23237812787
 31
0.0
  0
XLINE
  5
C17
330
1F
100
AcDbEntity
  8
オフセット
100
AcDbXline
 10
32915.44093491146
 20
29033.35326060758
 30
0.0
 11
-1.0
 21
0.0
 31
0.0
  0
XLINE
  5
C18
330
1F
100
AcDbEntity
  8
オフセット
100
AcDbXline
 10
32915.44093491146
 20
29197.60326060758
 30
0.0
 11
-1.0
 21
0.0
 31
0.0
  0
LINE
  5
C20
102
{ACAD_REACTORS
330
2329
102
}
330
1F
100
AcDbEntity
  8
中心線
100
AcDbLine
 10
33619.79663793523
 20
28812.28371882437
 30
0.0
 11
34262.28678235204
 21
28812.28371882437
 31
0.0
  0
XLINE
  5
C22
330
1F
100
AcDbEntity
  8
オフセット
100
AcDbXline
 10
32915.44093491146
 20
29049.60326060757
 30
0.0
 11
-1.0
 21
0.0
 31
0.0
  0
XLINE
  5
C23
330
1F
100
AcDbEntity
  8
オフセット
100
AcDbXline
 10
32915.44093491146
 20
29059.60326060758
 30
0.0
 11
-1.0
 21
0.0
 31
0.0
  0
XLINE
  5
C24
330
1F
100
AcDbEntity
  8
オフセット
100
AcDbXline
 10
32915.44093491146
 20
28972.60326060758
 30
0.0
 11
-1.0
 21
0.0
 31
0.0
  0
XLINE
  5
C25
330
1F
100
AcDbEntity
  8
オフセット
100
AcDbXline
 10
32915.44093491146
 20
28962.60326060758
 30
0.0
 11
-1.0
 21
0.0
 31
0.0
  0
LINE
  5
C26
102
{ACAD_REACTORS
330
22AF
330
22D5
102
}
330
1F
100
AcDbEntity
  8
中心線
100
AcDbLine
 10
34445.74170103496
 20
28838.53371917338
 30
0.0
 11
34445.74170103496
 21
28741.53371917338
 31
0.0
  0
XLINE
  5
C27
330
1F
100
AcDbEntity
  8
オフセット
100
AcDbXline
 10
32915.44093491146
 20
29144.60326060757
 30
0.0
 11
-1.0
 21
0.0
 31
0.0
  0
CIRCLE
  5
C2F
330
1F
100
AcDbEntity
  8
○
100
AcDbCircle
 10
33603.0023971616
 20
28941.00189436203
 30
0.0
 40
15.0
  0
MTEXT
  5
C33
330
1F
100
AcDbEntity
  8
寸法線
100
AcDbMText
 10
33596.50956869988
 20
28950.74574485303
 30
0.0
 40
20.0
 41
35.534113038535
 46
0.0
 71
     1
 72
     5
  1
4
 73
     1
 44
1.0
1001
ACAD
1000
ACAD_MTEXT_COLUMN_INFO_BEGIN
1070
    75
1070
     2
1070
    79
1070
     0
1070
    76
1070
     1
1070
    78
1070
     0
1070
    48
1040
35.534113038535
1070
    49
1040
12.5
1070
    50
1070
     1
1040
0.0
1000
ACAD_MTEXT_COLUMN_INFO_END
  0
CIRCLE
  5
C34
330
1F
100
AcDbEntity
  8
○
100
AcDbCircle
 10
33647.51965309328
 20
28941.00189436203
 30
0.0
 40
15.0
  0
MTEXT
  5
C35
330
1F
100
AcDbEntity
  8
寸法線
100
AcDbMText
 10
33641.02682463156
 20
28950.74574485303
 30
0.0
 40
20.0
 41
35.534113038535
 46
0.0
 71
     1
 72
     5
  1
3
 73
     1
 44
1.0
1001
ACAD
1000
ACAD_MTEXT_COLUMN_INFO_BEGIN
1070
    75
1070
     2
1070
    79
1070
     0
1070
    76
1070
     1
1070
    78
1070
     0
1070
    48
1040
35.534113038535
1070
    49
1040
12.5
1070
    50
1070
     1
1040
0.0
1000
ACAD_MTEXT_COLUMN_INFO_END
  0
CIRCLE
  5
C36
330
1F
100
AcDbEntity
  8
○
100
AcDbCircle
 10
33816.1259505607
 20
28941.00189436203
 30
0.0
 40
15.0
  0
MTEXT
  5
C37
330
1F
100
AcDbEntity
  8
寸法線
100
AcDbMText
 10
33809.63312209898
 20
28950.74574485303
 30
0.0
 40
20.0
 41
35.534113038535
 46
0.0
 71
     1
 72
     5
  1
1
 73
     1
 44
1.0
1001
ACAD
1000
ACAD_MTEXT_COLUMN_INFO_BEGIN
1070
    75
1070
     2
1070
    79
1070
     0
1070
    76
1070
     1
1070
    78
1070
     0
1070
    48
1040
35.534113038535
1070
    49
1040
12.5
1070
    50
1070
     1
1040
0.0
1000
ACAD_MTEXT_COLUMN_INFO_END
  0
CIRCLE
  5
C38
330
1F
100
AcDbEntity
  8
○
100
AcDbCircle
 10
33765.84926954879
 20
28941.00189436203
 30
0.0
 40
15.0
  0
MTEXT
  5
C39
330
1F
100
AcDbEntity
  8
寸法線
100
AcDbMText
 10
33759.35644108707
 20
28950.74574485303
 30
0.0
 40
20.0
 41
35.534113038535
 46
0.0
 71
     1
 72
     5
  1
7
 73
     1
 44
1.0
1001
ACAD
1000
ACAD_MTEXT_COLUMN_INFO_BEGIN
1070
    75
1070
     2
1070
    79
1070
     0
1070
    76
1070
     1
1070
    78
1070
     0
1070
    48
1040
35.534113038535
1070
    49
1040
12.5
1070
    50
1070
     1
1040
0.0
1000
ACAD_MTEXT_COLUMN_INFO_END
  0
CIRCLE
  5
C3A
330
1F
100
AcDbEntity
  8
○
100
AcDbCircle
 10
33904.19538627936
 20
28941.00189436203
 30
0.0
 40
15.0
  0
MTEXT
  5
C3B
330
1F
100
AcDbEntity
  8
寸法線
100
AcDbMText
 10
33897.70255781764
 20
28950.74574485303
 30
0.0
 40
20.0
 41
35.534113038535
 46
0.0
 71
     1
 72
     5
  1
6
 73
     1
 44
1.0
1001
ACAD
1000
ACAD_MTEXT_COLUMN_INFO_BEGIN
1070
    75
1070
     2
1070
    79
1070
     0
1070
    76
1070
     1
1070
    78
1070
     0
1070
    48
1040
35.534113038535
1070
    49
1040
12.5
1070
    50
1070
     1
1040
0.0
1000
ACAD_MTEXT_COLUMN_INFO_END
  0
CIRCLE
  5
C3C
330
1F
100
AcDbEntity
  8
○
100
AcDbCircle
 10
34267.30404570063
 20
28941.00189436203
 30
0.0
 40
15.0
  0
MTEXT
  5
C3D
330
1F
100
AcDbEntity
  8
寸法線
100
AcDbMText
 10
34260.81121723891
 20
28950.74574485303
 30
0.0
 40
20.0
 41
35.534113038535
 46
0.0
 71
     1
 72
     5
  1
5
 73
     1
 44
1.0
1001
ACAD
1000
ACAD_MTEXT_COLUMN_INFO_BEGIN
1070
    75
1070
     2
1070
    79
1070
     0
1070
    76
1070
     1
1070
    78
1070
     0
1070
    48
1040
35.534113038535
1070
    49
1040
12.5
1070
    50
1070
     1
1040
0.0
1000
ACAD_MTEXT_COLUMN_INFO_END
  0
MTEXT
  5
C3E
330
1F
100
AcDbEntity
  8
寸法線
100
AcDbMText
 10
34539.8154419997
 20
29341.17287490402
 30
0.0
 40
9.600000000000001
 41
199.244644231323
 46
0.0
 71
     1
 72
     5
  1
{\fMS PGothic|b0|i0|c128|p50;電源用　アース付端子台}
 73
     1
 44
1.0
1001
ACAD
1000
ACAD_MTEXT_COLUMN_INFO_BEGIN
1070
    75
1070
     2
1070
    79
1070
     0
1070
    76
1070
     1
1070
    78
1070
     0
1070
    48
1040
199.244644231323
1070
    49
1040
12.5
1070
    50
1070
     1
1040
0.0
1000
ACAD_MTEXT_COLUMN_INFO_END
  0
XLINE
  5
C42
330
1F
100
AcDbEntity
  8
オフセット
100
AcDbXline
 10
32915.44093491146
 20
29149.60326060758
 30
0.0
 11
-1.0
 21
0.0
 31
0.0
  0
XLINE
  5
C43
330
1F
100
AcDbEntity
  8
オフセット
100
AcDbXline
 10
32915.44093491146
 20
29134.60326060758
 30
0.0
 11
-1.0
 21
0.0
 31
0.0
  0
XLINE
  5
C44
330
1F
100
AcDbEntity
  8
オフセット
100
AcDbXline
 10
32915.44093491146
 20
29154.60326060757
 30
0.0
 11
-1.0
 21
0.0
 31
0.0
  0
LINE
  5
C45
330
1F
100
AcDbEntity
  8
○
100
AcDbLine
 10
33827.3062904482
 20
28951.00189436203
 30
0.0
 11
33848.64713775869
 21
28997.15998080946
 31
0.0
  0
LINE
  5
C46
330
1F
100
AcDbEntity
  8
○
100
AcDbLine
 10
33819.16113581218
 20
28926.31218195881
 30
0.0
 11
33854.36252214889
 21
28780.2394622155
 31
0.0
  0
LINE
  5
C47
330
1F
100
AcDbEntity
  8
○
100
AcDbLine
 10
33777.2535396968
 20
28950.74574485303
 30
0.0
 11
33805.43934656766
 21
28990.01956133505
 31
0.0
  0
LINE
  5
C48
330
1F
100
AcDbEntity
  8
○
100
AcDbLine
 10
33774.32526008512
 20
28928.62620915159
 30
0.0
 11
33810.64371786161
 21
28766.15615455969
 31
0.0
  0
LINE
  5
C49
330
1F
100
AcDbEntity
  8
○
100
AcDbLine
 10
33915.37572616686
 20
28951.00189436203
 30
0.0
 11
33956.51408356834
 21
28990.82015333226
 31
0.0
  0
LINE
  5
C4A
330
1F
100
AcDbEntity
  8
○
100
AcDbLine
 10
33914.72902216217
 20
28930.32282534417
 30
0.0
 11
33954.04113670252
 21
28761.57242937095
 31
0.0
  0
LINE
  5
C4B
330
1F
100
AcDbEntity
  8
○
100
AcDbLine
 10
33651.32560424382
 20
28955.51102031226
 30
0.0
 11
33683.74385885127
 21
29002.44264427803
 31
0.0
  0
LINE
  5
C4C
330
1F
100
AcDbEntity
  8
○
100
AcDbLine
 10
33647.51965309328
 20
28926.00189436203
 30
0.0
 11
33680.93934656768
 21
28774.1788488798
 31
0.0
  0
LINE
  5
C4D
330
1F
100
AcDbEntity
  8
○
100
AcDbLine
 10
33609.3884906572
 20
28954.57458053189
 30
0.0
 11
33636.14633399174
 21
29002.14860835974
 31
0.0
  0
LINE
  5
C4E
330
1F
100
AcDbEntity
  8
○
100
AcDbLine
 10
33607.00442779465
 20
28926.54562406806
 30
0.0
 11
33640.86878070512
 21
28818.08769273313
 31
0.0
  0
LINE
  5
C4F
330
1F
100
AcDbEntity
  8
○
100
AcDbLine
 10
34263.73100314635
 20
28955.57012578884
 30
0.0
 11
34246.77287743657
 21
28995.7410521062
 31
0.0
  0
LINE
  5
C50
330
1F
100
AcDbEntity
  8
○
100
AcDbLine
 10
34267.30404570063
 20
28926.00189436203
 30
0.0
 11
34231.75006625455
 21
28815.37573626774
 31
0.0
  0
TEXT
  5
D49
330
1F
100
AcDbEntity
  8
1
 62
     3
100
AcDbText
 10
33775.00261879165
 20
28624.60862867869
 30
0.0
 40
13.5
  1
１．左記の様にランプをセットしてください
 41
0.6666666666670002
  7
BIGFONT
100
AcDbText
  0
TEXT
  5
D4A
330
1F
100
AcDbEntity
  8
1
 62
     3
100
AcDbText
 10
33792.68132972915
 20
28604.57300042348
 30
0.0
 40
13.5
  1
器具側の電極はスプリングソケット側になっています。
 41
0.6666666666670002
  7
BIGFONT
100
AcDbText
  0
TEXT
  5
D4B
330
1F
100
AcDbEntity
  8
1
 62
     3
100
AcDbText
 10
33793.27019691665
 20
28585.71557854848
 30
0.0
 40
13.5
  1
ランプの電極はマーク（シール）側になっています。
 41
0.6666666666670002
  7
BIGFONT
100
AcDbText
  0
TEXT
  5
D4C
330
1F
100
AcDbEntity
  8
1
 62
     3
100
AcDbText
 10
33793.27019691665
 20
28567.44800042348
 30
0.0
 40
13.5
  1
セット方向はランプはマーク（シール）が正面方向を
 41
0.6666666666670002
  7
BIGFONT
100
AcDbText
  0
TEXT
  5
D4D
330
1F
100
AcDbEntity
  8
1
 62
     3
100
AcDbText
 10
33777.15626462497
 20
28519.8591006839
 30
0.0
 40
13.5
  1
２．精密部品を使用しておりますので衝撃等を与えますと
 41
0.6666666666670002
  7
BIGFONT
100
AcDbText
  0
TEXT
  5
D4E
330
1F
100
AcDbEntity
  8
1
 62
     3
100
AcDbText
 10
33796.01368649997
 20
28500.41229078806
 30
0.0
 40
13.5
  1
誤動作もしくは不点の恐れがあります。
 41
0.6666666666670002
  7
BIGFONT
100
AcDbText
  0
TEXT
  5
D4F
330
1F
100
AcDbEntity
  8
1
 62
     3
100
AcDbText
 10
33776.56739743747
 20
28473.89471266307
 30
0.0
 40
13.5
  1
３．この製品は定電流式２４Ｖ仕様です。
 41
0.6666666666670002
  7
BIGFONT
100
AcDbText
  0
TEXT
  5
D50
330
1F
100
AcDbEntity
  8
1
 62
     3
100
AcDbText
 10
33793.65626462497
 20
28453.85907626983
 30
0.0
 40
13.5
  1
必ず専用のランプと安定器のセットでご使用下さい。
 41
0.6666666666670002
  7
BIGFONT
100
AcDbText
  0
TEXT
  5
D51
330
1F
100
AcDbEntity
  8
1
 62
     3
100
AcDbText
 10
33794.09194170829
 20
28549.01902906931
 30
0.0
 40
13.5
  1
向く様にして下さい。
 41
0.6666666666670002
  7
BIGFONT
100
AcDbText
  0
TEXT
  5
D52
330
1F
100
AcDbEntity
  8
1
 62
     3
100
AcDbText
 10
33503.18152504164
 20
28618.95989820994
 30
0.0
 40
12.0
  1
取扱い説明及び注意事項
 41
0.6666666666670002
  7
BIGFONT
100
AcDbText
  0
LINE
  5
D53
330
1F
100
AcDbEntity
  8
1
  6
Continuous
 62
     3
100
AcDbLine
 10
33630.24345964872
 20
28576.34082441144
 30
0.0
 11
33630.24345964872
 21
28561.34082441144
 31
0.0
  0
LINE
  5
D54
330
1F
100
AcDbEntity
  8
1
  6
Continuous
 62
     3
100
AcDbLine
 10
33630.24345964872
 20
28561.34082441144
 30
0.0
 11
33483.31488822013
 21
28561.34082441144
 31
0.0
  0
LINE
  5
D55
330
1F
100
AcDbEntity
  8
1
  6
Continuous
 62
     3
100
AcDbLine
 10
33483.31488822013
 20
28561.34082441144
 30
0.0
 11
33480.24345964871
 21
28561.34082441144
 31
0.0
  0
LINE
  5
D56
330
1F
100
AcDbEntity
  8
1
  6
Continuous
 62
     3
100
AcDbLine
 10
33480.24345964871
 20
28561.34082441144
 30
0.0
 11
33480.24345964871
 21
28576.34082441144
 31
0.0
  0
LINE
  5
D57
330
1F
100
AcDbEntity
  8
1
  6
Continuous
 62
     3
100
AcDbLine
 10
33480.24345964871
 20
28576.34082441144
 30
0.0
 11
33630.24345964872
 21
28576.34082441144
 31
0.0
  0
LINE
  5
D58
330
1F
100
AcDbEntity
  8
1
  6
Continuous
 62
     3
100
AcDbLine
 10
33630.24345964872
 20
28576.34082441144
 30
0.0
 11
33634.74345964871
 21
28576.34082441144
 31
0.0
  0
LINE
  5
D59
330
1F
100
AcDbEntity
  8
1
  6
Continuous
 62
     3
100
AcDbLine
 10
33634.74345964871
 20
28576.34082441144
 30
0.0
 11
33634.74345964871
 21
28561.34082441144
 31
0.0
  0
LINE
  5
D5A
330
1F
100
AcDbEntity
  8
1
  6
Continuous
 62
     3
100
AcDbLine
 10
33634.74345964871
 20
28561.34082441144
 30
0.0
 11
33630.24345964872
 21
28561.34082441144
 31
0.0
  0
LINE
  5
D5B
330
1F
100
AcDbEntity
  8
1
  6
Continuous
 62
     3
100
AcDbLine
 10
33480.24345964871
 20
28576.34082441144
 30
0.0
 11
33475.74345964872
 21
28576.34082441144
 31
0.0
  0
LINE
  5
D5C
330
1F
100
AcDbEntity
  8
1
  6
Continuous
 62
     3
100
AcDbLine
 10
33475.74345964872
 20
28576.34082441144
 30
0.0
 11
33475.74345964872
 21
28561.34082441144
 31
0.0
  0
LINE
  5
D5D
330
1F
100
AcDbEntity
  8
1
  6
Continuous
 62
     3
100
AcDbLine
 10
33475.74345964872
 20
28561.34082441144
 30
0.0
 11
33480.24345964871
 21
28561.34082441144
 31
0.0
  0
LINE
  5
D5E
330
1F
100
AcDbEntity
  8
1
  6
Continuous
 62
     3
100
AcDbLine
 10
33475.74345964872
 20
28571.84082441144
 30
0.0
 11
33471.24345964871
 21
28571.84082441144
 31
0.0
  0
LINE
  5
D5F
330
1F
100
AcDbEntity
  8
1
  6
Continuous
 62
     3
100
AcDbLine
 10
33475.74345964872
 20
28565.84082441144
 30
0.0
 11
33471.24345964871
 21
28565.84082441144
 31
0.0
  0
LINE
  5
D60
330
1F
100
AcDbEntity
  8
1
  6
Continuous
 62
     3
100
AcDbLine
 10
33634.74345964871
 20
28571.84082441144
 30
0.0
 11
33639.24345964872
 21
28571.84082441144
 31
0.0
  0
LINE
  5
D61
330
1F
100
AcDbEntity
  8
1
  6
Continuous
 62
     3
100
AcDbLine
 10
33634.74345964871
 20
28565.84082441144
 30
0.0
 11
33639.24345964872
 21
28565.84082441144
 31
0.0
  0
LINE
  5
D62
330
1F
100
AcDbEntity
  8
1
  6
Continuous
 62
     3
100
AcDbLine
 10
33661.4220310773
 20
28571.84082441144
 30
0.0
 11
33698.92203107729
 21
28571.84082441144
 31
0.0
  0
LINE
  5
D63
330
1F
100
AcDbEntity
  8
1
  6
Continuous
 62
     3
100
AcDbLine
 10
33698.92203107729
 20
28571.84082441144
 30
0.0
 11
33698.92203107729
 21
28517.05511012573
 31
0.0
  0
LINE
  5
D64
330
1F
100
AcDbEntity
  8
1
  6
Continuous
 62
     3
100
AcDbLine
 10
33698.92203107729
 20
28517.05511012573
 30
0.0
 11
33590.56488822014
 21
28517.05511012573
 31
0.0
  0
LINE
  5
D65
330
1F
100
AcDbEntity
  8
1
  6
Continuous
 62
     3
100
AcDbLine
 10
33661.4220310773
 20
28565.84082441144
 30
0.0
 11
33683.9220310773
 21
28565.84082441144
 31
0.0
  0
LINE
  5
D66
330
1F
100
AcDbEntity
  8
1
  6
Continuous
 62
     3
100
AcDbLine
 10
33683.9220310773
 20
28565.84082441144
 30
0.0
 11
33683.9220310773
 21
28523.05511012573
 31
0.0
  0
LINE
  5
D67
330
1F
100
AcDbEntity
  8
1
  6
Continuous
 62
     3
100
AcDbLine
 10
33683.9220310773
 20
28523.05511012573
 30
0.0
 11
33590.56488822014
 21
28523.05511012573
 31
0.0
  0
LINE
  5
D68
330
1F
100
AcDbEntity
  8
1
  6
Continuous
 62
     3
100
AcDbLine
 10
33590.56488822014
 20
28527.55511012573
 30
0.0
 11
33590.56488822014
 21
28512.55511012573
 31
0.0
  0
LINE
  5
D69
330
1F
100
AcDbEntity
  8
1
  6
Continuous
 62
     3
100
AcDbLine
 10
33590.56488822014
 20
28512.55511012573
 30
0.0
 11
33530.56488822014
 21
28512.55511012573
 31
0.0
  0
LINE
  5
D6A
330
1F
100
AcDbEntity
  8
1
  6
Continuous
 62
     3
100
AcDbLine
 10
33530.56488822014
 20
28512.55511012573
 30
0.0
 11
33530.56488822014
 21
28527.55511012573
 31
0.0
  0
LINE
  5
D6B
330
1F
100
AcDbEntity
  8
1
  6
Continuous
 62
     3
100
AcDbLine
 10
33530.56488822014
 20
28527.55511012573
 30
0.0
 11
33590.56488822014
 21
28527.55511012573
 31
0.0
  0
LINE
  5
D6C
330
1F
100
AcDbEntity
  8
1
  6
Continuous
 62
     3
100
AcDbLine
 10
33533.33869774395
 20
28512.55511012573
 30
0.0
 11
33533.33869774395
 21
28497.55511012573
 31
0.0
  0
LINE
  5
D6D
330
1F
100
AcDbEntity
  8
1
  6
Continuous
 62
     3
100
AcDbLine
 10
33533.33869774395
 20
28497.55511012573
 30
0.0
 11
33485.69584060111
 21
28497.55511012573
 31
0.0
  0
TEXT
  5
D6E
330
1F
100
AcDbEntity
  8
1
 62
     3
100
AcDbText
 10
33605.4558414479
 20
28525.40786370473
 30
0.0
 40
7.466666666666665
  1
赤
 41
0.6666666666670002
  7
BIGFONT
100
AcDbText
  0
TEXT
  5
D6F
330
1F
100
AcDbEntity
  8
1
 62
     3
100
AcDbText
 10
33607.43115069269
 20
28503.67945387401
 30
0.0
 40
7.466666666666665
  1
白
 41
0.6666666666670002
  7
BIGFONT
100
AcDbText
  0
TEXT
  5
D70
330
1F
100
AcDbEntity
  8
1
 62
     3
100
AcDbText
 10
33663.72745603122
 20
28553.06216057974
 30
0.0
 40
7.466666666666665
  1
赤
 41
0.6666666666670002
  7
BIGFONT
100
AcDbText
  0
TEXT
  5
D71
330
1F
100
AcDbEntity
  8
1
 62
     3
100
AcDbText
 10
33663.72745603122
 20
28575.77820875682
 30
0.0
 40
7.466666666666665
  1
白
 41
0.6666666666670002
  7
BIGFONT
100
AcDbText
  0
LINE
  5
D72
330
1F
100
AcDbEntity
  8
1
  6
Continuous
 62
     3
100
AcDbLine
 10
33625.74345964872
 20
28571.84082441144
 30
0.0
 11
33625.74345964872
 21
28565.84082441144
 31
0.0
  0
LINE
  5
D73
330
1F
100
AcDbEntity
  8
1
  6
Continuous
 62
     3
100
AcDbLine
 10
33625.74345964872
 20
28565.84082441144
 30
0.0
 11
33610.74345964872
 21
28565.84082441144
 31
0.0
  0
LINE
  5
D74
330
1F
100
AcDbEntity
  8
1
  6
Continuous
 62
     3
100
AcDbLine
 10
33610.74345964872
 20
28565.84082441144
 30
0.0
 11
33610.74345964872
 21
28571.84082441144
 31
0.0
  0
LINE
  5
D75
330
1F
100
AcDbEntity
  8
1
  6
Continuous
 62
     3
100
AcDbLine
 10
33610.74345964872
 20
28571.84082441144
 30
0.0
 11
33625.74345964872
 21
28571.84082441144
 31
0.0
  0
TEXT
  5
D76
330
1F
100
AcDbEntity
  8
1
 62
     3
100
AcDbText
 10
33612.95771319268
 20
28566.05509677765
 30
0.0
 40
5.107133992513066
  1
マーク
 41
0.692308381786
  7
BIGFONT
100
AcDbText
  0
TEXT
  5
D77
330
1F
100
AcDbEntity
  8
1
 62
     3
100
AcDbText
 10
33498.00522295831
 20
28525.19800042348
 30
0.0
 40
7.466666666666665
  1
白
 41
0.6666666666670002
  7
BIGFONT
100
AcDbText
  0
TEXT
  5
D78
330
1F
100
AcDbEntity
  8
1
 62
     3
100
AcDbText
 10
33498.00522295831
 20
28506.86464267608
 30
0.0
 40
7.466666666666665
  1
黒
 41
0.6666666666670002
  7
BIGFONT
100
AcDbText
  0
TEXT
  5
D79
330
1F
100
AcDbEntity
  8
1
 62
     3
100
AcDbText
 10
33513.65886809825
 20
28498.5240935974
 30
0.0
 40
7.466666666666665
  1
アース
 41
0.6666666666670002
  7
BIGFONT
100
AcDbText
  0
TEXT
  5
D7A
330
1F
100
AcDbEntity
  8
1
 62
     3
100
AcDbText
 10
33518.43398272392
 20
28486.95986565786
 30
0.0
 40
7.466666666666665
  1
緑
 41
0.6666666666670002
  7
BIGFONT
100
AcDbText
  0
LINE
  5
D7B
330
1F
100
AcDbEntity
  8
1
  6
Continuous
 62
     3
100
AcDbLine
 10
33661.4220310773
 20
28576.34082441144
 30
0.0
 11
33661.4220310773
 21
28561.34082441144
 31
0.0
  0
LINE
  5
D7C
330
1F
100
AcDbEntity
  8
1
  6
Continuous
 62
     3
100
AcDbLine
 10
33661.4220310773
 20
28561.34082441144
 30
0.0
 11
33644.4220310773
 21
28561.34082441144
 31
0.0
  0
LINE
  5
D7D
330
1F
100
AcDbEntity
  8
1
  6
Continuous
 62
     3
100
AcDbLine
 10
33644.4220310773
 20
28561.34082441144
 30
0.0
 11
33644.4220310773
 21
28576.34082441144
 31
0.0
  0
LINE
  5
D7E
330
1F
100
AcDbEntity
  8
1
  6
Continuous
 62
     3
100
AcDbLine
 10
33644.4220310773
 20
28576.34082441144
 30
0.0
 11
33661.4220310773
 21
28576.34082441144
 31
0.0
  0
LINE
  5
D7F
330
1F
100
AcDbEntity
  8
1
  6
Continuous
 62
     3
100
AcDbLine
 10
33449.24640247564
 20
28561.34082441144
 30
0.0
 11
33449.24640247564
 21
28576.34082441144
 31
0.0
  0
TEXT
  5
D80
330
1F
100
AcDbEntity
  8
1
 62
     3
100
AcDbText
 10
33571.38645668226
 20
28583.86466709015
 30
0.0
 40
9.0
  1
防沫ソケット配線接続側
 41
0.6666666666670002
  7
BIGFONT
100
AcDbText
  0
LINE
  5
D81
330
1F
100
AcDbEntity
  8
1
  6
Continuous
 62
     3
100
AcDbLine
 10
33655.38631679159
 20
28576.34082441144
 30
0.0
 11
33651.86067576593
 21
28582.29320536382
 31
0.0
  0
LINE
  5
D82
330
1F
100
AcDbEntity
  8
1
  6
Continuous
 62
     3
100
AcDbLine
 10
33449.24640247564
 20
28571.84082441144
 30
0.0
 11
33438.2106881899
 21
28571.84082441144
 31
0.0
  0
LINE
  5
D83
330
1F
100
AcDbEntity
  8
1
  6
Continuous
 62
     3
100
AcDbLine
 10
33449.24640247564
 20
28565.84082441144
 30
0.0
 11
33438.2106881899
 21
28565.84082441144
 31
0.0
  0
LINE
  5
D84
330
1F
100
AcDbEntity
  8
1
  6
Continuous
 62
     3
100
AcDbLine
 10
33441.74640247564
 20
28575.09082441144
 30
0.0
 11
33435.85354533276
 21
28569.59082441144
 31
0.0
  0
LINE
  5
D85
330
1F
100
AcDbEntity
  8
1
  6
Continuous
 62
     3
100
AcDbLine
 10
33436.24640247564
 20
28575.4836815543
 30
0.0
 11
33441.74640247564
 21
28569.19796726859
 31
0.0
  0
LINE
  5
D86
330
1F
100
AcDbEntity
  8
1
  6
Continuous
 62
     3
100
AcDbLine
 10
33441.35354533277
 20
28568.41225298288
 30
0.0
 11
33435.85354533276
 21
28562.12653869715
 31
0.0
  0
LINE
  5
D87
330
1F
100
AcDbEntity
  8
1
  6
Continuous
 62
     3
100
AcDbLine
 10
33436.63925961847
 20
28568.01939584002
 30
0.0
 11
33440.17497390419
 21
28562.91225298288
 31
0.0
  0
TEXT
  5
D88
330
1F
100
AcDbEntity
  8
1
 62
     3
100
AcDbText
 10
33671.6286930104
 20
28552.07449781931
 30
0.0
 40
7.466666666666665
  1
＋
 41
0.6666666666670002
  7
BIGFONT
100
AcDbText
  0
TEXT
  5
D89
330
1F
100
AcDbEntity
  8
1
 62
     3
100
AcDbText
 10
33670.64103024997
 20
28575.77820875682
 30
0.0
 40
7.466666666666665
  1
－
 41
0.6666666666670002
  7
BIGFONT
100
AcDbText
  0
TEXT
  5
D8A
330
1F
100
AcDbEntity
  8
1
 62
     3
100
AcDbText
 10
33614.34470863538
 20
28502.69179111359
 30
0.0
 40
7.466666666666665
  1
－
 41
0.6666666666670002
  7
BIGFONT
100
AcDbText
  0
TEXT
  5
D8B
330
1F
100
AcDbEntity
  8
1
 62
     3
100
AcDbText
 10
33613.35707842704
 20
28525.40786370473
 30
0.0
 40
7.466666666666665
  1
＋
 41
0.6666666666670002
  7
BIGFONT
100
AcDbText
  0
TEXT
  5
D8C
330
1F
100
AcDbEntity
  8
1
 62
     3
100
AcDbText
 10
33523.43398272392
 20
28562.91219313182
 30
0.0
 40
12.0
  1
ＬＥＤ　ランプ
 41
0.6666666666670002
  7
BIGFONT
100
AcDbText
  0
TEXT
  5
D8D
330
1F
100
AcDbEntity
  8
1
 62
     3
100
AcDbText
 10
33538.75475065239
 20
28515.19440443158
 30
0.0
 40
9.600000000000001
  1
ＬＥＤ用電源
 41
0.6666666666670002
  7
BIGFONT
100
AcDbText
  0
LINE
  5
D8E
330
1F
100
AcDbEntity
  8
1
  6
Continuous
 62
     3
100
AcDbLine
 10
33530.56488822014
 20
28523.05511012573
 30
0.0
 11
33496.14822155348
 21
28523.10272917335
 31
0.0
  0
LINE
  5
D8F
330
1F
100
AcDbEntity
  8
1
  6
Continuous
 62
     3
100
AcDbLine
 10
33530.56488822014
 20
28517.05511012573
 30
0.0
 11
33497.19584060111
 21
28517.05511012573
 31
0.0
  0
TEXT
  5
D90
330
1F
100
AcDbEntity
  8
1
 62
     3
100
AcDbText
 10
33474.38649737235
 20
28513.67423740265
 30
0.0
 40
12.0
  1
電源
 41
0.6666666666670002
  7
BIGFONT
100
AcDbText
  0
LINE
  5
D91
330
1F
100
AcDbEntity
  8
1
  6
Continuous
 62
     3
100
AcDbLine
 10
33659.75017010164
 20
28573.98640177546
 30
0.0
 11
33654.41683676833
 21
28573.98640177546
 31
0.0
  0
LINE
  5
D92
330
1F
100
AcDbEntity
  8
1
  6
Continuous
 62
     3
100
AcDbLine
 10
33654.41683676833
 20
28573.98640177546
 30
0.0
 11
33654.41683676833
 21
28563.60164808974
 31
0.0
  0
LINE
  5
D93
330
1F
100
AcDbEntity
  8
1
  6
Continuous
 62
     3
100
AcDbLine
 10
33654.41683676833
 20
28563.60164808974
 30
0.0
 11
33659.75017010164
 21
28563.60164808974
 31
0.0
  0
LINE
  5
D94
330
1F
100
AcDbEntity
  8
1
  6
Continuous
 62
     3
100
AcDbLine
 10
33659.75017010164
 20
28573.98640177546
 30
0.0
 11
33659.75017010164
 21
28563.60164808974
 31
0.0
  0
LINE
  5
D95
330
1F
100
AcDbEntity
  8
1
  6
Continuous
 62
     3
100
AcDbLine
 10
33449.24640247564
 20
28561.34082441144
 30
0.0
 11
33449.24640247564
 21
28576.34082441144
 31
0.0
  0
LINE
  5
D96
330
1F
100
AcDbEntity
  8
1
  6
Continuous
 62
     3
100
AcDbLine
 10
33449.24640247564
 20
28576.34082441144
 30
0.0
 11
33466.24640247564
 21
28576.34082441144
 31
0.0
  0
LINE
  5
D97
330
1F
100
AcDbEntity
  8
1
  6
Continuous
 62
     3
100
AcDbLine
 10
33466.24640247564
 20
28576.34082441144
 30
0.0
 11
33466.24640247564
 21
28561.34082441144
 31
0.0
  0
LINE
  5
D98
330
1F
100
AcDbEntity
  8
1
  6
Continuous
 62
     3
100
AcDbLine
 10
33466.24640247564
 20
28561.34082441144
 30
0.0
 11
33449.24640247564
 21
28561.34082441144
 31
0.0
  0
LINE
  5
D99
330
1F
100
AcDbEntity
  8
1
  6
Continuous
 62
     3
100
AcDbLine
 10
33450.91826345126
 20
28563.69524704742
 30
0.0
 11
33456.2515967846
 21
28563.69524704742
 31
0.0
  0
LINE
  5
D9A
330
1F
100
AcDbEntity
  8
1
  6
Continuous
 62
     3
100
AcDbLine
 10
33456.2515967846
 20
28563.69524704742
 30
0.0
 11
33456.2515967846
 21
28574.08000073314
 31
0.0
  0
LINE
  5
D9B
330
1F
100
AcDbEntity
  8
1
  6
Continuous
 62
     3
100
AcDbLine
 10
33456.2515967846
 20
28574.08000073314
 30
0.0
 11
33450.91826345126
 21
28574.08000073314
 31
0.0
  0
LINE
  5
D9C
330
1F
100
AcDbEntity
  8
1
  6
Continuous
 62
     3
100
AcDbLine
 10
33450.91826345126
 20
28563.69524704742
 30
0.0
 11
33450.91826345126
 21
28574.08000073314
 31
0.0
  0
XLINE
  5
1123
330
1F
100
AcDbEntity
  8
オフセット
100
AcDbXline
 10
32915.44093491146
 20
27677.44632341185
 30
0.0
 11
-1.0
 21
0.0
 31
0.0
  0
XLINE
  5
1125
330
1F
100
AcDbEntity
  8
オフセット
100
AcDbXline
 10
32915.44093491146
 20
27806.29960941414
 30
0.0
 11
-1.0
 21
0.0
 31
0.0
  0
XLINE
  5
1126
330
1F
100
AcDbEntity
  8
オフセット
100
AcDbXline
 10
32915.44093491146
 20
27713.19632341184
 30
0.0
 11
-1.0
 21
0.0
 31
0.0
  0
LINE
  5
11C6
330
1F
100
AcDbEntity
  8
外形線
100
AcDbLine
 10
33795.43934656771
 20
28757.03371882437
 30
0.0
 11
33795.43934656771
 21
28776.03371882437
 31
0.0
  0
LINE
  5
11C7
330
1F
100
AcDbEntity
  8
外形線
100
AcDbLine
 10
33795.93934656771
 20
28776.53371882437
 30
0.0
 11
33817.43934656771
 21
28776.53371882437
 31
0.0
  0
ARC
  5
11C8
330
1F
100
AcDbEntity
  8
外形線
100
AcDbCircle
 10
33795.93934656771
 20
28776.03371882437
 30
0.0
 40
0.5
100
AcDbArc
 50
90.0
 51
180.0
  0
LINE
  5
11C9
330
1F
100
AcDbEntity
  8
外形線
100
AcDbLine
 10
33817.43934656771
 20
28767.53371882437
 30
0.0
 11
33817.43934656771
 21
28757.03371882437
 31
0.0
  0
ARC
  5
11CA
330
1F
100
AcDbEntity
  8
外形線
100
AcDbCircle
 10
33816.93934656771
 20
28757.03371882437
 30
0.0
 40
0.5
100
AcDbArc
 50
270.0
 51
0.0
  0
LINE
  5
11CB
330
1F
100
AcDbEntity
  8
外形線
100
AcDbLine
 10
33816.93934656771
 20
28756.53371882437
 30
0.0
 11
33795.93934656771
 21
28756.53371882437
 31
0.0
  0
ARC
  5
11CC
330
1F
100
AcDbEntity
  8
外形線
100
AcDbCircle
 10
33795.93934656771
 20
28757.03371882437
 30
0.0
 40
0.5
100
AcDbArc
 50
180.0
 51
270.0
  0
LINE
  5
11CD
330
1F
100
AcDbEntity
  8
外形線
100
AcDbLine
 10
33817.43934656771
 20
28776.53371882437
 30
0.0
 11
33828.93934656771
 21
28776.53371882437
 31
0.0
  0
LINE
  5
11CE
330
1F
100
AcDbEntity
  8
外形線
100
AcDbLine
 10
33829.43934656771
 20
28776.03371882437
 30
0.0
 11
33829.43934656771
 21
28768.03371882437
 31
0.0
  0
ARC
  5
11CF
330
1F
100
AcDbEntity
  8
外形線
100
AcDbCircle
 10
33828.93934656771
 20
28776.03371882437
 30
0.0
 40
0.5
100
AcDbArc
 50
0.0
 51
90.0
  0
ARC
  5
11D0
330
1F
100
AcDbEntity
  8
外形線
100
AcDbCircle
 10
33828.93934656771
 20
28768.03371882437
 30
0.0
 40
0.5
100
AcDbArc
 50
270.0
 51
0.0
  0
LINE
  5
11D1
330
1F
100
AcDbEntity
  8
外形線
100
AcDbLine
 10
33829.43934656771
 20
28767.53371882437
 30
0.0
 11
33817.43934656771
 21
28767.53371882437
 31
0.0
  0
LINE
  5
11D2
330
1F
100
AcDbEntity
  8
外形線
100
AcDbLine
 10
33817.93934656771
 20
28767.53371882437
 30
0.0
 11
33817.93934656771
 21
28766.03371882437
 31
0.0
  0
LINE
  5
11D3
330
1F
100
AcDbEntity
  8
外形線
100
AcDbLine
 10
33818.43934656771
 20
28765.53371882437
 30
0.0
 11
33828.93934656771
 21
28765.53371882437
 31
0.0
  0
ARC
  5
11D4
330
1F
100
AcDbEntity
  8
外形線
100
AcDbCircle
 10
33818.43934656771
 20
28766.03371882437
 30
0.0
 40
0.5
100
AcDbArc
 50
180.0
 51
270.0
  0
LINE
  5
11D5
330
1F
100
AcDbEntity
  8
外形線
100
AcDbLine
 10
33829.43934656771
 20
28766.03371882437
 30
0.0
 11
33829.43934656771
 21
28767.53371882437
 31
0.0
  0
ARC
  5
11D6
330
1F
100
AcDbEntity
  8
外形線
100
AcDbCircle
 10
33828.93934656771
 20
28766.03371882437
 30
0.0
 40
0.5
100
AcDbArc
 50
270.0
 51
0.0
  0
LINE
  5
11D7
330
1F
100
AcDbEntity
  8
外形線
100
AcDbLine
 10
33856.63934656769
 20
28752.53371882437
 30
0.0
 11
33856.63934656769
 21
28776.53371882437
 31
0.0
  0
LINE
  5
11D8
330
1F
100
AcDbEntity
  8
外形線
100
AcDbLine
 10
33856.63934656769
 20
28776.53371882437
 30
0.0
 11
33983.63934656769
 21
28776.53371882437
 31
0.0
  0
LINE
  5
11D9
330
1F
100
AcDbEntity
  8
外形線
100
AcDbLine
 10
33983.63934656769
 20
28776.53371882437
 30
0.0
 11
33983.63934656769
 21
28752.53371882437
 31
0.0
  0
ARC
  5
11DA
330
1F
100
AcDbEntity
  8
外形線
100
AcDbCircle
 10
33982.63934656769
 20
28752.53371882437
 30
0.0
 40
1.0
100
AcDbArc
 50
270.0
 51
0.0
  0
LINE
  5
11DB
102
{ACAD_REACTORS
330
2256
102
}
330
1F
100
AcDbEntity
  8
外形線
100
AcDbLine
 10
33982.63934656769
 20
28751.53371882437
 30
0.0
 11
33857.63934656769
 21
28751.53371882437
 31
0.0
  0
ARC
  5
11DC
330
1F
100
AcDbEntity
  8
外形線
100
AcDbCircle
 10
33857.63934656769
 20
28752.53371882437
 30
0.0
 40
1.0
100
AcDbArc
 50
180.0
 51
270.0
  0
LINE
  5
11DD
330
1F
100
AcDbEntity
  8
外形線
100
AcDbLine
 10
33856.63934656769
 20
28768.53371882437
 30
0.0
 11
33853.03934656769
 21
28774.53371882437
 31
0.0
  0
LINE
  5
11DE
330
1F
100
AcDbEntity
  8
外形線
100
AcDbLine
 10
33853.03934656769
 20
28774.53371882437
 30
0.0
 11
33845.13934656769
 21
28774.53371882437
 31
0.0
  0
LINE
  5
11DF
330
1F
100
AcDbEntity
  8
外形線
100
AcDbLine
 10
33844.63934656769
 20
28775.03371882437
 30
0.0
 11
33844.63934656769
 21
28776.53371882437
 31
0.0
  0
ARC
  5
11E0
330
1F
100
AcDbEntity
  8
外形線
100
AcDbCircle
 10
33845.13934656769
 20
28775.03371882437
 30
0.0
 40
0.5
100
AcDbArc
 50
180.0
 51
270.0
  0
LINE
  5
11E1
330
1F
100
AcDbEntity
  8
外形線
100
AcDbLine
 10
33844.63934656769
 20
28776.53371882437
 30
0.0
 11
33856.63934656769
 21
28776.53371882437
 31
0.0
  0
LINE
  5
11E2
330
1F
100
AcDbEntity
  8
外形線
100
AcDbLine
 10
33983.63934656769
 20
28768.53371882437
 30
0.0
 11
33987.23934656769
 21
28774.53371882437
 31
0.0
  0
LINE
  5
11E3
330
1F
100
AcDbEntity
  8
外形線
100
AcDbLine
 10
33987.23934656769
 20
28774.53371882437
 30
0.0
 11
33995.13934656769
 21
28774.53371882437
 31
0.0
  0
LINE
  5
11E4
330
1F
100
AcDbEntity
  8
外形線
100
AcDbLine
 10
33995.63934656769
 20
28775.03371882437
 30
0.0
 11
33995.63934656769
 21
28776.53371882437
 31
0.0
  0
ARC
  5
11E5
330
1F
100
AcDbEntity
  8
外形線
100
AcDbCircle
 10
33995.13934656769
 20
28775.03371882437
 30
0.0
 40
0.5
100
AcDbArc
 50
270.0
 51
0.0
  0
LINE
  5
11E6
330
1F
100
AcDbEntity
  8
外形線
100
AcDbLine
 10
33995.63934656769
 20
28776.53371882437
 30
0.0
 11
33983.63934656769
 21
28776.53371882437
 31
0.0
  0
LINE
  5
11F0
330
1F
100
AcDbEntity
  8
点線
100
AcDbLine
 10
33657.15049218569
 20
28797.17814601537
 30
0.0
 11
33657.93934656768
 21
28796.78371882437
 31
0.0
  0
ARC
  5
11F1
330
1F
100
AcDbEntity
  8
点線
100
AcDbCircle
 10
33656.70327859018
 20
28796.28371882437
 30
0.0
 40
1.0
100
AcDbArc
 50
63.43494882293294
 51
90.0
  0
LINE
  5
11F2
330
1F
100
AcDbEntity
  8
点線
100
AcDbLine
 10
33657.93934656768
 20
28796.78371882437
 30
0.0
 11
33657.93934656768
 21
28827.78371882436
 31
0.0
  0
LINE
  5
11F3
330
1F
100
AcDbEntity
  8
点線
100
AcDbLine
 10
33657.93934656768
 20
28827.78371882436
 30
0.0
 11
33657.15049218569
 21
28827.38929163337
 31
0.0
  0
ARC
  5
11F4
330
1F
100
AcDbEntity
  8
点線
100
AcDbCircle
 10
33656.70327859018
 20
28828.28371882437
 30
0.0
 40
1.0
100
AcDbArc
 50
270.0
 51
296.5650511770671
  0
LINE
  5
11F5
330
1F
100
AcDbEntity
  8
点線
100
AcDbLine
 10
33656.70327859018
 20
28827.28371882437
 30
0.0
 11
33647.93934656769
 21
28827.28371882437
 31
0.0
  0
ARC
  5
11F7
330
1F
100
AcDbEntity
  8
点線
100
AcDbCircle
 10
33647.93934656769
 20
28826.28371882437
 30
0.0
 40
1.0
100
AcDbArc
 50
90.0
 51
180.0
  0
LINE
  5
11F8
330
1F
100
AcDbEntity
  8
点線
100
AcDbLine
 10
33647.93934656769
 20
28797.28371882436
 30
0.0
 11
33656.70327859018
 21
28797.28371882436
 31
0.0
  0
ARC
  5
11F9
330
1F
100
AcDbEntity
  8
点線
100
AcDbCircle
 10
33647.93934656769
 20
28798.28371882437
 30
0.0
 40
1.0
100
AcDbArc
 50
180.0
 51
270.0
  0
LINE
  5
11FA
330
1F
100
AcDbEntity
  8
点線
100
AcDbLine
 10
34216.72820094968
 20
28797.17814601537
 30
0.0
 11
34215.93934656768
 21
28796.78371882437
 31
0.0
  0
ARC
  5
11FB
330
1F
100
AcDbEntity
  8
点線
100
AcDbCircle
 10
34217.17541454519
 20
28796.28371882437
 30
0.0
 40
1.0
100
AcDbArc
 50
90.0
 51
116.5650511771067
  0
LINE
  5
11FC
330
1F
100
AcDbEntity
  8
点線
100
AcDbLine
 10
34215.93934656768
 20
28796.78371882437
 30
0.0
 11
34215.93934656768
 21
28827.78371882437
 31
0.0
  0
LINE
  5
11FD
330
1F
100
AcDbEntity
  8
点線
100
AcDbLine
 10
34215.93934656768
 20
28827.78371882437
 30
0.0
 11
34216.72820094968
 21
28827.38929163337
 31
0.0
  0
ARC
  5
11FE
330
1F
100
AcDbEntity
  8
点線
100
AcDbCircle
 10
34217.17541454519
 20
28828.28371882437
 30
0.0
 40
1.0
100
AcDbArc
 50
243.4349488228932
 51
270.0
  0
LINE
  5
11FF
330
1F
100
AcDbEntity
  8
点線
100
AcDbLine
 10
34217.17541454519
 20
28827.28371882437
 30
0.0
 11
34225.93934656768
 21
28827.28371882437
 31
0.0
  0
LINE
  5
1200
330
1F
100
AcDbEntity
  8
点線
100
AcDbLine
 10
34226.93934656769
 20
28826.28371882437
 30
0.0
 11
34226.93934656769
 21
28798.28371882437
 31
0.0
  0
ARC
  5
1201
330
1F
100
AcDbEntity
  8
点線
100
AcDbCircle
 10
34225.93934656768
 20
28826.28371882437
 30
0.0
 40
1.0
100
AcDbArc
 50
0.0
 51
90.0
  0
LINE
  5
1202
330
1F
100
AcDbEntity
  8
点線
100
AcDbLine
 10
34225.93934656768
 20
28797.28371882437
 30
0.0
 11
34217.17541454519
 21
28797.28371882437
 31
0.0
  0
ARC
  5
1203
330
1F
100
AcDbEntity
  8
点線
100
AcDbCircle
 10
34225.93934656768
 20
28798.28371882437
 30
0.0
 40
1.0
100
AcDbArc
 50
270.0
 51
0.0
  0
LINE
  5
1204
330
1F
100
AcDbEntity
  8
点線
100
AcDbLine
 10
33657.93934656768
 20
28826.78371882437
 30
0.0
 11
34061.93934656768
 21
28826.78371882437
 31
0.0
  0
LINE
  5
1205
330
1F
100
AcDbEntity
  8
点線
100
AcDbLine
 10
34215.93934656768
 20
28797.78371882437
 30
0.0
 11
34061.93934656768
 21
28797.78371882437
 31
0.0
  0
LINE
  5
120A
330
1F
100
AcDbEntity
  8
点線
100
AcDbLine
 10
34061.93934656768
 20
28826.78371882437
 30
0.0
 11
34215.93934656768
 21
28826.78371882437
 31
0.0
  0
LINE
  5
120B
330
1F
100
AcDbEntity
  8
点線
100
AcDbLine
 10
34061.93934656768
 20
28797.78371882437
 30
0.0
 11
33657.93934656768
 21
28797.78371882437
 31
0.0
  0
XLINE
  5
1230
330
1F
100
AcDbEntity
  8
オフセット
100
AcDbXline
 10
32915.44093491146
 20
27877.44632341185
 30
0.0
 11
-1.0
 21
0.0
 31
0.0
  0
XLINE
  5
129A
330
1F
100
AcDbEntity
  8
オフセット
100
AcDbXline
 10
32915.44093491146
 20
27897.44632341184
 30
0.0
 11
-1.0
 21
0.0
 31
0.0
  0
XLINE
  5
129B
330
1F
100
AcDbEntity
  8
オフセット
100
AcDbXline
 10
32915.44093491146
 20
27657.44632341184
 30
0.0
 11
-1.0
 21
0.0
 31
0.0
  0
CIRCLE
  5
13AF
330
1F
100
AcDbEntity
  8
○
100
AcDbCircle
 10
34319.43934656766
 20
28941.00189436203
 30
0.0
 40
15.0
  0
MTEXT
  5
13B0
330
1F
100
AcDbEntity
  8
寸法線
100
AcDbMText
 10
34312.94651810594
 20
28950.74574485303
 30
0.0
 40
20.0
 41
35.534113038535
 46
0.0
 71
     1
 72
     5
  1
2
 73
     1
 44
1.0
1001
ACAD
1000
ACAD_MTEXT_COLUMN_INFO_BEGIN
1070
    75
1070
     2
1070
    79
1070
     0
1070
    76
1070
     1
1070
    78
1070
     0
1070
    48
1040
35.534113038535
1070
    49
1040
12.5
1070
    50
1070
     1
1040
0.0
1000
ACAD_MTEXT_COLUMN_INFO_END
  0
LINE
  5
13B1
330
1F
100
AcDbEntity
  8
○
100
AcDbLine
 10
34310.65756962166
 20
28953.1625026392
 30
0.0
 11
34254.7440977461
 21
29002.19293344862
 31
0.0
  0
LINE
  5
13B2
330
1F
100
AcDbEntity
  8
○
100
AcDbLine
 10
34309.92125920918
 20
28929.86124485975
 30
0.0
 11
34253.89432525709
 21
28819.35274778716
 31
0.0
  0
MTEXT
  5
13B3
330
1F
100
AcDbEntity
  8
寸法線
100
AcDbMText
 10
34053.8154419997
 20
29341.17287490402
 30
0.0
 40
9.600000000000001
 41
206.0602204717434
 46
0.0
 71
     1
 72
     5
  1
{\fMS PGothic|b0|i0|c128|p50;ランプソケット取付金具}
 73
     1
 44
1.0
1001
ACAD
1000
ACAD_MTEXT_COLUMN_INFO_BEGIN
1070
    75
1070
     2
1070
    79
1070
     0
1070
    76
1070
     1
1070
    78
1070
     0
1070
    48
1040
206.0602204717434
1070
    49
1040
12.5
1070
    50
1070
     1
1040
0.0
1000
ACAD_MTEXT_COLUMN_INFO_END
  0
MTEXT
  5
13B4
330
1F
100
AcDbEntity
  8
寸法線
100
AcDbMText
 10
34234.698096507
 20
29345.69618849504
 30
0.0
 40
8.0
 41
163.0743348696414
 46
0.0
 71
     1
 72
     5
  1
{\fMS PGothic|b0|i0|c128|p50;鋼鈑　}1{\fMS PGothic|b0|i0|c128|p50;ｔ}\P{\fMS PGothic|b0|i0|c128|p50;（亜鉛メッキ板）}
 73
     1
 44
1.0
1001
ACAD
1000
ACAD_MTEXT_COLUMN_INFO_BEGIN
1070
    75
1070
     2
1070
    79
1070
     0
1070
    76
1070
     1
1070
    78
1070
     0
1070
    48
1040
163.0743348696414
1070
    49
1040
12.5
1070
    50
1070
     1
1040
0.0
1000
ACAD_MTEXT_COLUMN_INFO_END
  0
XLINE
  5
17D7
330
1F
100
AcDbEntity
  8
オフセット
100
AcDbXline
 10
33437.07906368178
 20
27902.11527306976
 30
0.0
 11
0.0
 21
-1.0
 31
0.0
  0
XLINE
  5
17DD
330
1F
100
AcDbEntity
  8
オフセット
100
AcDbXline
 10
32678.26842177908
 20
26638.05684584568
 30
0.0
 11
-1.0
 21
0.0
 31
0.0
  0
LINE
  5
1B71
330
1F
100
AcDbEntity
  8
外形線
100
AcDbLine
 10
33646.93934656768
 20
28827.03371882437
 30
0.0
 11
33646.93934656768
 21
28797.53371882437
 31
0.0
  0
XLINE
  5
1CF5
330
1F
100
AcDbEntity
  8
オフセット
100
AcDbXline
 10
32678.26842177908
 20
26838.05684584568
 30
0.0
 11
-1.0
 21
0.0
 31
0.0
  0
XLINE
  5
1CF6
330
1F
100
AcDbEntity
  8
オフセット
100
AcDbXline
 10
34287.07906368178
 20
27902.11527306976
 30
0.0
 11
0.0
 21
-1.0
 31
0.0
  0
XLINE
  5
1CF7
330
1F
100
AcDbEntity
  8
オフセット
100
AcDbXline
 10
34109.07906368178
 20
27902.11527306976
 30
0.0
 11
0.0
 21
-1.0
 31
0.0
  0
XLINE
  5
1CF8
330
1F
100
AcDbEntity
  8
オフセット
100
AcDbXline
 10
33773.07906368178
 20
27902.11527306976
 30
0.0
 11
0.0
 21
-1.0
 31
0.0
  0
XLINE
  5
1CF9
330
1F
100
AcDbEntity
  8
オフセット
100
AcDbXline
 10
33600.0790636818
 20
27902.11527306976
 30
0.0
 11
0.0
 21
-1.0
 31
0.0
  0
XLINE
  5
1CFA
330
1F
100
AcDbEntity
  8
オフセット
100
AcDbXline
 10
33711.27906368178
 20
27902.11527306976
 30
0.0
 11
0.0
 21
-1.0
 31
0.0
  0
XLINE
  5
1D80
330
1F
100
AcDbEntity
  8
オフセット
100
AcDbXline
 10
33486.07906368178
 20
27902.11527306976
 30
0.0
 11
0.0
 21
-1.0
 31
0.0
  0
XLINE
  5
1D81
330
1F
100
AcDbEntity
  8
オフセット
100
AcDbXline
 10
34060.07906368178
 20
27902.11527306976
 30
0.0
 11
0.0
 21
-1.0
 31
0.0
  0
XLINE
  5
1D82
330
1F
100
AcDbEntity
  8
オフセット
100
AcDbXline
 10
32678.26842177908
 20
26878.05684584568
 30
0.0
 11
-1.0
 21
0.0
 31
0.0
  0
XLINE
  5
1D83
330
1F
100
AcDbEntity
  8
オフセット
100
AcDbXline
 10
32678.26842177908
 20
26598.05684584568
 30
0.0
 11
-1.0
 21
0.0
 31
0.0
  0
LINE
  5
1D84
330
1F
100
AcDbEntity
  8
中心線
100
AcDbLine
 10
33680.93934656768
 20
29035.36652595339
 30
0.0
 11
33680.93934656768
 21
28736.53371882437
 31
0.0
  0
LINE
  5
1D85
330
1F
100
AcDbEntity
  8
中心線
100
AcDbLine
 10
34205.93934656769
 20
29035.46367220805
 30
0.0
 11
34205.93934656769
 21
28736.53371882437
 31
0.0
  0
XLINE
  5
1D86
330
1F
100
AcDbEntity
  8
オフセット
100
AcDbXline
 10
32678.26842177908
 20
26718.05684584568
 30
0.0
 11
-1.0
 21
0.0
 31
0.0
  0
XLINE
  5
1DE7
330
1F
100
AcDbEntity
  8
オフセット
100
AcDbXline
 10
34276.07906368178
 20
27902.11527306976
 30
0.0
 11
0.0
 21
-1.0
 31
0.0
  0
XLINE
  5
1DE8
330
1F
100
AcDbEntity
  8
オフセット
100
AcDbXline
 10
34906.07906368178
 20
27902.11527306976
 30
0.0
 11
0.0
 21
-1.0
 31
0.0
  0
XLINE
  5
1DE9
330
1F
100
AcDbEntity
  8
オフセット
100
AcDbXline
 10
34591.07906368178
 20
27902.11527306976
 30
0.0
 11
0.0
 21
-1.0
 31
0.0
  0
XLINE
  5
1DEA
330
1F
100
AcDbEntity
  8
オフセット
100
AcDbXline
 10
32678.26842177908
 20
26673.80684584568
 30
0.0
 11
-1.0
 21
0.0
 31
0.0
  0
XLINE
  5
1E48
330
1F
100
AcDbEntity
  8
オフセット
100
AcDbXline
 10
32915.44093491146
 20
28941.00189436203
 30
0.0
 11
-1.0
 21
0.0
 31
0.0
  0
LINE
  5
203F
330
1F
100
AcDbEntity
  8
外形線
100
AcDbLine
 10
33632.43934656769
 20
28786.53371882437
 30
0.0
 11
33632.43934656769
 21
28776.53371882437
 31
0.0
  0
LINE
  5
2040
330
1F
100
AcDbEntity
  8
外形線
100
AcDbLine
 10
33632.43934656769
 20
28776.53371882437
 30
0.0
 11
34254.43934656768
 21
28776.53371882437
 31
0.0
  0
LINE
  5
2041
102
{ACAD_REACTORS
330
223A
330
2256
330
2329
102
}
330
1F
100
AcDbEntity
  8
外形線
100
AcDbLine
 10
34254.43934656768
 20
28776.53371882437
 30
0.0
 11
34254.43934656768
 21
28786.53371882437
 31
0.0
  0
LINE
  5
2042
330
1F
100
AcDbEntity
  8
外形線
100
AcDbLine
 10
34254.43934656768
 20
28786.53371882437
 30
0.0
 11
33632.43934656769
 21
28786.53371882437
 31
0.0
  0
LINE
  5
2043
330
1F
100
AcDbEntity
  8
外形線
100
AcDbLine
 10
33632.43934656769
 20
28792.53371917338
 30
0.0
 11
33632.43934656769
 21
28828.53371882437
 31
0.0
  0
LINE
  5
2044
330
1F
100
AcDbEntity
  8
外形線
100
AcDbLine
 10
33633.43934656768
 20
28808.53371882437
 30
0.0
 11
33635.71524848823
 21
28808.07853844026
 31
0.0
  0
LINE
  5
2045
330
1F
100
AcDbEntity
  8
外形線
100
AcDbLine
 10
33633.43934656768
 20
28808.53371882437
 30
0.0
 11
33633.43934656768
 21
28828.53371882437
 31
0.0
  0
LINE
  5
2046
330
1F
100
AcDbEntity
  8
外形線
100
AcDbLine
 10
33633.43934656768
 20
28828.53371882437
 30
0.0
 11
33632.43934656769
 21
28828.53371882437
 31
0.0
  0
ELLIPSE
  5
2047
330
1F
100
AcDbEntity
  8
外形線
100
AcDbEllipse
 10
33635.79648942482
 20
28806.03371882437
 30
0.0
 11
-2.35714285713766
 21
1.5
 31
0.0
210
0.0
220
0.0
230
1.0
 40
0.6753514169109462
 41
3.682438273673346
 42
4.822127997503216
  0
ARC
  5
2048
330
1F
100
AcDbEntity
  8
外形線
100
AcDbCircle
 10
33635.12690008274
 20
28805.13679641308
 30
0.0
 40
3.0
100
AcDbArc
 50
61.78442072581224
 51
78.69006752528486
  0
LINE
  5
2049
330
1F
100
AcDbEntity
  8
外形線
100
AcDbLine
 10
33633.43934656768
 20
28828.03371882437
 30
0.0
 11
33633.93934656769
 21
28828.03371882437
 31
0.0
  0
LINE
  5
204A
330
1F
100
AcDbEntity
  8
外形線
100
AcDbLine
 10
33633.93934656769
 20
28828.03371882437
 30
0.0
 11
33633.93934656769
 21
28808.43371882437
 31
0.0
  0
LINE
  5
204B
330
1F
100
AcDbEntity
  8
外形線
100
AcDbLine
 10
33633.93934656769
 20
28828.03371882437
 30
0.0
 11
33645.93934656769
 21
28828.03371882437
 31
0.0
  0
LINE
  5
204C
330
1F
100
AcDbEntity
  8
外形線
100
AcDbLine
 10
33646.93934656768
 20
28827.03371882437
 30
0.0
 11
33646.93934656768
 21
28797.53371882437
 31
0.0
  0
ARC
  5
204D
330
1F
100
AcDbEntity
  8
外形線
100
AcDbCircle
 10
33645.93934656769
 20
28827.03371882437
 30
0.0
 40
1.0
100
AcDbArc
 50
0.0
 51
90.0
  0
ARC
  5
204E
330
1F
100
AcDbEntity
  8
外形線
100
AcDbCircle
 10
33645.93934656769
 20
28797.53371882437
 30
0.0
 40
1.0
100
AcDbArc
 50
270.0
 51
0.0
  0
LINE
  5
204F
330
1F
100
AcDbEntity
  8
外形線
100
AcDbLine
 10
33645.93934656769
 20
28796.53371882437
 30
0.0
 11
33638.33877405726
 21
28796.53371882437
 31
0.0
  0
LINE
  5
2050
330
1F
100
AcDbEntity
  8
外形線
100
AcDbLine
 10
33638.33877405726
 20
28805.56741567915
 30
0.0
 11
33638.33877405726
 21
28796.53371882437
 31
0.0
  0
LINE
  5
2051
330
1F
100
AcDbEntity
  8
外形線
100
AcDbLine
 10
33638.33877405726
 20
28796.53371882437
 30
0.0
 11
33638.33877405725
 21
28791.57259071246
 31
0.0
  0
ARC
  5
2052
330
1F
100
AcDbEntity
  8
外形線
100
AcDbCircle
 10
33628.89136270595
 20
28792.99166929691
 30
0.0
 40
9.559246875214904
100
AcDbArc
 50
323.1356689796041
 51
350.9878324004474
  0
ARC
  5
2053
330
1F
100
AcDbEntity
  8
外形線
100
AcDbCircle
 10
33636.93934656768
 20
28786.95690304514
 30
0.0
 40
0.5
100
AcDbArc
 50
143.1356689792655
 51
180.0000000008337
  0
ARC
  5
2054
330
1F
100
AcDbEntity
  8
外形線
100
AcDbCircle
 10
33637.83877405726
 20
28791.57259071246
 30
0.0
 40
0.5
100
AcDbArc
 50
350.9878324008564
 51
0.0
  0
LINE
  5
2055
330
1F
100
AcDbEntity
  8
外形線
100
AcDbLine
 10
33636.43934656769
 20
28786.53371882437
 30
0.0
 11
33636.43934656769
 21
28786.95690304513
 31
0.0
  0
LINE
  5
2056
330
1F
100
AcDbEntity
  8
外形線
100
AcDbLine
 10
34254.43934656768
 20
28782.53371917338
 30
0.0
 11
34255.12262814069
 21
28783.90028231939
 31
0.0
  0
ARC
  5
2057
330
1F
100
AcDbEntity
  8
外形線
100
AcDbCircle
 10
34252.43934656768
 20
28785.24192310588
 30
0.0
 40
3.0
100
AcDbArc
 50
333.4349488229204
 51
0.0
  0
LINE
  5
2058
330
1F
100
AcDbEntity
  8
外形線
100
AcDbLine
 10
34255.43934656769
 20
28785.24192310588
 30
0.0
 11
34255.43934656769
 21
28791.119505611
 31
0.0
  0
ARC
  5
2059
330
1F
100
AcDbEntity
  8
外形線
100
AcDbCircle
 10
34254.93934656769
 20
28791.119505611
 30
0.0
 40
0.5
100
AcDbArc
 50
0.0
 51
44.99999999955352
  0
LINE
  5
205A
330
1F
100
AcDbEntity
  8
外形線
100
AcDbLine
 10
34255.29289995828
 20
28791.47305900159
 30
0.0
 11
34254.58579317709
 21
28792.18016578279
 31
0.0
  0
ARC
  5
205B
330
1F
100
AcDbEntity
  8
外形線
100
AcDbCircle
 10
34254.93934656769
 20
28792.53371917338
 30
0.0
 40
0.5
100
AcDbArc
 50
180.0
 51
224.9999999995535
  0
LINE
  5
205C
102
{ACAD_REACTORS
330
2329
102
}
330
1F
100
AcDbEntity
  8
外形線
100
AcDbLine
 10
34254.43934656768
 20
28792.53371917338
 30
0.0
 11
34254.43934656768
 21
28828.53371882437
 31
0.0
  0
LINE
  5
205D
330
1F
100
AcDbEntity
  8
外形線
100
AcDbLine
 10
34253.43934656769
 20
28808.53371882437
 30
0.0
 11
34251.16344464714
 21
28808.07853844026
 31
0.0
  0
LINE
  5
205E
330
1F
100
AcDbEntity
  8
外形線
100
AcDbLine
 10
34253.43934656769
 20
28808.53371882437
 30
0.0
 11
34253.43934656769
 21
28828.53371882437
 31
0.0
  0
LINE
  5
205F
102
{ACAD_REACTORS
330
223A
102
}
330
1F
100
AcDbEntity
  8
外形線
100
AcDbLine
 10
34253.43934656769
 20
28828.53371882437
 30
0.0
 11
34254.43934656768
 21
28828.53371882437
 31
0.0
  0
ELLIPSE
  5
2060
330
1F
100
AcDbEntity
  8
外形線
100
AcDbEllipse
 10
34251.08220371055
 20
28806.03371882437
 30
0.0
 11
2.35714285713766
 21
1.5
 31
0.0
210
0.0
220
0.0
230
-1.0
 40
0.6753514169109462
 41
3.682438273673346
 42
4.822127997503216
  0
ARC
  5
2061
330
1F
100
AcDbEntity
  8
外形線
100
AcDbCircle
 10
34251.75179305263
 20
28805.13679641308
 30
0.0
 40
3.0
100
AcDbArc
 50
101.3099324747151
 51
118.2155792741879
  0
LINE
  5
2062
330
1F
100
AcDbEntity
  8
外形線
100
AcDbLine
 10
34253.43934656769
 20
28828.03371882437
 30
0.0
 11
34252.93934656768
 21
28828.03371882437
 31
0.0
  0
LINE
  5
2063
330
1F
100
AcDbEntity
  8
外形線
100
AcDbLine
 10
34252.93934656768
 20
28828.03371882437
 30
0.0
 11
34252.93934656768
 21
28808.43371882437
 31
0.0
  0
LINE
  5
2064
330
1F
100
AcDbEntity
  8
外形線
100
AcDbLine
 10
34252.93934656768
 20
28828.03371882437
 30
0.0
 11
34238.93934656768
 21
28828.03371882437
 31
0.0
  0
LINE
  5
2065
330
1F
100
AcDbEntity
  8
外形線
100
AcDbLine
 10
34237.93934656769
 20
28827.03371882437
 30
0.0
 11
34237.93934656769
 21
28797.53371882437
 31
0.0
  0
ARC
  5
2066
330
1F
100
AcDbEntity
  8
外形線
100
AcDbCircle
 10
34238.93934656768
 20
28827.03371882437
 30
0.0
 40
1.0
100
AcDbArc
 50
90.0
 51
180.0
  0
ARC
  5
2067
330
1F
100
AcDbEntity
  8
外形線
100
AcDbCircle
 10
34238.93934656768
 20
28797.53371882437
 30
0.0
 40
1.0
100
AcDbArc
 50
180.0
 51
270.0
  0
LINE
  5
2068
330
1F
100
AcDbEntity
  8
外形線
100
AcDbLine
 10
34238.93934656768
 20
28796.53371882437
 30
0.0
 11
34248.5399190781
 21
28796.53371882437
 31
0.0
  0
LINE
  5
2069
330
1F
100
AcDbEntity
  8
外形線
100
AcDbLine
 10
34248.53991907811
 20
28805.56741567915
 30
0.0
 11
34248.53991907811
 21
28796.53371882437
 31
0.0
  0
LINE
  5
206A
330
1F
100
AcDbEntity
  8
外形線
100
AcDbLine
 10
34248.53991907811
 20
28796.53371882437
 30
0.0
 11
34248.53991907812
 21
28791.57259071246
 31
0.0
  0
ARC
  5
206B
330
1F
100
AcDbEntity
  8
外形線
100
AcDbCircle
 10
34257.98733042943
 20
28792.99166929691
 30
0.0
 40
9.559246875214904
100
AcDbArc
 50
189.0121675995525
 51
216.8643310199851
  0
ARC
  5
206C
330
1F
100
AcDbEntity
  8
外形線
100
AcDbCircle
 10
34249.93934656769
 20
28786.95690304514
 30
0.0
 40
0.5
100
AcDbArc
 50
359.9999999991662
 51
36.86433102115561
  0
ARC
  5
206D
330
1F
100
AcDbEntity
  8
外形線
100
AcDbCircle
 10
34249.03991907811
 20
28791.57259071246
 30
0.0
 40
0.5
100
AcDbArc
 50
180.0
 51
189.0121675991436
  0
LINE
  5
206E
330
1F
100
AcDbEntity
  8
外形線
100
AcDbLine
 10
34250.43934656768
 20
28786.53371882437
 30
0.0
 11
34250.43934656768
 21
28786.95690304513
 31
0.0
  0
LINE
  5
206F
330
1F
100
AcDbEntity
  8
外形線
100
AcDbLine
 10
34237.93934656769
 20
28823.58371882437
 30
0.0
 11
34229.43934656768
 21
28823.58371882437
 31
0.0
  0
ARC
  5
2070
330
1F
100
AcDbEntity
  8
外形線
100
AcDbCircle
 10
34229.43934656768
 20
28823.08371882437
 30
0.0
 40
0.5
100
AcDbArc
 50
90.0
 51
180.0
  0
LINE
  5
2071
330
1F
100
AcDbEntity
  8
外形線
100
AcDbLine
 10
34228.93934656769
 20
28823.08371882437
 30
0.0
 11
34228.93934656769
 21
28801.48371882436
 31
0.0
  0
LINE
  5
2072
330
1F
100
AcDbEntity
  8
外形線
100
AcDbLine
 10
34229.43934656768
 20
28800.98371882437
 30
0.0
 11
34237.93934656769
 21
28800.98371882437
 31
0.0
  0
ARC
  5
2073
330
1F
100
AcDbEntity
  8
外形線
100
AcDbCircle
 10
34229.43934656768
 20
28801.48371882436
 30
0.0
 40
0.5
100
AcDbArc
 50
180.0
 51
270.0
  0
LINE
  5
2074
330
1F
100
AcDbEntity
  8
外形線
100
AcDbLine
 10
33670.93934656768
 20
28776.53371882437
 30
0.0
 11
33670.93934656768
 21
28773.03371882437
 31
0.0
  0
LINE
  5
2075
330
1F
100
AcDbEntity
  8
外形線
100
AcDbLine
 10
33671.43934656768
 20
28772.53371882437
 30
0.0
 11
33690.43934656768
 21
28772.53371882437
 31
0.0
  0
ARC
  5
2076
330
1F
100
AcDbEntity
  8
外形線
100
AcDbCircle
 10
33671.43934656768
 20
28773.03371882437
 30
0.0
 40
0.5
100
AcDbArc
 50
180.0
 51
270.0
  0
LINE
  5
2077
330
1F
100
AcDbEntity
  8
外形線
100
AcDbLine
 10
33690.93934656769
 20
28773.03371882437
 30
0.0
 11
33690.93934656769
 21
28776.53371882437
 31
0.0
  0
ARC
  5
2078
330
1F
100
AcDbEntity
  8
外形線
100
AcDbCircle
 10
33690.43934656768
 20
28773.03371882437
 30
0.0
 40
0.5
100
AcDbArc
 50
270.0
 51
0.0
  0
LINE
  5
2079
330
1F
100
AcDbEntity
  8
外形線
100
AcDbLine
 10
33690.93934656769
 20
28774.53371882437
 30
0.0
 11
33691.43934656769
 21
28774.53371882437
 31
0.0
  0
ARC
  5
207A
330
1F
100
AcDbEntity
  8
外形線
100
AcDbCircle
 10
33691.90857016128
 20
28776.50968933238
 30
0.0
 40
2.030918567864959
100
AcDbArc
 50
256.6416865202829
 51
0.6779299878933221
  0
ARC
  5
207B
330
1F
100
AcDbEntity
  8
外形線
100
AcDbCircle
 10
33691.9489628037
 20
28776.49056896024
 30
0.0
 40
1.617898346868975
100
AcDbArc
 50
251.6399975157823
 51
1.371947721248666
  0
LINE
  5
207C
330
1F
100
AcDbEntity
  8
外形線
100
AcDbLine
 10
33691.43934656769
 20
28776.53371882437
 30
0.0
 11
33691.43934656769
 21
28774.95502789834
 31
0.0
  0
LINE
  5
207D
330
1F
100
AcDbEntity
  8
外形線
100
AcDbLine
 10
34215.93934656768
 20
28776.53371882437
 30
0.0
 11
34215.93934656768
 21
28773.03371882437
 31
0.0
  0
LINE
  5
207E
330
1F
100
AcDbEntity
  8
外形線
100
AcDbLine
 10
34215.43934656769
 20
28772.53371882437
 30
0.0
 11
34196.43934656769
 21
28772.53371882437
 31
0.0
  0
ARC
  5
207F
330
1F
100
AcDbEntity
  8
外形線
100
AcDbCircle
 10
34215.43934656769
 20
28773.03371882437
 30
0.0
 40
0.5
100
AcDbArc
 50
270.0
 51
0.0
  0
LINE
  5
2080
330
1F
100
AcDbEntity
  8
外形線
100
AcDbLine
 10
34195.93934656769
 20
28773.03371882437
 30
0.0
 11
34195.93934656769
 21
28776.53371882437
 31
0.0
  0
ARC
  5
2081
330
1F
100
AcDbEntity
  8
外形線
100
AcDbCircle
 10
34196.43934656769
 20
28773.03371882437
 30
0.0
 40
0.5
100
AcDbArc
 50
180.0
 51
270.0
  0
LINE
  5
2082
330
1F
100
AcDbEntity
  8
外形線
100
AcDbLine
 10
34195.93934656769
 20
28774.53371882437
 30
0.0
 11
34195.43934656768
 21
28774.53371882437
 31
0.0
  0
ARC
  5
2083
330
1F
100
AcDbEntity
  8
外形線
100
AcDbCircle
 10
34194.97012297409
 20
28776.50968933238
 30
0.0
 40
2.030918567864959
100
AcDbArc
 50
179.3220700121066
 51
283.3583134801254
  0
ARC
  5
2084
330
1F
100
AcDbEntity
  8
外形線
100
AcDbCircle
 10
34194.92973033167
 20
28776.49056896024
 30
0.0
 40
1.617898346868975
100
AcDbArc
 50
178.6280522787513
 51
288.3600024838197
  0
LINE
  5
2085
330
1F
100
AcDbEntity
  8
外形線
100
AcDbLine
 10
34195.43934656768
 20
28776.53371882437
 30
0.0
 11
34195.43934656768
 21
28774.95502789834
 31
0.0
  0
LINE
  5
2086
330
1F
100
AcDbEntity
  8
外形線
100
AcDbLine
 10
34254.43934656768
 20
28993.91592820192
 30
0.0
 11
34254.43934656768
 21
29017.91592820193
 31
0.0
  0
LINE
  5
2087
330
1F
100
AcDbEntity
  8
外形線
100
AcDbLine
 10
34237.93934656769
 20
29017.91592820193
 30
0.0
 11
34229.43934656768
 21
29017.91592820193
 31
0.0
  0
ARC
  5
2088
330
1F
100
AcDbEntity
  8
外形線
100
AcDbCircle
 10
34229.43934656768
 20
29017.41592820192
 30
0.0
 40
0.5
100
AcDbArc
 50
90.0
 51
180.0
  0
LINE
  5
2089
330
1F
100
AcDbEntity
  8
外形線
100
AcDbLine
 10
33632.43934656769
 20
29017.91592820193
 30
0.0
 11
33632.43934656769
 21
28993.91592820192
 31
0.0
  0
LINE
  5
208A
330
1F
100
AcDbEntity
  8
外形線
100
AcDbLine
 10
34229.43934656768
 20
28993.91592820192
 30
0.0
 11
34237.93934656769
 21
28993.91592820192
 31
0.0
  0
LINE
  5
208B
330
1F
100
AcDbEntity
  8
外形線
100
AcDbLine
 10
34228.93934656769
 20
29016.91592820192
 30
0.0
 11
33646.93934656768
 21
29016.91592820192
 31
0.0
  0
LINE
  5
208C
330
1F
100
AcDbEntity
  8
外形線
100
AcDbLine
 10
33646.93934656768
 20
28994.91592820193
 30
0.0
 11
34228.93934656769
 21
28994.91592820193
 31
0.0
  0
LINE
  5
208D
330
1F
100
AcDbEntity
  8
外形線
100
AcDbLine
 10
33632.43934656769
 20
29014.91592820192
 30
0.0
 11
33631.44228789897
 21
29009.099748765
 31
0.0
  0
ARC
  5
208E
330
1F
100
AcDbEntity
  8
外形線
100
AcDbCircle
 10
33631.68888637993
 20
29009.05864901817
 30
0.0
 40
0.25
100
AcDbArc
 50
170.5376777920451
 51
176.5230231830233
  0
ARC
  5
208F
330
1F
100
AcDbEntity
  8
外形線
100
AcDbCircle
 10
33631.68888637993
 20
29009.05864901817
 30
0.0
 40
0.25
100
AcDbArc
 50
183.4769768169767
 51
243.4349488229235
  0
LINE
  5
2090
102
{ACAD_REACTORS
330
2222
102
}
330
1F
100
AcDbEntity
  8
外形線
100
AcDbLine
 10
33631.43934656768
 20
29009.07381088162
 30
0.0
 11
33631.43934656768
 21
29002.75804552224
 31
0.0
  0
LINE
  5
2091
330
1F
100
AcDbEntity
  8
外形線
100
AcDbLine
 10
33631.57708298106
 20
29008.83504222043
 30
0.0
 11
33632.43934656769
 21
29008.41592820193
 31
0.0
  0
LINE
  5
2092
330
1F
100
AcDbEntity
  8
外形線
100
AcDbLine
 10
33632.43934656769
 20
28996.91592820193
 30
0.0
 11
33631.44228789897
 21
29002.73210763885
 31
0.0
  0
ARC
  5
2093
330
1F
100
AcDbEntity
  8
外形線
100
AcDbCircle
 10
33631.68888637993
 20
29002.77320738568
 30
0.0
 40
0.25
100
AcDbArc
 50
183.4769768169767
 51
189.4623222084305
  0
ARC
  5
2094
330
1F
100
AcDbEntity
  8
外形線
100
AcDbCircle
 10
33631.68888637993
 20
29002.77320738568
 30
0.0
 40
0.25
100
AcDbArc
 50
116.5650511770763
 51
176.5230231830233
  0
LINE
  5
2095
330
1F
100
AcDbEntity
  8
外形線
100
AcDbLine
 10
33631.57708298106
 20
29002.99681418342
 30
0.0
 11
33632.43934656769
 21
29003.41592820192
 31
0.0
  0
LINE
  5
2096
330
1F
100
AcDbEntity
  8
外形線
100
AcDbLine
 10
33632.43934656769
 20
29017.91592820193
 30
0.0
 11
33632.43934656769
 21
29021.91592820193
 31
0.0
  0
LINE
  5
2097
330
1F
100
AcDbEntity
  8
外形線
100
AcDbLine
 10
33632.43934656769
 20
29021.91592820193
 30
0.0
 11
33633.43934656768
 21
29021.91592820193
 31
0.0
  0
LINE
  5
2098
330
1F
100
AcDbEntity
  8
外形線
100
AcDbLine
 10
33633.43934656768
 20
29021.91592820193
 30
0.0
 11
33633.43934656768
 21
28989.91592820193
 31
0.0
  0
LINE
  5
2099
330
1F
100
AcDbEntity
  8
外形線
100
AcDbLine
 10
33633.43934656768
 20
28989.91592820193
 30
0.0
 11
33632.43934656769
 21
28989.91592820193
 31
0.0
  0
LINE
  5
209A
330
1F
100
AcDbEntity
  8
外形線
100
AcDbLine
 10
33632.43934656769
 20
28989.91592820193
 30
0.0
 11
33632.43934656769
 21
28996.91592820193
 31
0.0
  0
LINE
  5
209B
330
1F
100
AcDbEntity
  8
外形線
100
AcDbLine
 10
33633.43934656768
 20
28989.91592820193
 30
0.0
 11
33633.93934656769
 21
28989.91592820193
 31
0.0
  0
LINE
  5
209C
330
1F
100
AcDbEntity
  8
外形線
100
AcDbLine
 10
33633.93934656769
 20
28989.91592820193
 30
0.0
 11
33633.93934656769
 21
29021.91592820193
 31
0.0
  0
LINE
  5
209D
330
1F
100
AcDbEntity
  8
外形線
100
AcDbLine
 10
33633.93934656769
 20
29021.91592820193
 30
0.0
 11
33633.43934656768
 21
29021.91592820193
 31
0.0
  0
LINE
  5
209E
330
1F
100
AcDbEntity
  8
外形線
100
AcDbLine
 10
33633.93934656769
 20
28989.91592820193
 30
0.0
 11
33645.93934656769
 21
28989.91592820193
 31
0.0
  0
LINE
  5
209F
330
1F
100
AcDbEntity
  8
外形線
100
AcDbLine
 10
33646.93934656768
 20
28990.91592820193
 30
0.0
 11
33646.93934656768
 21
29020.91592820193
 31
0.0
  0
ARC
  5
20A0
330
1F
100
AcDbEntity
  8
外形線
100
AcDbCircle
 10
33645.93934656769
 20
28990.91592820193
 30
0.0
 40
1.0
100
AcDbArc
 50
270.0
 51
0.0
  0
LINE
  5
20A1
330
1F
100
AcDbEntity
  8
外形線
100
AcDbLine
 10
33645.93934656769
 20
29021.91592820193
 30
0.0
 11
33633.93934656769
 21
29021.91592820193
 31
0.0
  0
ARC
  5
20A2
330
1F
100
AcDbEntity
  8
外形線
100
AcDbCircle
 10
33645.93934656769
 20
29020.91592820193
 30
0.0
 40
1.0
100
AcDbArc
 50
0.0
 51
90.0
  0
LINE
  5
20A3
330
1F
100
AcDbEntity
  8
外形線
100
AcDbLine
 10
34254.43934656768
 20
29017.91592820193
 30
0.0
 11
34254.43934656768
 21
28993.91592820192
 31
0.0
  0
LINE
  5
20A4
330
1F
100
AcDbEntity
  8
外形線
100
AcDbLine
 10
34254.43934656768
 20
29014.91592820192
 30
0.0
 11
34255.4364052364
 21
29009.099748765
 31
0.0
  0
ARC
  5
20A5
330
1F
100
AcDbEntity
  8
外形線
100
AcDbCircle
 10
34255.18980675544
 20
29009.05864901817
 30
0.0
 40
0.25
100
AcDbArc
 50
3.476976816976689
 51
9.46232220795494
  0
ARC
  5
20A6
330
1F
100
AcDbEntity
  8
外形線
100
AcDbCircle
 10
34255.18980675544
 20
29009.05864901817
 30
0.0
 40
0.25
100
AcDbArc
 50
296.5650511770765
 51
356.5230231830233
  0
LINE
  5
20A7
102
{ACAD_REACTORS
330
2222
102
}
330
1F
100
AcDbEntity
  8
外形線
100
AcDbLine
 10
34255.43934656769
 20
29009.07381088162
 30
0.0
 11
34255.43934656769
 21
29002.75804552224
 31
0.0
  0
LINE
  5
20A8
330
1F
100
AcDbEntity
  8
外形線
100
AcDbLine
 10
34255.30161015431
 20
29008.83504222043
 30
0.0
 11
34254.43934656768
 21
29008.41592820193
 31
0.0
  0
LINE
  5
20A9
330
1F
100
AcDbEntity
  8
外形線
100
AcDbLine
 10
34254.43934656768
 20
28996.91592820193
 30
0.0
 11
34255.4364052364
 21
29002.73210763885
 31
0.0
  0
ARC
  5
20AA
330
1F
100
AcDbEntity
  8
外形線
100
AcDbCircle
 10
34255.18980675544
 20
29002.77320738568
 30
0.0
 40
0.25
100
AcDbArc
 50
350.5376777915695
 51
356.5230231830233
  0
ARC
  5
20AB
330
1F
100
AcDbEntity
  8
外形線
100
AcDbCircle
 10
34255.18980675544
 20
29002.77320738568
 30
0.0
 40
0.25
100
AcDbArc
 50
3.476976816976689
 51
63.43494882292347
  0
LINE
  5
20AC
330
1F
100
AcDbEntity
  8
外形線
100
AcDbLine
 10
34255.30161015431
 20
29002.99681418342
 30
0.0
 11
34254.43934656768
 21
29003.41592820192
 31
0.0
  0
LINE
  5
20AD
330
1F
100
AcDbEntity
  8
外形線
100
AcDbLine
 10
34254.43934656768
 20
29017.91592820193
 30
0.0
 11
34254.43934656768
 21
29021.91592820193
 31
0.0
  0
LINE
  5
20AE
330
1F
100
AcDbEntity
  8
外形線
100
AcDbLine
 10
34254.43934656768
 20
29021.91592820193
 30
0.0
 11
34253.43934656769
 21
29021.91592820193
 31
0.0
  0
LINE
  5
20AF
330
1F
100
AcDbEntity
  8
外形線
100
AcDbLine
 10
34253.43934656769
 20
29021.91592820193
 30
0.0
 11
34253.43934656769
 21
28989.91592820193
 31
0.0
  0
LINE
  5
20B0
330
1F
100
AcDbEntity
  8
外形線
100
AcDbLine
 10
34253.43934656769
 20
28989.91592820193
 30
0.0
 11
34254.43934656768
 21
28989.91592820193
 31
0.0
  0
LINE
  5
20B1
330
1F
100
AcDbEntity
  8
外形線
100
AcDbLine
 10
34254.43934656768
 20
28989.91592820193
 30
0.0
 11
34254.43934656768
 21
28996.91592820193
 31
0.0
  0
LINE
  5
20B2
330
1F
100
AcDbEntity
  8
外形線
100
AcDbLine
 10
34253.43934656769
 20
28989.91592820193
 30
0.0
 11
34252.93934656768
 21
28989.91592820193
 31
0.0
  0
LINE
  5
20B3
330
1F
100
AcDbEntity
  8
外形線
100
AcDbLine
 10
34252.93934656768
 20
28989.91592820193
 30
0.0
 11
34252.93934656768
 21
29021.91592820193
 31
0.0
  0
LINE
  5
20B4
330
1F
100
AcDbEntity
  8
外形線
100
AcDbLine
 10
34252.93934656768
 20
29021.91592820193
 30
0.0
 11
34253.43934656769
 21
29021.91592820193
 31
0.0
  0
LINE
  5
20B5
330
1F
100
AcDbEntity
  8
外形線
100
AcDbLine
 10
34252.93934656768
 20
29021.91592820193
 30
0.0
 11
34238.93934656768
 21
29021.91592820193
 31
0.0
  0
LINE
  5
20B6
330
1F
100
AcDbEntity
  8
外形線
100
AcDbLine
 10
34237.93934656769
 20
29020.91592820193
 30
0.0
 11
34237.93934656769
 21
28990.91592820193
 31
0.0
  0
ARC
  5
20B7
330
1F
100
AcDbEntity
  8
外形線
100
AcDbCircle
 10
34238.93934656768
 20
29020.91592820193
 30
0.0
 40
1.0
100
AcDbArc
 50
90.0
 51
180.0
  0
ARC
  5
20B8
330
1F
100
AcDbEntity
  8
外形線
100
AcDbCircle
 10
34238.93934656768
 20
28990.91592820193
 30
0.0
 40
1.0
100
AcDbArc
 50
180.0
 51
270.0
  0
LINE
  5
20B9
330
1F
100
AcDbEntity
  8
外形線
100
AcDbLine
 10
34238.93934656768
 20
28989.91592820193
 30
0.0
 11
34252.93934656768
 21
28989.91592820193
 31
0.0
  0
LINE
  5
20BA
330
1F
100
AcDbEntity
  8
外形線
100
AcDbLine
 10
34228.93934656769
 20
29017.41592820192
 30
0.0
 11
34228.93934656769
 21
29009.16592820193
 31
0.0
  0
ARC
  5
20BB
330
1F
100
AcDbEntity
  8
外形線
100
AcDbCircle
 10
34229.43934656768
 20
29009.16592820193
 30
0.0
 40
0.5
100
AcDbArc
 50
180.0
 51
270.0
  0
ARC
  5
20BC
330
1F
100
AcDbEntity
  8
外形線
100
AcDbCircle
 10
34229.43934656768
 20
28994.41592820192
 30
0.0
 40
0.5
100
AcDbArc
 50
180.0
 51
270.0
  0
LINE
  5
20BD
330
1F
100
AcDbEntity
  8
外形線
100
AcDbLine
 10
34231.43934656768
 20
29017.91592820193
 30
0.0
 11
33646.93934656768
 21
29017.91592820193
 31
0.0
  0
LINE
  5
20BE
330
1F
100
AcDbEntity
  8
外形線
100
AcDbLine
 10
33646.93934656768
 20
28993.91592820192
 30
0.0
 11
34231.43934656768
 21
28993.91592820192
 31
0.0
  0
LINE
  5
20BF
330
1F
100
AcDbEntity
  8
外形線
100
AcDbLine
 10
34237.93934656769
 20
29008.66592820193
 30
0.0
 11
34229.43934656768
 21
29008.66592820193
 31
0.0
  0
LINE
  5
20C0
330
1F
100
AcDbEntity
  8
外形線
100
AcDbLine
 10
34237.93934656769
 20
29003.16592820193
 30
0.0
 11
34229.43934656768
 21
29003.16592820193
 31
0.0
  0
LINE
  5
20C1
330
1F
100
AcDbEntity
  8
外形線
100
AcDbLine
 10
34230.43934656769
 20
29008.66592820193
 30
0.0
 11
34230.43934656769
 21
29003.16592820193
 31
0.0
  0
LINE
  5
20C2
330
1F
100
AcDbEntity
  8
外形線
100
AcDbLine
 10
34228.93934656769
 20
29002.66592820193
 30
0.0
 11
34228.93934656769
 21
28994.41592820192
 31
0.0
  0
ARC
  5
20C3
330
1F
100
AcDbEntity
  8
外形線
100
AcDbCircle
 10
34229.43934656768
 20
29002.66592820193
 30
0.0
 40
0.5
100
AcDbArc
 50
90.0
 51
180.0
  0
ARC
  5
20C4
330
1F
100
AcDbEntity
  8
孔
100
AcDbCircle
 10
33700.43934656769
 20
29005.91592820192
 30
0.0
 40
5.0
100
AcDbArc
 50
270.0
 51
90.0
  0
ARC
  5
20C5
330
1F
100
AcDbEntity
  8
孔
100
AcDbCircle
 10
33656.43934656768
 20
29005.91592820192
 30
0.0
 40
5.0
100
AcDbArc
 50
90.0
 51
143.1301023543243
  0
ARC
  5
20C6
330
1F
100
AcDbEntity
  8
孔
100
AcDbCircle
 10
33656.43934656768
 20
29005.91592820192
 30
0.0
 40
5.0
100
AcDbArc
 50
216.8698976456755
 51
270.0
  0
LINE
  5
20C7
330
1F
100
AcDbEntity
  8
孔
100
AcDbLine
 10
33646.93934656768
 20
29008.91592820192
 30
0.0
 11
33652.43934656768
 21
29008.91592820192
 31
0.0
  0
LINE
  5
20C8
330
1F
100
AcDbEntity
  8
孔
100
AcDbLine
 10
33646.93934656768
 20
29002.91592820193
 30
0.0
 11
33652.43934656768
 21
29002.91592820193
 31
0.0
  0
LINE
  5
20C9
330
1F
100
AcDbEntity
  8
孔
100
AcDbLine
 10
33656.43934656768
 20
29010.91592820193
 30
0.0
 11
33670.93934656768
 21
29010.91592820193
 31
0.0
  0
LINE
  5
20CA
330
1F
100
AcDbEntity
  8
孔
100
AcDbLine
 10
33690.93934656769
 20
29010.91592820193
 30
0.0
 11
33700.43934656769
 21
29010.91592820193
 31
0.0
  0
LINE
  5
20CB
330
1F
100
AcDbEntity
  8
孔
100
AcDbLine
 10
33656.43934656768
 20
29000.91592820193
 30
0.0
 11
33670.93934656768
 21
29000.91592820193
 31
0.0
  0
LINE
  5
20CC
330
1F
100
AcDbEntity
  8
孔
100
AcDbLine
 10
33690.93934656769
 20
29000.91592820193
 30
0.0
 11
33700.43934656769
 21
29000.91592820193
 31
0.0
  0
LINE
  5
20CD
330
1F
100
AcDbEntity
  8
外形線
100
AcDbLine
 10
33670.93934656768
 20
29009.91592820193
 30
0.0
 11
33670.93934656768
 21
29001.91592820192
 31
0.0
  0
LINE
  5
20CE
330
1F
100
AcDbEntity
  8
外形線
100
AcDbLine
 10
33674.43934656769
 20
28998.41592820192
 30
0.0
 11
33683.43934656769
 21
28998.41592820192
 31
0.0
  0
ARC
  5
20CF
330
1F
100
AcDbEntity
  8
外形線
100
AcDbCircle
 10
33687.43934656769
 20
29001.91592820192
 30
0.0
 40
3.5
100
AcDbArc
 50
270.0
 51
0.0
  0
ARC
  5
20D0
330
1F
100
AcDbEntity
  8
外形線
100
AcDbCircle
 10
33674.43934656769
 20
29001.91592820192
 30
0.0
 40
3.5
100
AcDbArc
 50
180.0
 51
270.0
  0
LINE
  5
20D1
330
1F
100
AcDbEntity
  8
外形線
100
AcDbLine
 10
33690.93934656769
 20
29001.91592820192
 30
0.0
 11
33690.93934656769
 21
29009.91592820193
 31
0.0
  0
ARC
  5
20D2
330
1F
100
AcDbEntity
  8
外形線
100
AcDbCircle
 10
33687.43934656769
 20
29009.91592820193
 30
0.0
 40
3.5
100
AcDbArc
 50
0.0
 51
90.0
  0
LINE
  5
20D3
330
1F
100
AcDbEntity
  8
外形線
100
AcDbLine
 10
33683.43934656769
 20
29013.41592820192
 30
0.0
 11
33674.43934656769
 21
29013.41592820192
 31
0.0
  0
ARC
  5
20D4
330
1F
100
AcDbEntity
  8
外形線
100
AcDbCircle
 10
33674.43934656769
 20
29009.91592820193
 30
0.0
 40
3.5
100
AcDbArc
 50
90.0
 51
180.0
  0
LINE
  5
20D5
330
1F
100
AcDbEntity
  8
外形線
100
AcDbLine
 10
33670.93934656768
 20
29009.91592820193
 30
0.0
 11
33672.93934656768
 21
29009.91592820193
 31
0.0
  0
LINE
  5
20D6
330
1F
100
AcDbEntity
  8
外形線
100
AcDbLine
 10
33672.93934656768
 20
29009.91592820193
 30
0.0
 11
33672.93934656768
 21
29001.91592820192
 31
0.0
  0
LINE
  5
20D7
330
1F
100
AcDbEntity
  8
外形線
100
AcDbLine
 10
33672.93934656768
 20
29001.91592820192
 30
0.0
 11
33670.93934656768
 21
29001.91592820192
 31
0.0
  0
LINE
  5
20D8
330
1F
100
AcDbEntity
  8
外形線
100
AcDbLine
 10
33683.43934656769
 20
28999.41592820193
 30
0.0
 11
33683.43934656769
 21
28996.91592820193
 31
0.0
  0
LINE
  5
20D9
330
1F
100
AcDbEntity
  8
外形線
100
AcDbLine
 10
33683.43934656769
 20
28996.91592820193
 30
0.0
 11
33687.43934656769
 21
28996.91592820193
 31
0.0
  0
LINE
  5
20DA
330
1F
100
AcDbEntity
  8
外形線
100
AcDbLine
 10
33687.43934656769
 20
28996.91592820193
 30
0.0
 11
33687.43934656769
 21
28999.41592820193
 31
0.0
  0
LINE
  5
20DB
330
1F
100
AcDbEntity
  8
外形線
100
AcDbLine
 10
33687.43934656769
 20
28999.41592820193
 30
0.0
 11
33683.43934656769
 21
28999.41592820193
 31
0.0
  0
LINE
  5
20DC
330
1F
100
AcDbEntity
  8
外形線
100
AcDbLine
 10
33683.43934656769
 20
29012.41592820193
 30
0.0
 11
33683.43934656769
 21
29014.91592820192
 31
0.0
  0
LINE
  5
20DD
330
1F
100
AcDbEntity
  8
外形線
100
AcDbLine
 10
33683.43934656769
 20
29014.91592820192
 30
0.0
 11
33687.43934656769
 21
29014.91592820192
 31
0.0
  0
LINE
  5
20DE
330
1F
100
AcDbEntity
  8
外形線
100
AcDbLine
 10
33687.43934656769
 20
29014.91592820192
 30
0.0
 11
33687.43934656769
 21
29012.41592820193
 31
0.0
  0
LINE
  5
20DF
330
1F
100
AcDbEntity
  8
外形線
100
AcDbLine
 10
33687.43934656769
 20
29012.41592820193
 30
0.0
 11
33683.43934656769
 21
29012.41592820193
 31
0.0
  0
LINE
  5
20E0
330
1F
100
AcDbEntity
  8
外形線
100
AcDbLine
 10
33690.93934656769
 20
29008.91592820192
 30
0.0
 11
33693.93934656768
 21
29008.91592820192
 31
0.0
  0
LINE
  5
20E1
330
1F
100
AcDbEntity
  8
外形線
100
AcDbLine
 10
33693.93934656768
 20
29008.91592820192
 30
0.0
 11
33693.93934656768
 21
29002.91592820193
 31
0.0
  0
LINE
  5
20E2
330
1F
100
AcDbEntity
  8
外形線
100
AcDbLine
 10
33693.93934656768
 20
29002.91592820193
 30
0.0
 11
33690.93934656769
 21
29002.91592820193
 31
0.0
  0
LINE
  5
20E3
330
1F
100
AcDbEntity
  8
外形線
100
AcDbLine
 10
33686.93934656768
 20
29007.91592820192
 30
0.0
 11
33675.93934656769
 21
29007.91592820192
 31
0.0
  0
LINE
  5
20E4
330
1F
100
AcDbEntity
  8
外形線
100
AcDbLine
 10
33675.93934656769
 20
29007.91592820192
 30
0.0
 11
33675.93934656769
 21
29003.91592820192
 31
0.0
  0
LINE
  5
20E5
330
1F
100
AcDbEntity
  8
外形線
100
AcDbLine
 10
33675.93934656769
 20
29003.91592820192
 30
0.0
 11
33686.93934656768
 21
29003.91592820192
 31
0.0
  0
ARC
  5
20E6
330
1F
100
AcDbEntity
  8
外形線
100
AcDbCircle
 10
33686.93934656768
 20
29005.91592820192
 30
0.0
 40
2.0
100
AcDbArc
 50
270.0
 51
90.0
  0
LINE
  5
20E7
330
1F
100
AcDbEntity
  8
外形線
100
AcDbLine
 10
33670.93934656768
 20
29002.66592820193
 30
0.0
 11
33671.93934656769
 21
29002.66592820193
 31
0.0
  0
LINE
  5
20E8
330
1F
100
AcDbEntity
  8
外形線
100
AcDbLine
 10
33671.93934656769
 20
29002.66592820193
 30
0.0
 11
33671.93934656769
 21
29009.16592820193
 31
0.0
  0
LINE
  5
20E9
330
1F
100
AcDbEntity
  8
外形線
100
AcDbLine
 10
33671.93934656769
 20
29009.16592820193
 30
0.0
 11
33670.93934656768
 21
29009.16592820193
 31
0.0
  0
LINE
  5
20EA
330
1F
100
AcDbEntity
  8
外形線
100
AcDbLine
 10
33646.93934656768
 20
29015.41592820192
 30
0.0
 11
33716.43934656769
 21
29015.41592820192
 31
0.0
  0
LINE
  5
20EB
330
1F
100
AcDbEntity
  8
外形線
100
AcDbLine
 10
33716.43934656769
 20
29015.41592820192
 30
0.0
 11
33716.43934656769
 21
29008.21852182517
 31
0.0
  0
LINE
  5
20EC
330
1F
100
AcDbEntity
  8
外形線
100
AcDbLine
 10
33716.43934656769
 20
29003.61333457868
 30
0.0
 11
33716.43934656769
 21
28996.41592820192
 31
0.0
  0
LINE
  5
20ED
330
1F
100
AcDbEntity
  8
外形線
100
AcDbLine
 10
33716.43934656769
 20
28996.41592820192
 30
0.0
 11
33646.93934656768
 21
28996.41592820192
 31
0.0
  0
LINE
  5
20EE
330
1F
100
AcDbEntity
  8
外形線
100
AcDbLine
 10
33646.93934656768
 20
28997.41592820193
 30
0.0
 11
33683.43934656769
 21
28997.41592820193
 31
0.0
  0
LINE
  5
20EF
330
1F
100
AcDbEntity
  8
外形線
100
AcDbLine
 10
33687.43934656769
 20
28997.41592820193
 30
0.0
 11
33716.43934656769
 21
28997.41592820193
 31
0.0
  0
LINE
  5
20F0
330
1F
100
AcDbEntity
  8
外形線
100
AcDbLine
 10
33716.43934656769
 20
29014.41592820193
 30
0.0
 11
33687.43934656769
 21
29014.41592820193
 31
0.0
  0
LINE
  5
20F1
330
1F
100
AcDbEntity
  8
外形線
100
AcDbLine
 10
33646.93934656768
 20
29014.41592820193
 30
0.0
 11
33683.43934656769
 21
29014.41592820193
 31
0.0
  0
LINE
  5
20F2
330
1F
100
AcDbEntity
  8
外形線
100
AcDbLine
 10
33712.43934656769
 20
29009.41592820192
 30
0.0
 11
33708.43934656769
 21
29009.41592820192
 31
0.0
  0
LINE
  5
20F3
330
1F
100
AcDbEntity
  8
外形線
100
AcDbLine
 10
33708.43934656769
 20
29009.41592820192
 30
0.0
 11
33708.43934656769
 21
29002.41592820193
 31
0.0
  0
LINE
  5
20F4
330
1F
100
AcDbEntity
  8
外形線
100
AcDbLine
 10
33708.43934656769
 20
29002.41592820193
 30
0.0
 11
33712.43934656769
 21
29002.41592820193
 31
0.0
  0
LINE
  5
20F5
330
1F
100
AcDbEntity
  8
外形線
100
AcDbLine
 10
33711.93934656769
 20
29002.41592820193
 30
0.0
 11
33711.93934656769
 21
29009.41592820192
 31
0.0
  0
LINE
  5
20F6
330
1F
100
AcDbEntity
  8
外形線
100
AcDbLine
 10
33711.93934656769
 20
29009.41592820192
 30
0.0
 11
33719.54057481871
 21
29007.29016420428
 31
0.0
  0
LINE
  5
20F7
330
1F
100
AcDbEntity
  8
外形線
100
AcDbLine
 10
33719.54057481871
 20
29004.54169219957
 30
0.0
 11
33711.93934656769
 21
29002.41592820193
 31
0.0
  0
ARC
  5
20F8
330
1F
100
AcDbEntity
  8
外形線
100
AcDbCircle
 10
33718.93934656768
 20
29005.91592820192
 30
0.0
 40
1.5
100
AcDbArc
 50
293.6293777308578
 51
66.37062226914214
  0
LINE
  5
20F9
330
1F
100
AcDbEntity
  8
外形線
100
AcDbLine
 10
33712.43934656769
 20
29009.41592820192
 30
0.0
 11
33712.43934656769
 21
29009.2760979056
 31
0.0
  0
LINE
  5
20FA
330
1F
100
AcDbEntity
  8
外形線
100
AcDbLine
 10
33712.43934656769
 20
29002.41592820193
 30
0.0
 11
33712.43934656769
 21
29002.55575849825
 31
0.0
  0
LINE
  5
20FB
330
1F
100
AcDbEntity
  8
孔
100
AcDbLine
 10
34154.43934656769
 20
29010.41592820193
 30
0.0
 11
34153.41515143283
 21
29002.28285496025
 31
0.0
  0
LINE
  5
20FC
330
1F
100
AcDbEntity
  8
孔
100
AcDbLine
 10
34150.46354170254
 20
29002.28285496025
 30
0.0
 11
34149.43934656768
 21
29010.41592820193
 31
0.0
  0
ARC
  5
20FD
330
1F
100
AcDbEntity
  8
孔
100
AcDbCircle
 10
34151.93934656768
 20
29002.55118311754
 30
0.0
 40
1.5
100
AcDbArc
 50
190.3048464689415
 51
349.6951535310584
  0
LINE
  5
20FE
330
1F
100
AcDbEntity
  8
孔
100
AcDbLine
 10
34154.43934656769
 20
29010.41592820193
 30
0.0
 11
34149.43934656768
 21
29010.41592820193
 31
0.0
  0
LINE
  5
20FF
330
1F
100
AcDbEntity
  8
孔
100
AcDbLine
 10
34154.43934656769
 20
29010.41592820193
 30
0.0
 11
34154.43934656769
 21
29010.91592820193
 31
0.0
  0
LINE
  5
2100
330
1F
100
AcDbEntity
  8
孔
100
AcDbLine
 10
34154.43934656769
 20
29010.91592820193
 30
0.0
 11
34149.43934656768
 21
29010.91592820193
 31
0.0
  0
LINE
  5
2101
330
1F
100
AcDbEntity
  8
孔
100
AcDbLine
 10
34149.43934656768
 20
29010.91592820193
 30
0.0
 11
34149.43934656768
 21
29010.41592820193
 31
0.0
  0
CIRCLE
  5
2102
330
1F
100
AcDbEntity
  8
孔
100
AcDbCircle
 10
34141.43934656769
 20
29005.91592820192
 30
0.0
 40
2.1
  0
CIRCLE
  5
2103
330
1F
100
AcDbEntity
  8
孔
100
AcDbCircle
 10
34113.43934656768
 20
29005.91592820192
 30
0.0
 40
2.1
  0
CIRCLE
  5
2104
330
1F
100
AcDbEntity
  8
孔
100
AcDbCircle
 10
34021.43934656769
 20
29005.91592820192
 30
0.0
 40
2.1
  0
CIRCLE
  5
2105
330
1F
100
AcDbEntity
  8
孔
100
AcDbCircle
 10
34001.43934656768
 20
29005.91592820192
 30
0.0
 40
2.1
  0
CIRCLE
  5
2106
330
1F
100
AcDbEntity
  8
孔
100
AcDbCircle
 10
33970.43934656768
 20
29005.91592820192
 30
0.0
 40
2.1
  0
CIRCLE
  5
2107
330
1F
100
AcDbEntity
  8
孔
100
AcDbCircle
 10
33956.43934656769
 20
29005.91592820192
 30
0.0
 40
2.1
  0
CIRCLE
  5
2108
330
1F
100
AcDbEntity
  8
孔
100
AcDbCircle
 10
33921.43934656769
 20
29005.91592820192
 30
0.0
 40
2.1
  0
CIRCLE
  5
2109
330
1F
100
AcDbEntity
  8
孔
100
AcDbCircle
 10
33877.43934656768
 20
29005.91592820192
 30
0.0
 40
2.1
  0
CIRCLE
  5
210A
330
1F
100
AcDbEntity
  8
孔
100
AcDbCircle
 10
33864.43934656769
 20
29005.91592820192
 30
0.0
 40
2.1
  0
CIRCLE
  5
210B
330
1F
100
AcDbEntity
  8
孔
100
AcDbCircle
 10
33832.43934656769
 20
29005.91592820192
 30
0.0
 40
2.1
  0
CIRCLE
  5
210C
330
1F
100
AcDbEntity
  8
孔
100
AcDbCircle
 10
33822.43934656769
 20
29005.91592820192
 30
0.0
 40
2.1
  0
LINE
  5
210D
330
1F
100
AcDbEntity
  8
孔
100
AcDbLine
 10
34134.43934656768
 20
29002.41592820193
 30
0.0
 11
34134.43934656768
 21
29009.41592820192
 31
0.0
  0
LINE
  5
210E
330
1F
100
AcDbEntity
  8
孔
100
AcDbLine
 10
34134.43934656768
 20
29009.41592820192
 30
0.0
 11
34120.43934656769
 21
29009.41592820192
 31
0.0
  0
LINE
  5
210F
330
1F
100
AcDbEntity
  8
孔
100
AcDbLine
 10
34120.43934656769
 20
29009.41592820192
 30
0.0
 11
34120.43934656769
 21
29002.41592820193
 31
0.0
  0
LINE
  5
2110
330
1F
100
AcDbEntity
  8
孔
100
AcDbLine
 10
34120.43934656769
 20
29002.41592820193
 30
0.0
 11
34134.43934656768
 21
29002.41592820193
 31
0.0
  0
LINE
  5
2111
330
1F
100
AcDbEntity
  8
孔
100
AcDbLine
 10
34104.43934656769
 20
29010.41592820193
 30
0.0
 11
34103.41515143283
 21
29002.28285496025
 31
0.0
  0
LINE
  5
2112
330
1F
100
AcDbEntity
  8
孔
100
AcDbLine
 10
34100.46354170253
 20
29002.28285496025
 30
0.0
 11
34099.43934656769
 21
29010.41592820193
 31
0.0
  0
ARC
  5
2113
330
1F
100
AcDbEntity
  8
孔
100
AcDbCircle
 10
34101.93934656768
 20
29002.55118311754
 30
0.0
 40
1.5
100
AcDbArc
 50
190.3048464689415
 51
349.6951535310584
  0
LINE
  5
2114
330
1F
100
AcDbEntity
  8
孔
100
AcDbLine
 10
34104.43934656769
 20
29010.41592820193
 30
0.0
 11
34099.43934656769
 21
29010.41592820193
 31
0.0
  0
LINE
  5
2115
330
1F
100
AcDbEntity
  8
孔
100
AcDbLine
 10
34104.43934656769
 20
29010.41592820193
 30
0.0
 11
34104.43934656769
 21
29010.91592820193
 31
0.0
  0
LINE
  5
2116
330
1F
100
AcDbEntity
  8
孔
100
AcDbLine
 10
34104.43934656769
 20
29010.91592820193
 30
0.0
 11
34099.43934656769
 21
29010.91592820193
 31
0.0
  0
LINE
  5
2117
330
1F
100
AcDbEntity
  8
孔
100
AcDbLine
 10
34099.43934656769
 20
29010.91592820193
 30
0.0
 11
34099.43934656769
 21
29010.41592820193
 31
0.0
  0
LINE
  5
2118
330
1F
100
AcDbEntity
  8
孔
100
AcDbLine
 10
34052.43934656768
 20
29010.41592820193
 30
0.0
 11
34051.41515143284
 21
29002.28285496025
 31
0.0
  0
LINE
  5
2119
330
1F
100
AcDbEntity
  8
孔
100
AcDbLine
 10
34048.46354170254
 20
29002.28285496025
 30
0.0
 11
34047.43934656769
 21
29010.41592820193
 31
0.0
  0
ARC
  5
211A
330
1F
100
AcDbEntity
  8
孔
100
AcDbCircle
 10
34049.93934656769
 20
29002.55118311754
 30
0.0
 40
1.5
100
AcDbArc
 50
190.3048464689415
 51
349.6951535310584
  0
LINE
  5
211B
330
1F
100
AcDbEntity
  8
孔
100
AcDbLine
 10
34052.43934656768
 20
29010.41592820193
 30
0.0
 11
34047.43934656769
 21
29010.41592820193
 31
0.0
  0
LINE
  5
211C
330
1F
100
AcDbEntity
  8
孔
100
AcDbLine
 10
34052.43934656768
 20
29010.41592820193
 30
0.0
 11
34052.43934656768
 21
29010.91592820193
 31
0.0
  0
LINE
  5
211D
330
1F
100
AcDbEntity
  8
孔
100
AcDbLine
 10
34052.43934656768
 20
29010.91592820193
 30
0.0
 11
34047.43934656769
 21
29010.91592820193
 31
0.0
  0
LINE
  5
211E
330
1F
100
AcDbEntity
  8
孔
100
AcDbLine
 10
34047.43934656769
 20
29010.91592820193
 30
0.0
 11
34047.43934656769
 21
29010.41592820193
 31
0.0
  0
LINE
  5
211F
330
1F
100
AcDbEntity
  8
孔
100
AcDbLine
 10
33950.43934656769
 20
29010.41592820193
 30
0.0
 11
33949.41515143283
 21
29002.28285496025
 31
0.0
  0
LINE
  5
2120
330
1F
100
AcDbEntity
  8
孔
100
AcDbLine
 10
33946.46354170254
 20
29002.28285496025
 30
0.0
 11
33945.43934656768
 21
29010.41592820193
 31
0.0
  0
ARC
  5
2121
330
1F
100
AcDbEntity
  8
孔
100
AcDbCircle
 10
33947.93934656768
 20
29002.55118311754
 30
0.0
 40
1.5
100
AcDbArc
 50
190.3048464689415
 51
349.6951535310584
  0
LINE
  5
2122
330
1F
100
AcDbEntity
  8
孔
100
AcDbLine
 10
33950.43934656769
 20
29010.41592820193
 30
0.0
 11
33945.43934656768
 21
29010.41592820193
 31
0.0
  0
LINE
  5
2123
330
1F
100
AcDbEntity
  8
孔
100
AcDbLine
 10
33950.43934656769
 20
29010.41592820193
 30
0.0
 11
33950.43934656769
 21
29010.91592820193
 31
0.0
  0
LINE
  5
2124
330
1F
100
AcDbEntity
  8
孔
100
AcDbLine
 10
33950.43934656769
 20
29010.91592820193
 30
0.0
 11
33945.43934656768
 21
29010.91592820193
 31
0.0
  0
LINE
  5
2125
330
1F
100
AcDbEntity
  8
孔
100
AcDbLine
 10
33945.43934656768
 20
29010.91592820193
 30
0.0
 11
33945.43934656768
 21
29010.41592820193
 31
0.0
  0
LINE
  5
2126
330
1F
100
AcDbEntity
  8
孔
100
AcDbLine
 10
33893.43934656769
 20
29010.41592820193
 30
0.0
 11
33892.41515143283
 21
29002.28285496025
 31
0.0
  0
LINE
  5
2127
330
1F
100
AcDbEntity
  8
孔
100
AcDbLine
 10
33889.46354170254
 20
29002.28285496025
 30
0.0
 11
33888.43934656768
 21
29010.41592820193
 31
0.0
  0
ARC
  5
2128
330
1F
100
AcDbEntity
  8
孔
100
AcDbCircle
 10
33890.93934656769
 20
29002.55118311754
 30
0.0
 40
1.5
100
AcDbArc
 50
190.3048464689415
 51
349.6951535310584
  0
LINE
  5
2129
330
1F
100
AcDbEntity
  8
孔
100
AcDbLine
 10
33893.43934656769
 20
29010.41592820193
 30
0.0
 11
33888.43934656768
 21
29010.41592820193
 31
0.0
  0
LINE
  5
212A
330
1F
100
AcDbEntity
  8
孔
100
AcDbLine
 10
33893.43934656769
 20
29010.41592820193
 30
0.0
 11
33893.43934656769
 21
29010.91592820193
 31
0.0
  0
LINE
  5
212B
330
1F
100
AcDbEntity
  8
孔
100
AcDbLine
 10
33893.43934656769
 20
29010.91592820193
 30
0.0
 11
33888.43934656768
 21
29010.91592820193
 31
0.0
  0
LINE
  5
212C
330
1F
100
AcDbEntity
  8
孔
100
AcDbLine
 10
33888.43934656768
 20
29010.91592820193
 30
0.0
 11
33888.43934656768
 21
29010.41592820193
 31
0.0
  0
LINE
  5
212D
330
1F
100
AcDbEntity
  8
孔
100
AcDbLine
 10
33771.43934656769
 20
29010.41592820193
 30
0.0
 11
33770.41515143283
 21
29002.28285496025
 31
0.0
  0
LINE
  5
212E
330
1F
100
AcDbEntity
  8
孔
100
AcDbLine
 10
33767.46354170254
 20
29002.28285496025
 30
0.0
 11
33766.43934656768
 21
29010.41592820193
 31
0.0
  0
ARC
  5
212F
330
1F
100
AcDbEntity
  8
孔
100
AcDbCircle
 10
33768.93934656768
 20
29002.55118311754
 30
0.0
 40
1.5
100
AcDbArc
 50
190.3048464689415
 51
349.6951535310584
  0
LINE
  5
2130
330
1F
100
AcDbEntity
  8
孔
100
AcDbLine
 10
33771.43934656769
 20
29010.41592820193
 30
0.0
 11
33766.43934656768
 21
29010.41592820193
 31
0.0
  0
LINE
  5
2131
330
1F
100
AcDbEntity
  8
孔
100
AcDbLine
 10
33771.43934656769
 20
29010.41592820193
 30
0.0
 11
33771.43934656769
 21
29010.91592820193
 31
0.0
  0
LINE
  5
2132
330
1F
100
AcDbEntity
  8
孔
100
AcDbLine
 10
33771.43934656769
 20
29010.91592820193
 30
0.0
 11
33766.43934656768
 21
29010.91592820193
 31
0.0
  0
LINE
  5
2133
330
1F
100
AcDbEntity
  8
孔
100
AcDbLine
 10
33766.43934656768
 20
29010.91592820193
 30
0.0
 11
33766.43934656768
 21
29010.41592820193
 31
0.0
  0
CIRCLE
  5
2134
330
1F
100
AcDbEntity
  8
孔
100
AcDbCircle
 10
34086.43934656768
 20
29005.91592820192
 30
0.0
 40
4.0
  0
CIRCLE
  5
2135
330
1F
100
AcDbEntity
  8
孔
100
AcDbCircle
 10
34086.43934656768
 20
29005.91592820192
 30
0.0
 40
5.0
  0
LINE
  5
2136
330
1F
100
AcDbEntity
  8
孔
100
AcDbLine
 10
34070.33934656769
 20
29003.81592820193
 30
0.0
 11
34060.53934656768
 21
29003.81592820193
 31
0.0
  0
LINE
  5
2137
330
1F
100
AcDbEntity
  8
孔
100
AcDbLine
 10
34070.33934656769
 20
29008.01592820192
 30
0.0
 11
34060.53934656768
 21
29008.01592820192
 31
0.0
  0
ARC
  5
2138
330
1F
100
AcDbEntity
  8
孔
100
AcDbCircle
 10
34070.33934656771
 20
29005.91592820194
 30
0.0
 40
2.100000000013096
100
AcDbArc
 50
269.9999999991662
 51
90.0
  0
ARC
  5
2139
330
1F
100
AcDbEntity
  8
孔
100
AcDbCircle
 10
34060.53934656767
 20
29005.91592820192
 30
0.0
 40
2.099999999998544
100
AcDbArc
 50
90.0
 51
270.0
  0
LINE
  5
213A
330
1F
100
AcDbEntity
  8
孔
100
AcDbLine
 10
34012.33934656769
 20
29003.81592820193
 30
0.0
 11
34010.56934656768
 21
29003.81592820193
 31
0.0
  0
LINE
  5
213B
330
1F
100
AcDbEntity
  8
孔
100
AcDbLine
 10
34012.33934656769
 20
29008.01592820192
 30
0.0
 11
34010.56934656768
 21
29008.01592820192
 31
0.0
  0
ARC
  5
213C
330
1F
100
AcDbEntity
  8
孔
100
AcDbCircle
 10
34012.3393465677
 20
29005.91592820192
 30
0.0
 40
2.099999999998544
100
AcDbArc
 50
269.9999999991662
 51
90.0
  0
ARC
  5
213D
330
1F
100
AcDbEntity
  8
孔
100
AcDbCircle
 10
34010.53955783528
 20
29005.91592820191
 30
0.0
 40
2.100211267589676
100
AcDbArc
 50
89.18730753370589
 51
270.8126924662941
  0
LINE
  5
213E
330
1F
100
AcDbEntity
  8
孔
100
AcDbLine
 10
33987.33934656769
 20
29003.81592820193
 30
0.0
 11
33981.53934656769
 21
29003.81592820193
 31
0.0
  0
LINE
  5
213F
330
1F
100
AcDbEntity
  8
孔
100
AcDbLine
 10
33987.33934656769
 20
29008.01592820192
 30
0.0
 11
33981.53934656769
 21
29008.01592820192
 31
0.0
  0
ARC
  5
2140
330
1F
100
AcDbEntity
  8
孔
100
AcDbCircle
 10
33987.3393465677
 20
29005.91592820192
 30
0.0
 40
2.099999999998544
100
AcDbArc
 50
269.9999999991662
 51
90.0
  0
ARC
  5
2141
330
1F
100
AcDbEntity
  8
孔
100
AcDbCircle
 10
33981.53934656769
 20
29005.91592820194
 30
0.0
 40
2.100000000013096
100
AcDbArc
 50
90.0
 51
270.0
  0
LINE
  5
2142
330
1F
100
AcDbEntity
  8
孔
100
AcDbLine
 10
33940.33934656769
 20
29003.81592820192
 30
0.0
 11
33934.53934656768
 21
29003.81592820192
 31
0.0
  0
LINE
  5
2143
330
1F
100
AcDbEntity
  8
孔
100
AcDbLine
 10
33940.33934656769
 20
29008.01592820191
 30
0.0
 11
33934.53934656768
 21
29008.01592820191
 31
0.0
  0
ARC
  5
2144
330
1F
100
AcDbEntity
  8
孔
100
AcDbCircle
 10
33940.3393465677
 20
29005.91592820191
 30
0.0
 40
2.099999999998544
100
AcDbArc
 50
269.9999999991662
 51
90.0
  0
ARC
  5
2145
330
1F
100
AcDbEntity
  8
孔
100
AcDbCircle
 10
33934.53934656769
 20
29005.91592820192
 30
0.0
 40
2.100000000013096
100
AcDbArc
 50
90.0
 51
270.0
  0
CIRCLE
  5
2146
330
1F
100
AcDbEntity
  8
孔
100
AcDbCircle
 10
33907.43934656768
 20
29005.91592820192
 30
0.0
 40
4.0
  0
CIRCLE
  5
2147
330
1F
100
AcDbEntity
  8
孔
100
AcDbCircle
 10
33907.43934656768
 20
29005.91592820192
 30
0.0
 40
5.0
  0
LINE
  5
2148
330
1F
100
AcDbEntity
  8
孔
100
AcDbLine
 10
33850.33934656767
 20
29003.81592820192
 30
0.0
 11
33844.53934656767
 21
29003.81592820192
 31
0.0
  0
LINE
  5
2149
330
1F
100
AcDbEntity
  8
孔
100
AcDbLine
 10
33850.33934656767
 20
29008.01592820191
 30
0.0
 11
33844.53934656767
 21
29008.01592820191
 31
0.0
  0
ARC
  5
214A
330
1F
100
AcDbEntity
  8
孔
100
AcDbCircle
 10
33850.33934656769
 20
29005.91592820191
 30
0.0
 40
2.099999999998544
100
AcDbArc
 50
269.9999999991662
 51
90.0
  0
ARC
  5
214B
330
1F
100
AcDbEntity
  8
孔
100
AcDbCircle
 10
33844.53934656768
 20
29005.91592820192
 30
0.0
 40
2.100000000013096
100
AcDbArc
 50
90.0
 51
270.0
  0
CIRCLE
  5
214C
330
1F
100
AcDbEntity
  8
孔
100
AcDbCircle
 10
33806.43934656771
 20
29001.91592820192
 30
0.0
 40
2.1
  0
CIRCLE
  5
214D
330
1F
100
AcDbEntity
  8
孔
100
AcDbCircle
 10
33806.43934656771
 20
29010.91592820193
 30
0.0
 40
1.5
  0
LINE
  5
214E
330
1F
100
AcDbEntity
  8
孔
100
AcDbLine
 10
33788.33934656769
 20
29003.81592820193
 30
0.0
 11
33778.53934656768
 21
29003.81592820193
 31
0.0
  0
LINE
  5
214F
330
1F
100
AcDbEntity
  8
孔
100
AcDbLine
 10
33788.33934656769
 20
29008.01592820192
 30
0.0
 11
33778.53934656768
 21
29008.01592820192
 31
0.0
  0
ARC
  5
2150
330
1F
100
AcDbEntity
  8
孔
100
AcDbCircle
 10
33788.3393465677
 20
29005.91592820192
 30
0.0
 40
2.099999999998544
100
AcDbArc
 50
269.9999999991662
 51
90.0
  0
ARC
  5
2151
330
1F
100
AcDbEntity
  8
孔
100
AcDbCircle
 10
33778.53934656768
 20
29005.91592820194
 30
0.0
 40
2.100000000013096
100
AcDbArc
 50
90.0
 51
270.0
  0
LINE
  5
2152
330
1F
100
AcDbEntity
  8
孔
100
AcDbLine
 10
33750.93934656768
 20
29002.41592820193
 30
0.0
 11
33744.93934656769
 21
29002.41592820193
 31
0.0
  0
LINE
  5
2153
330
1F
100
AcDbEntity
  8
孔
100
AcDbLine
 10
33750.93934656768
 20
29009.41592820192
 30
0.0
 11
33744.93934656769
 21
29009.41592820192
 31
0.0
  0
ARC
  5
2154
330
1F
100
AcDbEntity
  8
孔
100
AcDbCircle
 10
33744.93934656767
 20
29005.91592820192
 30
0.0
 40
3.5
100
AcDbArc
 50
89.99999999916623
 51
270.0
  0
ARC
  5
2155
330
1F
100
AcDbEntity
  8
孔
100
AcDbCircle
 10
33750.93934656767
 20
29005.91592820192
 30
0.0
 40
3.5
100
AcDbArc
 50
270.0
 51
89.99999999916623
  0
CIRCLE
  5
2156
330
1F
100
AcDbEntity
  8
孔
100
AcDbCircle
 10
33731.43934656769
 20
29005.91592820192
 30
0.0
 40
2.75
  0
ARC
  5
2157
330
1F
100
AcDbEntity
  8
孔
100
AcDbCircle
 10
34186.43934656769
 20
29005.91592820192
 30
0.0
 40
5.0
100
AcDbArc
 50
90.0
 51
270.0
  0
LINE
  5
2158
330
1F
100
AcDbEntity
  8
孔
100
AcDbLine
 10
34228.93934656769
 20
29010.91592820193
 30
0.0
 11
34215.93934656768
 21
29010.91592820193
 31
0.0
  0
LINE
  5
2159
330
1F
100
AcDbEntity
  8
孔
100
AcDbLine
 10
34195.93934656769
 20
29010.91592820193
 30
0.0
 11
34186.43934656769
 21
29010.91592820193
 31
0.0
  0
LINE
  5
215A
330
1F
100
AcDbEntity
  8
孔
100
AcDbLine
 10
34228.93934656769
 20
29000.91592820193
 30
0.0
 11
34215.93934656768
 21
29000.91592820193
 31
0.0
  0
LINE
  5
215B
330
1F
100
AcDbEntity
  8
孔
100
AcDbLine
 10
34195.93934656769
 20
29000.91592820193
 30
0.0
 11
34186.43934656769
 21
29000.91592820193
 31
0.0
  0
LINE
  5
215C
330
1F
100
AcDbEntity
  8
外形線
100
AcDbLine
 10
34215.93934656768
 20
29009.91592820193
 30
0.0
 11
34215.93934656768
 21
29001.91592820192
 31
0.0
  0
LINE
  5
215D
330
1F
100
AcDbEntity
  8
外形線
100
AcDbLine
 10
34212.43934656768
 20
28998.41592820192
 30
0.0
 11
34203.43934656769
 21
28998.41592820192
 31
0.0
  0
ARC
  5
215E
330
1F
100
AcDbEntity
  8
外形線
100
AcDbCircle
 10
34199.43934656768
 20
29001.91592820192
 30
0.0
 40
3.5
100
AcDbArc
 50
180.0
 51
270.0
  0
ARC
  5
215F
330
1F
100
AcDbEntity
  8
外形線
100
AcDbCircle
 10
34212.43934656768
 20
29001.91592820192
 30
0.0
 40
3.5
100
AcDbArc
 50
270.0
 51
0.0
  0
LINE
  5
2160
330
1F
100
AcDbEntity
  8
外形線
100
AcDbLine
 10
34195.93934656769
 20
29001.91592820192
 30
0.0
 11
34195.93934656769
 21
29009.91592820193
 31
0.0
  0
ARC
  5
2161
330
1F
100
AcDbEntity
  8
外形線
100
AcDbCircle
 10
34199.43934656768
 20
29009.91592820193
 30
0.0
 40
3.5
100
AcDbArc
 50
90.0
 51
180.0
  0
LINE
  5
2162
330
1F
100
AcDbEntity
  8
外形線
100
AcDbLine
 10
34203.43934656769
 20
29013.41592820192
 30
0.0
 11
34212.43934656768
 21
29013.41592820192
 31
0.0
  0
ARC
  5
2163
330
1F
100
AcDbEntity
  8
外形線
100
AcDbCircle
 10
34212.43934656768
 20
29009.91592820193
 30
0.0
 40
3.5
100
AcDbArc
 50
0.0
 51
90.0
  0
LINE
  5
2164
330
1F
100
AcDbEntity
  8
外形線
100
AcDbLine
 10
34215.93934656768
 20
29009.91592820193
 30
0.0
 11
34213.93934656768
 21
29009.91592820193
 31
0.0
  0
LINE
  5
2165
330
1F
100
AcDbEntity
  8
外形線
100
AcDbLine
 10
34213.93934656768
 20
29009.91592820193
 30
0.0
 11
34213.93934656768
 21
29001.91592820192
 31
0.0
  0
LINE
  5
2166
330
1F
100
AcDbEntity
  8
外形線
100
AcDbLine
 10
34213.93934656768
 20
29001.91592820192
 30
0.0
 11
34215.93934656768
 21
29001.91592820192
 31
0.0
  0
LINE
  5
2167
330
1F
100
AcDbEntity
  8
外形線
100
AcDbLine
 10
34203.43934656769
 20
28999.41592820193
 30
0.0
 11
34203.43934656769
 21
28996.91592820193
 31
0.0
  0
LINE
  5
2168
330
1F
100
AcDbEntity
  8
外形線
100
AcDbLine
 10
34203.43934656769
 20
28996.91592820193
 30
0.0
 11
34199.43934656768
 21
28996.91592820193
 31
0.0
  0
LINE
  5
2169
330
1F
100
AcDbEntity
  8
外形線
100
AcDbLine
 10
34199.43934656768
 20
28996.91592820193
 30
0.0
 11
34199.43934656768
 21
28999.41592820193
 31
0.0
  0
LINE
  5
216A
330
1F
100
AcDbEntity
  8
外形線
100
AcDbLine
 10
34199.43934656768
 20
28999.41592820193
 30
0.0
 11
34203.43934656769
 21
28999.41592820193
 31
0.0
  0
LINE
  5
216B
330
1F
100
AcDbEntity
  8
外形線
100
AcDbLine
 10
34203.43934656769
 20
29012.41592820193
 30
0.0
 11
34203.43934656769
 21
29014.91592820192
 31
0.0
  0
LINE
  5
216C
330
1F
100
AcDbEntity
  8
外形線
100
AcDbLine
 10
34203.43934656769
 20
29014.91592820192
 30
0.0
 11
34199.43934656768
 21
29014.91592820192
 31
0.0
  0
LINE
  5
216D
330
1F
100
AcDbEntity
  8
外形線
100
AcDbLine
 10
34199.43934656768
 20
29014.91592820192
 30
0.0
 11
34199.43934656768
 21
29012.41592820193
 31
0.0
  0
LINE
  5
216E
330
1F
100
AcDbEntity
  8
外形線
100
AcDbLine
 10
34199.43934656768
 20
29012.41592820193
 30
0.0
 11
34203.43934656769
 21
29012.41592820193
 31
0.0
  0
LINE
  5
216F
330
1F
100
AcDbEntity
  8
外形線
100
AcDbLine
 10
34195.93934656769
 20
29008.91592820192
 30
0.0
 11
34192.93934656769
 21
29008.91592820192
 31
0.0
  0
LINE
  5
2170
330
1F
100
AcDbEntity
  8
外形線
100
AcDbLine
 10
34192.93934656769
 20
29008.91592820192
 30
0.0
 11
34192.93934656769
 21
29002.91592820193
 31
0.0
  0
LINE
  5
2171
330
1F
100
AcDbEntity
  8
外形線
100
AcDbLine
 10
34192.93934656769
 20
29002.91592820193
 30
0.0
 11
34195.93934656769
 21
29002.91592820193
 31
0.0
  0
LINE
  5
2172
330
1F
100
AcDbEntity
  8
外形線
100
AcDbLine
 10
34199.93934656769
 20
29007.91592820192
 30
0.0
 11
34210.93934656768
 21
29007.91592820192
 31
0.0
  0
LINE
  5
2173
330
1F
100
AcDbEntity
  8
外形線
100
AcDbLine
 10
34210.93934656768
 20
29007.91592820192
 30
0.0
 11
34210.93934656768
 21
29003.91592820192
 31
0.0
  0
LINE
  5
2174
330
1F
100
AcDbEntity
  8
外形線
100
AcDbLine
 10
34210.93934656768
 20
29003.91592820192
 30
0.0
 11
34199.93934656769
 21
29003.91592820192
 31
0.0
  0
ARC
  5
2175
330
1F
100
AcDbEntity
  8
外形線
100
AcDbCircle
 10
34199.93934656769
 20
29005.91592820192
 30
0.0
 40
2.0
100
AcDbArc
 50
90.0
 51
270.0
  0
LINE
  5
2176
330
1F
100
AcDbEntity
  8
外形線
100
AcDbLine
 10
34215.93934656768
 20
29002.66592820193
 30
0.0
 11
34214.93934656769
 21
29002.66592820193
 31
0.0
  0
LINE
  5
2177
330
1F
100
AcDbEntity
  8
外形線
100
AcDbLine
 10
34214.93934656769
 20
29002.66592820193
 30
0.0
 11
34214.93934656769
 21
29009.16592820193
 31
0.0
  0
LINE
  5
2178
330
1F
100
AcDbEntity
  8
外形線
100
AcDbLine
 10
34214.93934656769
 20
29009.16592820193
 30
0.0
 11
34215.93934656768
 21
29009.16592820193
 31
0.0
  0
LINE
  5
2179
330
1F
100
AcDbEntity
  8
外形線
100
AcDbLine
 10
34228.93934656769
 20
29015.41592820192
 30
0.0
 11
34170.43934656768
 21
29015.41592820192
 31
0.0
  0
LINE
  5
217A
330
1F
100
AcDbEntity
  8
外形線
100
AcDbLine
 10
34170.43934656768
 20
29015.41592820192
 30
0.0
 11
34170.43934656768
 21
29008.21852182517
 31
0.0
  0
LINE
  5
217B
330
1F
100
AcDbEntity
  8
外形線
100
AcDbLine
 10
34170.43934656768
 20
29003.61333457868
 30
0.0
 11
34170.43934656768
 21
28996.41592820192
 31
0.0
  0
LINE
  5
217C
330
1F
100
AcDbEntity
  8
外形線
100
AcDbLine
 10
34170.43934656768
 20
28996.41592820192
 30
0.0
 11
34228.93934656769
 21
28996.41592820192
 31
0.0
  0
LINE
  5
217D
330
1F
100
AcDbEntity
  8
外形線
100
AcDbLine
 10
34228.93934656769
 20
28997.41592820193
 30
0.0
 11
34203.43934656769
 21
28997.41592820193
 31
0.0
  0
LINE
  5
217E
330
1F
100
AcDbEntity
  8
外形線
100
AcDbLine
 10
34199.43934656768
 20
28997.41592820193
 30
0.0
 11
34170.43934656768
 21
28997.41592820193
 31
0.0
  0
LINE
  5
217F
330
1F
100
AcDbEntity
  8
外形線
100
AcDbLine
 10
34170.43934656768
 20
29014.41592820193
 30
0.0
 11
34199.43934656768
 21
29014.41592820193
 31
0.0
  0
LINE
  5
2180
330
1F
100
AcDbEntity
  8
外形線
100
AcDbLine
 10
34228.93934656769
 20
29014.41592820193
 30
0.0
 11
34203.43934656769
 21
29014.41592820193
 31
0.0
  0
LINE
  5
2181
330
1F
100
AcDbEntity
  8
外形線
100
AcDbLine
 10
34174.43934656768
 20
29009.41592820192
 30
0.0
 11
34178.43934656768
 21
29009.41592820192
 31
0.0
  0
LINE
  5
2182
330
1F
100
AcDbEntity
  8
外形線
100
AcDbLine
 10
34178.43934656768
 20
29009.41592820192
 30
0.0
 11
34178.43934656768
 21
29002.41592820193
 31
0.0
  0
LINE
  5
2183
330
1F
100
AcDbEntity
  8
外形線
100
AcDbLine
 10
34178.43934656768
 20
29002.41592820193
 30
0.0
 11
34174.43934656768
 21
29002.41592820193
 31
0.0
  0
LINE
  5
2184
330
1F
100
AcDbEntity
  8
外形線
100
AcDbLine
 10
34174.93934656769
 20
29002.41592820193
 30
0.0
 11
34174.93934656769
 21
29009.41592820192
 31
0.0
  0
LINE
  5
2185
330
1F
100
AcDbEntity
  8
外形線
100
AcDbLine
 10
34174.93934656769
 20
29009.41592820192
 30
0.0
 11
34167.33811831666
 21
29007.29016420428
 31
0.0
  0
LINE
  5
2186
330
1F
100
AcDbEntity
  8
外形線
100
AcDbLine
 10
34167.33811831666
 20
29004.54169219957
 30
0.0
 11
34174.93934656769
 21
29002.41592820193
 31
0.0
  0
ARC
  5
2187
330
1F
100
AcDbEntity
  8
外形線
100
AcDbCircle
 10
34167.93934656769
 20
29005.91592820192
 30
0.0
 40
1.5
100
AcDbArc
 50
113.629377730858
 51
246.370622269142
  0
LINE
  5
2188
330
1F
100
AcDbEntity
  8
外形線
100
AcDbLine
 10
34174.43934656768
 20
29009.41592820192
 30
0.0
 11
34174.43934656768
 21
29009.2760979056
 31
0.0
  0
LINE
  5
2189
330
1F
100
AcDbEntity
  8
外形線
100
AcDbLine
 10
34174.43934656768
 20
29002.41592820193
 30
0.0
 11
34174.43934656768
 21
29002.55575849825
 31
0.0
  0
LINE
  5
218A
330
1F
100
AcDbEntity
  8
外形線
100
AcDbLine
 10
34429.74170103496
 20
28812.28371917338
 30
0.0
 11
34429.74170103496
 21
28810.26815473631
 31
0.0
  0
LINE
  5
218B
102
{ACAD_REACTORS
330
2278
102
}
330
1F
100
AcDbEntity
  8
外形線
100
AcDbLine
 10
34461.74170103496
 20
28809.44426500049
 30
0.0
 11
34461.74170103496
 21
28812.28371917448
 31
0.0
  0
ARC
  5
218C
102
{ACAD_REACTORS
330
230F
102
}
330
1F
100
AcDbEntity
  8
外形線
100
AcDbCircle
 10
34445.74170103495
 20
28812.53179609646
 30
0.0
 40
16.00192307691588
100
AcDbArc
 50
359.1117111338804
 51
180.8882888661196
  0
ARC
  5
218D
330
1F
100
AcDbEntity
  8
外形線
100
AcDbCircle
 10
34445.74170103496
 20
28812.28371917338
 30
0.0
 40
16.24999999999987
100
AcDbArc
 50
194.1411102338191
 51
217.6271906288118
  0
ARC
  5
218E
330
1F
100
AcDbEntity
  8
外形線
100
AcDbCircle
 10
34420.99170103496
 20
28793.20493514505
 30
0.0
 40
15.0
100
AcDbArc
 50
0.0
 51
37.62719062881195
  0
ARC
  5
218F
330
1F
100
AcDbEntity
  8
外形線
100
AcDbCircle
 10
34437.74170103496
 20
28810.26815473631
 30
0.0
 40
8.0
100
AcDbArc
 50
180.0
 51
194.1411102338191
  0
ARC
  5
2190
330
1F
100
AcDbEntity
  8
外形線
100
AcDbCircle
 10
34445.74170103496
 20
28812.28371917338
 30
0.0
 40
16.24999999999987
100
AcDbArc
 50
322.3728093711878
 51
349.9367255563703
  0
ARC
  5
2191
330
1F
100
AcDbEntity
  8
外形線
100
AcDbCircle
 10
34470.49170103496
 20
28793.20493514505
 30
0.0
 40
15.0
100
AcDbArc
 50
142.3728093711881
 51
180.0
  0
LINE
  5
2192
330
1F
100
AcDbEntity
  8
外形線
100
AcDbLine
 10
34435.99170103496
 20
28793.20493514505
 30
0.0
 11
34435.99170103496
 21
28778.53371917338
 31
0.0
  0
LINE
  5
2193
330
1F
100
AcDbEntity
  8
外形線
100
AcDbLine
 10
34435.99170103496
 20
28778.53371917338
 30
0.0
 11
34442.74170103496
 21
28778.53371917338
 31
0.0
  0
LINE
  5
2194
330
1F
100
AcDbEntity
  8
外形線
100
AcDbLine
 10
34448.74170103496
 20
28778.53371917338
 30
0.0
 11
34455.49170103496
 21
28778.53371917338
 31
0.0
  0
LINE
  5
2195
330
1F
100
AcDbEntity
  8
外形線
100
AcDbLine
 10
34455.49170103496
 20
28778.53371917338
 30
0.0
 11
34455.49170103496
 21
28793.20493514505
 31
0.0
  0
LINE
  5
2196
330
1F
100
AcDbEntity
  8
外形線
100
AcDbLine
 10
34433.94170103496
 20
28786.53371917338
 30
0.0
 11
34433.94170103496
 21
28776.53371917338
 31
0.0
  0
LINE
  5
2197
330
1F
100
AcDbEntity
  8
外形線
100
AcDbLine
 10
34433.94170103496
 20
28776.53371917338
 30
0.0
 11
34457.54170103497
 21
28776.53371917338
 31
0.0
  0
LINE
  5
2198
330
1F
100
AcDbEntity
  8
外形線
100
AcDbLine
 10
34457.54170103497
 20
28776.53371917338
 30
0.0
 11
34457.54170103497
 21
28786.53371917338
 31
0.0
  0
LINE
  5
2199
330
1F
100
AcDbEntity
  8
外形線
100
AcDbLine
 10
34433.94170103496
 20
28786.53371917338
 30
0.0
 11
34435.99170103496
 21
28786.53371917338
 31
0.0
  0
LINE
  5
219A
330
1F
100
AcDbEntity
  8
外形線
100
AcDbLine
 10
34435.99170103496
 20
28786.53371917338
 30
0.0
 11
34435.99170103496
 21
28782.23371917338
 31
0.0
  0
LINE
  5
219B
330
1F
100
AcDbEntity
  8
外形線
100
AcDbLine
 10
34435.99170103496
 20
28782.23371917338
 30
0.0
 11
34435.39170103496
 21
28782.23371917338
 31
0.0
  0
LINE
  5
219C
330
1F
100
AcDbEntity
  8
外形線
100
AcDbLine
 10
34435.39170103496
 20
28782.23371917338
 30
0.0
 11
34435.39170103496
 21
28785.93371917338
 31
0.0
  0
LINE
  5
219D
330
1F
100
AcDbEntity
  8
外形線
100
AcDbLine
 10
34435.39170103496
 20
28785.93371917338
 30
0.0
 11
34434.54170103496
 21
28785.93371917338
 31
0.0
  0
LINE
  5
219E
330
1F
100
AcDbEntity
  8
外形線
100
AcDbLine
 10
34434.54170103496
 20
28785.93371917338
 30
0.0
 11
34434.54170103496
 21
28777.13371917338
 31
0.0
  0
LINE
  5
219F
330
1F
100
AcDbEntity
  8
外形線
100
AcDbLine
 10
34434.54170103496
 20
28777.13371917338
 30
0.0
 11
34442.74170103496
 21
28777.13371917338
 31
0.0
  0
LINE
  5
21A0
330
1F
100
AcDbEntity
  8
外形線
100
AcDbLine
 10
34448.74170103496
 20
28777.13371917338
 30
0.0
 11
34456.94170103497
 21
28777.13371917338
 31
0.0
  0
LINE
  5
21A1
330
1F
100
AcDbEntity
  8
外形線
100
AcDbLine
 10
34456.94170103497
 20
28777.13371917338
 30
0.0
 11
34456.94170103497
 21
28785.93371917338
 31
0.0
  0
LINE
  5
21A2
330
1F
100
AcDbEntity
  8
外形線
100
AcDbLine
 10
34456.94170103497
 20
28785.93371917338
 30
0.0
 11
34456.09170103496
 21
28785.93371917338
 31
0.0
  0
LINE
  5
21A3
330
1F
100
AcDbEntity
  8
外形線
100
AcDbLine
 10
34456.09170103496
 20
28785.93371917338
 30
0.0
 11
34456.09170103496
 21
28782.23371917338
 31
0.0
  0
LINE
  5
21A4
330
1F
100
AcDbEntity
  8
外形線
100
AcDbLine
 10
34456.09170103496
 20
28782.23371917338
 30
0.0
 11
34455.49170103496
 21
28782.23371917338
 31
0.0
  0
LINE
  5
21A5
330
1F
100
AcDbEntity
  8
外形線
100
AcDbLine
 10
34455.49170103496
 20
28782.23371917338
 30
0.0
 11
34455.49170103496
 21
28786.53371917338
 31
0.0
  0
LINE
  5
21A6
330
1F
100
AcDbEntity
  8
外形線
100
AcDbLine
 10
34455.49170103496
 20
28786.53371917338
 30
0.0
 11
34457.54170103497
 21
28786.53371917338
 31
0.0
  0
LINE
  5
21A7
330
1F
100
AcDbEntity
  8
外形線
100
AcDbLine
 10
34442.74170103496
 20
28778.53371917338
 30
0.0
 11
34442.74170103496
 21
28776.53371917338
 31
0.0
  0
LINE
  5
21A8
330
1F
100
AcDbEntity
  8
外形線
100
AcDbLine
 10
34448.74170103496
 20
28778.53371917338
 30
0.0
 11
34448.74170103496
 21
28776.53371917338
 31
0.0
  0
LINE
  5
21A9
330
1F
100
AcDbEntity
  8
外形線
100
AcDbLine
 10
34437.49170103496
 20
28776.53371917338
 30
0.0
 11
34437.49170103496
 21
28772.53371917338
 31
0.0
  0
LINE
  5
21AA
330
1F
100
AcDbEntity
  8
外形線
100
AcDbLine
 10
34437.49170103496
 20
28772.53371917338
 30
0.0
 11
34453.99170103496
 21
28772.53371917338
 31
0.0
  0
LINE
  5
21AB
330
1F
100
AcDbEntity
  8
外形線
100
AcDbLine
 10
34453.99170103496
 20
28772.53371917338
 30
0.0
 11
34453.99170103496
 21
28776.53371917338
 31
0.0
  0
LINE
  5
21AC
330
1F
100
AcDbEntity
  8
孔
100
AcDbLine
 10
34444.09170103496
 20
28824.88371917338
 30
0.0
 11
34444.09170103496
 21
28823.18371917338
 31
0.0
  0
LINE
  5
21AD
330
1F
100
AcDbEntity
  8
孔
100
AcDbLine
 10
34447.39170103496
 20
28824.88371917338
 30
0.0
 11
34447.39170103496
 21
28823.18371917338
 31
0.0
  0
ARC
  5
21AE
330
1F
100
AcDbEntity
  8
孔
100
AcDbCircle
 10
34445.74170103496
 20
28824.88371917339
 30
0.0
 40
1.650000000001455
100
AcDbArc
 50
359.9999999995831
 51
180.0000000004169
  0
ARC
  5
21AF
330
1F
100
AcDbEntity
  8
孔
100
AcDbCircle
 10
34445.74170103496
 20
28823.18371917338
 30
0.0
 40
1.650000000001455
100
AcDbArc
 50
180.0
 51
0.0
  0
CIRCLE
  5
21B0
330
1F
100
AcDbEntity
  8
孔
100
AcDbCircle
 10
34445.74170103496
 20
28813.53371917338
 30
0.0
 40
1.6
  0
LINE
  5
21B1
330
1F
100
AcDbEntity
  8
孔
100
AcDbLine
 10
34444.09170103496
 20
28804.88371917338
 30
0.0
 11
34444.09170103496
 21
28801.18371917338
 31
0.0
  0
LINE
  5
21B2
330
1F
100
AcDbEntity
  8
孔
100
AcDbLine
 10
34447.39170103496
 20
28804.88371917338
 30
0.0
 11
34447.39170103496
 21
28801.18371917338
 31
0.0
  0
ARC
  5
21B3
330
1F
100
AcDbEntity
  8
孔
100
AcDbCircle
 10
34445.74170103497
 20
28804.88371917339
 30
0.0
 40
1.650000000008731
100
AcDbArc
 50
359.9999999995831
 51
180.0000000004169
  0
ARC
  5
21B4
330
1F
100
AcDbEntity
  8
孔
100
AcDbCircle
 10
34445.74170103496
 20
28801.18371917338
 30
0.0
 40
1.650000000001455
100
AcDbArc
 50
179.9999999995831
 51
0.0000000004168817
  0
LINE
  5
21B5
330
1F
100
AcDbEntity
  8
孔
100
AcDbLine
 10
34443.24170103496
 20
28793.03371917338
 30
0.0
 11
34443.24170103496
 21
28786.03371917338
 31
0.0
  0
LINE
  5
21B6
330
1F
100
AcDbEntity
  8
孔
100
AcDbLine
 10
34448.24170103496
 20
28793.03371917338
 30
0.0
 11
34448.24170103496
 21
28786.03371917338
 31
0.0
  0
ARC
  5
21B7
330
1F
100
AcDbEntity
  8
孔
100
AcDbCircle
 10
34445.74170103497
 20
28793.03371917338
 30
0.0
 40
2.500000000007275
100
AcDbArc
 50
0.0
 51
180.0
  0
ARC
  5
21B8
330
1F
100
AcDbEntity
  8
孔
100
AcDbCircle
 10
34445.74170103497
 20
28786.03371917338
 30
0.0
 40
2.499999999992724
100
AcDbArc
 50
180.0
 51
0.0
  0
LINE
  5
21B9
330
1F
100
AcDbEntity
  8
外形線
100
AcDbLine
 10
34435.99170103496
 20
28792.53371917338
 30
0.0
 11
34443.24170103496
 21
28792.53371917338
 31
0.0
  0
LINE
  5
21BA
330
1F
100
AcDbEntity
  8
外形線
100
AcDbLine
 10
34448.24170103496
 20
28792.53371917338
 30
0.0
 11
34455.49170103496
 21
28792.53371917338
 31
0.0
  0
LINE
  5
21BB
330
1F
100
AcDbEntity
  8
外形線
100
AcDbLine
 10
34435.99170103496
 20
28782.53371917338
 30
0.0
 11
34455.49170103496
 21
28782.53371917338
 31
0.0
  0
LINE
  5
21BC
330
1F
100
AcDbEntity
  8
外形線
100
AcDbLine
 10
34436.74170103496
 20
28818.28371917338
 30
0.0
 11
34436.74170103496
 21
28807.78371917338
 31
0.0
  0
LINE
  5
21BD
330
1F
100
AcDbEntity
  8
外形線
100
AcDbLine
 10
34441.24170103496
 20
28818.28371917338
 30
0.0
 11
34441.24170103496
 21
28807.78371917338
 31
0.0
  0
ARC
  5
21BE
330
1F
100
AcDbEntity
  8
外形線
100
AcDbCircle
 10
34438.99170103497
 20
28818.28371917338
 30
0.0
 40
2.250000000007275
100
AcDbArc
 50
0.0
 51
180.0
  0
ARC
  5
21BF
330
1F
100
AcDbEntity
  8
外形線
100
AcDbCircle
 10
34438.99170103497
 20
28807.78371917338
 30
0.0
 40
2.250000000007275
100
AcDbArc
 50
180.0
 51
0.0
  0
LINE
  5
21C0
330
1F
100
AcDbEntity
  8
外形線
100
AcDbLine
 10
34450.24170103495
 20
28818.28371917338
 30
0.0
 11
34450.24170103495
 21
28807.78371917338
 31
0.0
  0
LINE
  5
21C1
330
1F
100
AcDbEntity
  8
外形線
100
AcDbLine
 10
34454.74170103495
 20
28818.28371917338
 30
0.0
 11
34454.74170103495
 21
28807.78371917338
 31
0.0
  0
ARC
  5
21C2
330
1F
100
AcDbEntity
  8
外形線
100
AcDbCircle
 10
34452.49170103496
 20
28818.28371917338
 30
0.0
 40
2.250000000007275
100
AcDbArc
 50
0.0
 51
180.0
  0
ARC
  5
21C3
330
1F
100
AcDbEntity
  8
外形線
100
AcDbCircle
 10
34452.49170103496
 20
28807.78371917338
 30
0.0
 40
2.250000000007275
100
AcDbArc
 50
180.0
 51
0.0
  0
LINE
  5
21C4
330
1F
100
AcDbEntity
  8
外形線
100
AcDbLine
 10
33632.43934656769
 20
28782.53371917338
 30
0.0
 11
33631.75606499468
 21
28783.90028231939
 31
0.0
  0
ARC
  5
21C5
330
1F
100
AcDbEntity
  8
外形線
100
AcDbCircle
 10
33634.43934656769
 20
28785.24192310588
 30
0.0
 40
3.0
100
AcDbArc
 50
180.0
 51
206.5650511770795
  0
LINE
  5
21C6
330
1F
100
AcDbEntity
  8
外形線
100
AcDbLine
 10
33631.43934656768
 20
28785.24192310588
 30
0.0
 11
33631.43934656768
 21
28791.119505611
 31
0.0
  0
ARC
  5
21C7
330
1F
100
AcDbEntity
  8
外形線
100
AcDbCircle
 10
33631.93934656769
 20
28791.119505611
 30
0.0
 40
0.5
100
AcDbArc
 50
135.0000000004465
 51
180.0
  0
LINE
  5
21C8
330
1F
100
AcDbEntity
  8
外形線
100
AcDbLine
 10
33631.58579317709
 20
28791.47305900159
 30
0.0
 11
33632.29289995828
 21
28792.18016578279
 31
0.0
  0
ARC
  5
21C9
330
1F
100
AcDbEntity
  8
外形線
100
AcDbCircle
 10
33631.93934656769
 20
28792.53371917338
 30
0.0
 40
0.5
100
AcDbArc
 50
315.0000000004465
 51
0.0
  0
XLINE
  5
21CA
330
1F
100
AcDbEntity
  8
オフセット
100
AcDbXline
 10
34222.0790636818
 20
27902.11527306976
 30
0.0
 11
0.0
 21
-1.0
 31
0.0
  0
XLINE
  5
21CB
330
1F
100
AcDbEntity
  8
オフセット
100
AcDbXline
 10
33599.0790636818
 20
27902.11527306976
 30
0.0
 11
0.0
 21
-1.0
 31
0.0
  0
XLINE
  5
21CC
330
1F
100
AcDbEntity
  8
オフセット
100
AcDbXline
 10
34223.0790636818
 20
27902.11527306976
 30
0.0
 11
0.0
 21
-1.0
 31
0.0
  0
XLINE
  5
21CD
330
1F
100
AcDbEntity
  8
オフセット
100
AcDbXline
 10
33911.0790636818
 20
27902.11527306976
 30
0.0
 11
0.0
 21
-1.0
 31
0.0
  0
XLINE
  5
21F3
330
1F
100
AcDbEntity
  8
オフセット
100
AcDbXline
 10
35138.1604278047
 20
27902.11527306976
 30
0.0
 11
0.0
 21
-1.0
 31
0.0
  0
XLINE
  5
21F4
330
1F
100
AcDbEntity
  8
オフセット
100
AcDbXline
 10
35428.1604278047
 20
27902.11527306976
 30
0.0
 11
0.0
 21
-1.0
 31
0.0
  0
XLINE
  5
21F5
330
1F
100
AcDbEntity
  8
オフセット
100
AcDbXline
 10
35718.16042780469
 20
27902.11527306976
 30
0.0
 11
0.0
 21
-1.0
 31
0.0
  0
DIMENSION
  5
220B
102
{ACAD_XDICTIONARY
360
2218
102
}
102
{ACAD_REACTORS
330
2222
102
}
330
1F
100
AcDbEntity
  8
寸法線
100
AcDbDimension
280
     0
  2
*D1
 10
34255.43934656769
 20
29124.10337110758
 30
0.0
 11
33943.43934656768
 21
29134.93983086202
 31
0.0
 70
    32
 71
     5
 42
624.0
 73
     0
 74
     0
 75
     0
  3
ISO-25
100
AcDbAlignedDimension
 13
33631.43934656768
 23
29005.91592820192
 33
0.0
 14
34255.43934656769
 24
29005.91592820192
 34
0.0
100
AcDbRotatedDimension
  0
DIMENSION
  5
2223
102
{ACAD_XDICTIONARY
360
2230
102
}
102
{ACAD_REACTORS
330
223A
102
}
330
1F
100
AcDbEntity
  8
寸法線
100
AcDbDimension
280
     0
  2
*D2
 10
34319.43934656766
 20
28776.53371882437
 30
0.0
 11
34308.60288681322
 21
28802.53371882437
 31
0.0
 70
    32
 71
     5
 42
52.0
 73
     0
 74
     0
 75
     0
  3
ISO-25
100
AcDbAlignedDimension
 13
34254.43934656768
 23
28828.53371882437
 33
0.0
 14
34254.43934656768
 24
28776.53371882437
 34
0.0
 50
90.0
100
AcDbRotatedDimension
  0
DIMENSION
  5
223B
102
{ACAD_XDICTIONARY
360
224A
102
}
102
{ACAD_REACTORS
330
2256
102
}
330
1F
100
AcDbEntity
  8
寸法線
100
AcDbDimension
280
     0
  2
*D3
 10
34319.43934656766
 20
28751.53371882437
 30
0.0
 11
34314.55122659806
 21
28728.11922298206
 31
0.0
 70
   160
 71
     5
 42
25.0
 73
     0
 74
     0
 75
     0
  3
ISO-25
100
AcDbAlignedDimension
 13
34254.43934656768
 23
28776.53371882437
 33
0.0
 14
33982.63934656769
 24
28751.53371882437
 34
0.0
 50
90.0
100
AcDbRotatedDimension
1001
ACAD
1000
DSTYLE
1002
{
1070
   279
1070
     1
1002
}
  0
DIMENSION
  5
2261
102
{ACAD_XDICTIONARY
360
226E
102
}
102
{ACAD_REACTORS
330
2278
102
}
330
1F
100
AcDbEntity
  8
寸法線
100
AcDbDimension
280
     0
  2
*D4
 10
34461.74170103496
 20
28844.87692698659
 30
0.0
 11
34445.74170103496
 21
28855.72020802342
 31
0.0
 70
    32
 71
     5
 42
32.0
 73
     0
 74
     0
 75
     0
  3
ISO-25
100
AcDbAlignedDimension
 13
34429.74170103496
 23
28810.26815473631
 33
0.0
 14
34461.74170103496
 24
28810.86399208748
 34
0.0
100
AcDbRotatedDimension
  0
DIMENSION
  5
2296
102
{ACAD_XDICTIONARY
360
22A4
102
}
102
{ACAD_REACTORS
330
22AF
102
}
330
1F
100
AcDbEntity
  8
寸法線
100
AcDbDimension
280
     0
  2
*D5
 10
34445.74170103496
 20
28912.65448756838
 30
0.0
 11
34404.16240362704
 21
28912.65448756838
 31
0.0
 70
   160
 71
     5
 42
24.00000000000728
 73
     0
 74
     0
 75
     0
  3
ISO-25
100
AcDbAlignedDimension
 13
34421.74170103495
 23
28776.03371917338
 33
0.0
 14
34445.74170103496
 24
28838.53371917338
 34
0.0
100
AcDbRotatedDimension
  0
DIMENSION
  5
22BA
102
{ACAD_XDICTIONARY
360
22C9
102
}
102
{ACAD_REACTORS
330
22D5
102
}
330
1F
100
AcDbEntity
  8
寸法線
100
AcDbDimension
280
     0
  2
*D6
 10
34466.74170103495
 20
28912.65448756838
 30
0.0
 11
34484.71257805945
 21
28911.38593268125
 31
0.0
 70
   160
 71
     5
 42
20.99999999999273
 73
     0
 74
     0
 75
     0
  3
ISO-25
100
AcDbAlignedDimension
 13
34445.74170103496
 23
28838.53371917338
 33
0.0
 14
34466.74170103495
 24
28776.03371917338
 34
0.0
100
AcDbRotatedDimension
1001
ACAD
1000
DSTYLE
1002
{
1070
   279
1070
     1
1002
}
  0
DIMENSION
  5
22E0
102
{ACAD_XDICTIONARY
360
22ED
102
}
102
{ACAD_REACTORS
330
22F7
102
}
330
1F
100
AcDbEntity
  8
寸法線
100
AcDbDimension
280
     0
  2
*D7
 10
34466.74170103495
 20
28955.29318193607
 30
0.0
 11
34444.24170103495
 21
28966.0887139961
 31
0.0
 70
    32
 71
     5
 42
45.0
 73
     0
 74
     0
 75
     0
  3
ISO-25
100
AcDbAlignedDimension
 13
34421.74170103495
 23
28776.03371917338
 33
0.0
 14
34466.74170103495
 24
28776.03371917338
 34
0.0
100
AcDbRotatedDimension
  0
DIMENSION
  5
22F8
102
{ACAD_XDICTIONARY
360
2305
102
}
102
{ACAD_REACTORS
330
230F
102
}
330
1F
100
AcDbEntity
  8
寸法線
100
AcDbDimension
280
     0
  2
*D8
 10
34382.52248238758
 20
28751.53371917338
 30
0.0
 11
34371.89748238757
 21
28790.03371917339
 31
0.0
 70
    32
 71
     5
 42
77.0
 73
     0
 74
     0
 75
     0
  3
ISO-25
100
AcDbAlignedDimension
 13
34445.74170103495
 23
28828.53371917338
 33
0.0
 14
34445.74170103496
 24
28751.53371917338
 34
0.0
 50
90.0
100
AcDbRotatedDimension
  0
DIMENSION
  5
2310
102
{ACAD_XDICTIONARY
360
231E
102
}
102
{ACAD_REACTORS
330
2329
102
}
330
1F
100
AcDbEntity
  8
寸法線
100
AcDbDimension
280
     0
  2
*D9
 10
34289.44391788012
 20
28812.28371882437
 30
0.0
 11
34276.79981828939
 21
28849.22181568658
 31
0.0
 70
    32
 71
     5
 42
35.75
 73
     0
 74
     0
 75
     0
  3
ISO-25
100
AcDbAlignedDimension
 13
34254.43934656768
 23
28776.53371882437
 33
0.0
 14
34254.43934656768
 24
28812.28371882437
 34
0.0
 50
90.0
100
AcDbRotatedDimension
  0
LINE
  5
23B0
330
1F
100
AcDbEntity
  8
寸法線
100
AcDbLine
 10
33680.93934656768
 20
28875.90871882437
 30
0.0
 11
33680.93934656768
 21
28860.22876837946
 31
0.0
  0
LINE
  5
23B1
330
1F
100
AcDbEntity
  8
寸法線
100
AcDbLine
 10
34205.93934656769
 20
28875.90871882437
 30
0.0
 11
34205.93934656769
 21
28860.22876837946
 31
0.0
  0
LINE
  5
23B2
330
1F
100
AcDbEntity
  8
寸法線
100
AcDbLine
 10
33683.43934656769
 20
28865.91210429057
 30
0.0
 11
34203.43934656769
 21
28865.91210429057
 31
0.0
  0
SOLID
  5
23B3
330
1F
100
AcDbEntity
  8
寸法線
100
AcDbTrace
 10
33683.43934656769
 20
28866.32877095724
 30
0.0
 11
33683.43934656769
 21
28865.4954376239
 31
0.0
 12
33680.93934656768
 22
28865.91210429057
 32
0.0
 13
33680.93934656768
 23
28865.91210429057
 33
0.0
  0
SOLID
  5
23B4
330
1F
100
AcDbEntity
  8
寸法線
100
AcDbTrace
 10
34203.43934656769
 20
28866.32877095724
 30
0.0
 11
34203.43934656769
 21
28865.4954376239
 31
0.0
 12
34205.93934656769
 22
28865.91210429057
 32
0.0
 13
34205.93934656769
 23
28865.91210429057
 33
0.0
  0
MTEXT
  5
23B5
330
1F
100
AcDbEntity
  8
寸法線
100
AcDbMText
 10
33943.43934656768
 20
28868.21952975221
 30
0.0
 40
20.0
 41
0.0
 46
0.0
 71
     5
 72
     1
  1
{\fMS PGothic|b0|i0|c128|p50;灯具取付寸法　　最内ピッチ　　}496\P       {\fMS PGothic|b0|i0|c128|p50;　　    　　　　最外ピッチ　　572}
 73
     1
 44
1.0
  0
XLINE
  5
23C8
330
1F
100
AcDbEntity
  8
オフセット
100
AcDbXline
 10
32915.44093491146
 20
27371.09927759064
 30
0.0
 11
-1.0
 21
0.0
 31
0.0
  0
VIEWPORT
  5
318
102
{ACAD_XDICTIONARY
360
319
102
}
330
D2
100
AcDbEntity
 67
     1
  8
0
100
AcDbViewport
 10
205.0097503662109
 20
198.846392454756
 30
0.0
 40
511.3899719593863
 41
424.8889022343412
 68
     1
 69
     1
 12
205.0097503662109
 22
198.846392454756
 13
0.0
 23
0.0
 14
10.0
 24
10.0
 15
10.0
 25
10.0
 16
0.0
 26
0.0
 36
1.0
 17
0.0
 27
0.0
 37
0.0
 42
50.0
 43
0.0
 44
0.0
 45
424.8889022343412
 50
0.0
 51
0.0
 72
  1000
 90
   557088
  1

281
     0
 71
     1
 74
     0
110
0.0
120
0.0
130
0.0
111
1.0
121
0.0
131
0.0
112
0.0
122
1.0
132
0.0
 79
     0
146
0.0
170
     0
 61
     5
348
EC
292
     1
282
     1
141
0.0
142
0.0
 63
   250
421
  3355443
  0
VIEWPORT
  5
31C
102
{ACAD_XDICTIONARY
360
31D
102
}
330
D2
100
AcDbEntity
 67
     1
  8
外形線②
100
AcDbViewport
 10
128.5
 20
97.5
 30
0.0
 40
205.6
 41
156.0
 68
     2
 69
     2
 12
210.0
 22
148.5
 13
0.0
 23
0.0
 14
10.0
 24
10.0
 15
10.0
 25
10.0
 16
0.0
 26
0.0
 36
1.0
 17
0.0
 27
0.0
 37
0.0
 42
50.0
 43
0.0
 44
0.0
 45
321.3253284758076
 50
0.0
 51
0.0
 72
  1000
 90
   819808
  1

281
     0
 71
     1
 74
     0
110
0.0
120
0.0
130
0.0
111
1.0
121
0.0
131
0.0
112
0.0
122
1.0
132
0.0
 79
     0
146
0.0
170
     0
 61
     5
348
EC
292
     1
282
     1
141
0.0
142
0.0
 63
   250
421
  3355443
  0
ENDSEC
  0
SECTION
  2
OBJECTS
  0
DICTIONARY
  5
C
330
0
100
AcDbDictionary
281
     1
  3
ACAD_CIP_PREVIOUS_PRODUCT_INFO
350
20D
  3
ACAD_COLOR
350
79
  3
ACAD_DETAILVIEWSTYLE
350
212
  3
ACAD_GROUP
350
D
  3
ACAD_LAYOUT
350
1A
  3
ACAD_MATERIAL
350
78
  3
ACAD_MLEADERSTYLE
350
124
  3
ACAD_MLINESTYLE
350
17
  3
ACAD_PLOTSETTINGS
350
19
  3
ACAD_PLOTSTYLENAME
350
E
  3
ACAD_SCALELIST
350
103
  3
ACAD_SECTIONVIEWSTYLE
350
210
  3
ACAD_TABLESTYLE
350
97
  3
ACAD_VISUALSTYLE
350
E6
  3
ACDB_RECOMPOSE_DATA
350
2474
  3
AcDbVariableDictionary
350
67
  0
DICTIONARY
  5
1F6
330
2
100
AcDbDictionary
280
     1
281
     1
  3
ACAD_LAYERSTATES
360
1F7
  0
DICTIONARY
  5
133
330
10
100
AcDbDictionary
280
     1
281
     1
  0
DICTIONARY
  5
CEB
330
CEA
100
AcDbDictionary
280
     1
281
     1
  0
DICTIONARY
  5
1C5
330
1F
100
AcDbDictionary
280
     1
281
     1
  3
ACAD_SORTENTS
360
35E
  0
DICTIONARY
  5
1DC7
330
1DC6
100
AcDbDictionary
280
     1
281
     1
  3
ASDK_XREC_ANNOTATION_SCALE_INFO
360
1DC8
  0
DICTIONARY
  5
1DCB
330
1DCA
100
AcDbDictionary
280
     1
281
     1
  3
ASDK_XREC_ANNOTATION_SCALE_INFO
360
1DCC
  0
DICTIONARY
  5
2218
330
220B
100
AcDbDictionary
280
     1
281
     1
  3
ACAD_DIMASSOC
360
2222
  0
DICTIONARY
  5
2230
330
2223
100
AcDbDictionary
280
     1
281
     1
  3
ACAD_DIMASSOC
360
223A
  0
DICTIONARY
  5
224A
330
223B
100
AcDbDictionary
280
     1
281
     1
  3
ACAD_DIMASSOC
360
2256
  0
DICTIONARY
  5
226E
330
2261
100
AcDbDictionary
280
     1
281
     1
  3
ACAD_DIMASSOC
360
2278
  0
DICTIONARY
  5
22A4
330
2296
100
AcDbDictionary
280
     1
281
     1
  3
ACAD_DIMASSOC
360
22AF
  0
DICTIONARY
  5
22C9
330
22BA
100
AcDbDictionary
280
     1
281
     1
  3
ACAD_DIMASSOC
360
22D5
  0
DICTIONARY
  5
22ED
330
22E0
100
AcDbDictionary
280
     1
281
     1
  3
ACAD_DIMASSOC
360
22F7
  0
DICTIONARY
  5
2305
330
22F8
100
AcDbDictionary
280
     1
281
     1
  3
ACAD_DIMASSOC
360
230F
  0
DICTIONARY
  5
231E
330
2310
100
AcDbDictionary
280
     1
281
     1
  3
ACAD_DIMASSOC
360
2329
  0
DICTIONARY
  5
319
330
318
100
AcDbDictionary
280
     1
281
     1
  3
ASDK_XREC_ANNOTATION_SCALE_INFO
360
31A
  0
DICTIONARY
  5
31D
330
31C
100
AcDbDictionary
280
     1
281
     1
  3
ASDK_XREC_ANNOTATION_SCALE_INFO
360
31E
  0
XRECORD
  5
20D
102
{ACAD_REACTORS
330
C
102
}
330
C
100
AcDbXrecord
280
     1
300
ACDLT
300
2016
300
ACDLT_F_S
  0
DICTIONARY
  5
79
102
{ACAD_REACTORS
330
C
102
}
330
C
100
AcDbDictionary
281
     1
  0
DICTIONARY
  5
212
102
{ACAD_REACTORS
330
C
102
}
330
C
100
AcDbDictionary
281
     1
  3
Metric50
350
213
  0
DICTIONARY
  5
D
102
{ACAD_REACTORS
330
C
102
}
330
C
100
AcDbDictionary
281
     1
  0
DICTIONARY
  5
1A
102
{ACAD_REACTORS
330
C
102
}
330
C
100
AcDbDictionary
281
     1
  3
Model
350
22
  3
レイアウト1
350
D3
  3
レイアウト2
350
D7
  0
DICTIONARY
  5
78
102
{ACAD_REACTORS
330
C
102
}
330
C
100
AcDbDictionary
281
     1
  3
ByBlock
350
E4
  3
ByLayer
350
E3
  3
Global
350
E5
  0
DICTIONARY
  5
124
102
{ACAD_REACTORS
330
C
102
}
330
C
100
AcDbDictionary
281
     1
  3
Annotative
350
132
  3
Standard
350
125
  0
DICTIONARY
  5
17
102
{ACAD_REACTORS
330
C
102
}
330
C
100
AcDbDictionary
281
     1
  3
Standard
350
18
  0
DICTIONARY
  5
19
102
{ACAD_REACTORS
330
C
102
}
330
C
100
AcDbDictionary
281
     1
  0
ACDBDICTIONARYWDFLT
  5
E
102
{ACAD_REACTORS
330
C
102
}
330
C
100
AcDbDictionary
281
     1
  3
Normal
350
F
100
AcDbDictionaryWithDefault
340
F
  0
DICTIONARY
  5
103
102
{ACAD_REACTORS
330
C
102
}
330
C
100
AcDbDictionary
281
     1
  3
A0
350
104
  3
A1
350
1B5
  3
A2
350
1B6
  3
A3
350
1B7
  3
A4
350
1B8
  3
A5
350
1B9
  3
A6
350
1BA
  3
A7
350
1BB
  3
A8
350
1BC
  3
A9
350
1BD
  3
B0
350
1BE
  3
B1
350
1BF
  3
B2
350
1C0
  3
B3
350
1C1
  3
B4
350
1C2
  3
B5
350
1C3
  3
B6
350
1C4
  0
DICTIONARY
  5
210
102
{ACAD_REACTORS
330
C
102
}
330
C
100
AcDbDictionary
281
     1
  3
Metric50
350
211
  0
DICTIONARY
  5
97
102
{ACAD_REACTORS
330
C
102
}
330
C
100
AcDbDictionary
281
     1
  3
Standard
350
98
  0
DICTIONARY
  5
E6
102
{ACAD_REACTORS
330
C
102
}
330
C
100
AcDbDictionary
281
     1
  3
2dWireframe
350
EC
  3
Basic
350
EB
  3
Brighten
350
F2
  3
ColorChange
350
F6
  3
Conceptual
350
EF
  3
Dim
350
F1
  3
EdgeColorOff
350
1DD
  3
Facepattern
350
F5
  3
Flat
350
E7
  3
FlatWithEdges
350
E8
  3
Gouraud
350
E9
  3
GouraudWithEdges
350
EA
  3
Hidden
350
EE
  3
JitterOff
350
1DB
  3
Linepattern
350
F4
  3
OverhangOff
350
1DC
  3
Realistic
350
F0
  3
Shaded
350
1EA
  3
Shaded with edges
350
1E9
  3
Shades of Gray
350
1E6
  3
Sketchy
350
1E7
  3
Thicken
350
F3
  3
Wireframe
350
ED
  3
X-Ray
350
1E8
  0
XRECORD
  5
2474
102
{ACAD_REACTORS
330
C
102
}
330
C
100
AcDbXrecord
280
     1
 90
        1
330
98
330
211
330
213
330
B52
330
B53
330
B54
330
B55
330
B56
330
B57
330
B58
330
B59
330
B5A
330
B5B
330
B5C
330
B5D
330
B5E
330
B5F
330
B60
330
B61
330
B62
330
B63
330
B66
330
B67
330
B68
330
B69
330
B6A
330
B6B
330
B6C
330
B6D
330
B6E
330
B6F
330
B70
330
B7B
330
B7C
330
B7D
330
B7E
330
B7F
330
B80
330
B81
330
B82
330
B83
330
B84
330
B85
330
B86
330
C33
330
C35
330
C37
330
C39
330
C3B
330
C3D
330
C3E
330
13B0
330
13B3
330
13B4
  0
DICTIONARY
  5
67
102
{ACAD_REACTORS
330
C
102
}
330
C
100
AcDbDictionary
281
     1
  3
CANNOSCALE
350
13D
  3
CMLEADERSTYLE
350
13C
  3
CTABLESTYLE
350
C5
  3
CVIEWDETAILSTYLE
350
21E
  3
CVIEWSECTIONSTYLE
350
21F
  3
DIMASSOC
350
68
  3
EXPORTMODELSPACE
350
DA8
  3
HIDETEXT
350
6C
  3
LAYEREVAL
350
1A5
  3
LAYERNOTIFY
350
1A6
  0
DICTIONARY
  5
1F7
102
{ACAD_REACTORS
330
1F6
102
}
330
1F6
100
AcDbDictionary
281
     1
  0
SORTENTSTABLE
  5
35E
102
{ACAD_REACTORS
330
1C5
102
}
330
1C5
100
AcDbSortentsTable
330
1F
331
20C3
  5
20CC
331
213D
  5
2146
331
20FE
  5
2107
331
2178
  5
2181
331
21B7
  5
21C0
331
2084
  5
208D
331
2106
  5
210F
331
2145
  5
214E
331
2180
  5
2189
331
21BF
  5
21C8
331
208C
  5
2095
331
20CB
  5
20D4
331
210E
  5
2117
331
2094
  5
209D
331
129B
  5
9B4
331
11D4
  5
1314
331
1CFA
  5
9A8
331
2041
  5
204A
331
2049
  5
2052
331
11DC
  5
13B2
331
1D82
  5
9BD
331
D5A
  5
F89
331
D99
  5
1208
331
2051
  5
205A
331
11E4
  5
15BE
331
13B3
  5
1B7B
331
870
  5
B5C
331
D62
  5
F91
331
11F4
  5
15D1
331
D6A
  5
F99
331
B7C
  5
D69
331
C3B
  5
D83
331
D72
  5
FA1
331
B84
  5
D71
331
C43
  5
B2D
331
C4B
  5
D8D
331
B22
  5
B85
331
993
  5
B80
331
B2A
  5
C19
331
2149
  5
2152
331
2188
  5
2191
331
20D7
  5
20E0
331
2116
  5
211F
331
2190
  5
2199
331
B32
  5
C21
331
2151
  5
215A
331
205D
  5
2066
331
209C
  5
20A5
331
20A4
  5
20AD
331
211E
  5
2127
331
20DF
  5
20E8
331
9A3
  5
B51
331
B3A
  5
C29
331
2159
  5
2162
331
2198
  5
21A1
331
2065
  5
206E
331
21C1
  5
21CA
331
20E7
  5
20F0
331
2126
  5
212F
331
2161
  5
216A
331
21A0
  5
21A9
331
206D
  5
2076
331
20AC
  5
20B5
331
21C9
  5
220B
331
20EF
  5
20F8
331
212E
  5
2137
331
2075
  5
207E
331
20B4
  5
20BD
331
11FC
  5
15D9
331
1125
  5
B21
331
1204
  5
15E1
331
1DEA
  5
9B9
331
8A8
  5
B69
331
D7A
  5
FA9
331
D82
  5
FB1
331
11CD
  5
1296
331
D4B
  5
D99
331
D8A
  5
11F9
331
B5D
  5
CD2
331
D53
  5
F82
331
D92
  5
1201
331
B65
  5
D50
331
C24
  5
B26
331
B6D
  5
D59
331
B75
  5
D62
331
C34
  5
D7C
331
B42
  5
C37
331
B4A
  5
C42
331
2169
  5
2172
331
21A8
  5
21B1
331
20F7
  5
2100
331
2136
  5
213F
331
21B0
  5
21B9
331
B52
  5
C4A
331
2171
  5
217A
331
207D
  5
2086
331
20BC
  5
20C5
331
20C4
  5
20CD
331
213E
  5
2147
331
20FF
  5
2108
331
2179
  5
2182
331
21B8
  5
21C1
331
2085
  5
208E
331
2107
  5
2110
331
2146
  5
214F
331
2181
  5
218A
331
208D
  5
2096
331
20CC
  5
20D5
331
210F
  5
2118
331
2095
  5
209E
331
11D5
  5
1334
331
2042
  5
204B
331
908
  5
B6D
331
204A
  5
2053
331
11DD
  5
13B3
331
1D83
  5
9BA
331
D5B
  5
F8A
331
D9A
  5
1209
331
2052
  5
205B
331
11E5
  5
15BF
331
13B4
  5
1B7C
331
871
  5
B5D
331
D63
  5
F92
331
11F5
  5
15D2
331
D6B
  5
F9A
331
B7D
  5
D6A
331
C3C
  5
D84
331
D73
  5
FA2
331
B85
  5
D72
331
C44
  5
B2C
331
C4C
  5
D8E
331
B23
  5
B86
331
20D0
  5
20D9
331
994
  5
B81
331
B2B
  5
C1A
331
214A
  5
2153
331
2189
  5
2192
331
20D8
  5
20E1
331
2117
  5
2120
331
2191
  5
219A
331
B33
  5
C22
331
2152
  5
215B
331
205E
  5
2067
331
209D
  5
20A6
331
20A5
  5
20AE
331
20E0
  5
20E9
331
211F
  5
2128
331
B3B
  5
C2A
331
215A
  5
2163
331
2199
  5
21A2
331
2066
  5
206F
331
21C2
  5
21CB
331
20E8
  5
20F1
331
2127
  5
2130
331
2162
  5
216B
331
21A1
  5
21AA
331
206E
  5
2077
331
20AD
  5
20B6
331
21CA
  5
9A2
331
212F
  5
2138
331
2076
  5
207F
331
20B5
  5
20BE
331
2261
  5
2296
331
11FD
  5
15DA
331
1126
  5
B20
331
1205
  5
1B74
331
D7B
  5
FAA
331
11C6
  5
120C
331
D83
  5
FB2
331
D4C
  5
D9A
331
11CE
  5
12F5
331
7C2
  5
7C2
331
D8B
  5
11FA
331
B5E
  5
D49
331
D54
  5
F83
331
D93
  5
1202
331
B66
  5
D51
331
C25
  5
B27
331
B6E
  5
D5A
331
B76
  5
D63
331
C35
  5
D7D
331
B43
  5
C38
331
20F0
  5
20F9
331
B4B
  5
C43
331
216A
  5
2173
331
21A9
  5
21B2
331
20F8
  5
2101
331
2137
  5
2140
331
21B1
  5
21BA
331
B53
  5
C4B
331
2172
  5
217B
331
207E
  5
2087
331
20BD
  5
20C6
331
2100
  5
2109
331
213F
  5
2148
331
217A
  5
2183
331
21B9
  5
21C2
331
2086
  5
208F
331
20C5
  5
20CE
331
2108
  5
2111
331
2147
  5
2150
331
2182
  5
218B
331
208E
  5
2097
331
20CD
  5
20D6
331
2096
  5
209F
331
11D6
  5
1335
331
2043
  5
204C
331
909
  5
B6E
331
204B
  5
2054
331
11DE
  5
13B4
331
1D84
  5
2045
331
86A
  5
B55
331
D5C
  5
F8B
331
D9B
  5
120A
331
11E6
  5
15CC
331
2053
  5
205C
331
981
  5
B74
331
D64
  5
F93
331
D6C
  5
F9B
331
B7E
  5
D6B
331
C3D
  5
D85
331
D74
  5
FA3
331
B86
  5
D73
331
C45
  5
D87
331
C4D
  5
D90
331
98D
  5
B7A
331
B24
  5
B87
331
20D1
  5
20DA
331
2110
  5
2119
331
B2C
  5
C1B
331
214B
  5
2154
331
218A
  5
2193
331
2118
  5
2121
331
20D9
  5
20E2
331
2192
  5
219B
331
B34
  5
C23
331
2153
  5
215C
331
205F
  5
2068
331
209E
  5
20A7
331
20E1
  5
20EA
331
2120
  5
2129
331
B3C
  5
C2B
331
215B
  5
2164
331
219A
  5
21A3
331
2067
  5
2070
331
20A6
  5
20AF
331
21C3
  5
21CC
331
20E9
  5
20F2
331
2128
  5
2131
331
2163
  5
216C
331
21A2
  5
21AB
331
206F
  5
2078
331
20AE
  5
20B7
331
21CB
  5
9A3
331
2077
  5
2080
331
20B6
  5
20BF
331
21F3
  5
9AD
331
220B
  5
2223
331
11FE
  5
15DB
331
8A2
  5
B65
331
17DD
  5
9B8
331
D7C
  5
FAB
331
11C7
  5
120D
331
D84
  5
11F3
331
11CF
  5
12F6
331
1CF5
  5
9BB
331
D4D
  5
D9B
331
D8C
  5
11FB
331
B5F
  5
D4A
331
D55
  5
F84
331
D94
  5
1203
331
B67
  5
D52
331
C26
  5
D79
331
B6F
  5
D5B
331
B77
  5
D64
331
C36
  5
D7E
331
9C5
  5
833
331
B44
  5
C39
331
20F1
  5
20FA
331
2130
  5
2139
331
B4C
  5
C44
331
216B
  5
2174
331
21AA
  5
21B3
331
2138
  5
2141
331
20F9
  5
2102
331
21B2
  5
21BB
331
B54
  5
C4C
331
2173
  5
217C
331
207F
  5
2088
331
20BE
  5
20C7
331
2101
  5
210A
331
2140
  5
2149
331
217B
  5
2184
331
21BA
  5
21C3
331
2087
  5
2090
331
20C6
  5
20CF
331
2109
  5
2112
331
2183
  5
218C
331
208F
  5
2098
331
20CE
  5
20D7
331
2223
  5
223B
331
2097
  5
20A0
331
223B
  5
2261
331
11D7
  5
1336
331
2044
  5
204D
331
90A
  5
B6F
331
204C
  5
2055
331
11DF
  5
15B9
331
1D85
  5
2047
331
86B
  5
B56
331
93A
  5
B6B
331
D5D
  5
F8C
331
D9C
  5
120B
331
2054
  5
205D
331
873
  5
B22
331
982
  5
B75
331
D65
  5
F94
331
11F7
  5
15D4
331
D6D
  5
F9C
331
B7F
  5
D6C
331
C3E
  5
D86
331
D75
  5
FA4
331
B87
  5
D74
331
C46
  5
D88
331
C4E
  5
D91
331
C17
  5
B25
331
98E
  5
B7B
331
B25
  5
B88
331
20D2
  5
20DB
331
2111
  5
211A
331
B2D
  5
C1C
331
214C
  5
2155
331
218B
  5
2194
331
2058
  5
2061
331
2119
  5
2122
331
20DA
  5
20E3
331
2193
  5
219C
331
B35
  5
C24
331
2154
  5
215D
331
2060
  5
2069
331
209F
  5
20A8
331
20E2
  5
20EB
331
2121
  5
212A
331
9A6
  5
B24
331
B3D
  5
C2F
331
215C
  5
2165
331
219B
  5
21A4
331
2068
  5
2071
331
20A7
  5
20B0
331
21C4
  5
21CD
331
20EA
  5
20F3
331
2129
  5
2132
331
2164
  5
216D
331
21A3
  5
21AC
331
2070
  5
2079
331
20AF
  5
20B8
331
21CC
  5
9A4
331
20B7
  5
20C0
331
21F4
  5
9B1
331
11FF
  5
15DC
331
8A3
  5
B66
331
D7D
  5
FAC
331
11C8
  5
1230
331
D85
  5
11F4
331
B58
  5
C54
331
1CF6
  5
9A9
331
D4E
  5
D9C
331
D8D
  5
11FC
331
B60
  5
D4B
331
D56
  5
F85
331
D95
  5
1204
331
B68
  5
D53
331
C27
  5
B2B
331
B70
  5
D5C
331
C2F
  5
D7A
331
C37
  5
D7F
331
B45
  5
C3A
331
2078
  5
2081
331
216C
  5
2175
331
21AB
  5
21B4
331
B4D
  5
C45
331
20F2
  5
20FB
331
2131
  5
213A
331
2080
  5
2089
331
20BF
  5
20C8
331
2139
  5
2142
331
21B3
  5
21BC
331
2174
  5
217D
331
B55
  5
C4D
331
20FA
  5
2103
331
2088
  5
2091
331
20C7
  5
20D0
331
217C
  5
2185
331
21BB
  5
21C4
331
2102
  5
210B
331
2141
  5
214A
331
2090
  5
2099
331
20CF
  5
20D8
331
23B5
  5
23C8
331
2184
  5
218D
331
210A
  5
2113
331
11D0
  5
12F7
331
7E4
  5
9B2
331
90B
  5
B71
331
11D8
  5
1337
331
2045
  5
204E
331
86C
  5
B57
331
93B
  5
B70
331
D5E
  5
F8D
331
204D
  5
2056
331
1D86
  5
9BC
331
11E0
  5
15BA
331
13AF
  5
1B77
331
983
  5
B76
331
D66
  5
F95
331
B78
  5
D65
331
11F0
  5
15CD
331
2055
  5
205E
331
D6E
  5
F9D
331
89C
  5
B5F
331
B80
  5
D6D
331
D76
  5
FA5
331
B88
  5
D75
331
C47
  5
D89
331
C4F
  5
D93
331
98F
  5
B7C
331
B26
  5
B89
331
2059
  5
2062
331
2098
  5
20A1
331
214D
  5
2156
331
218C
  5
2195
331
B2E
  5
C1D
331
20D3
  5
20DC
331
2112
  5
211B
331
20A0
  5
20A9
331
2061
  5
206A
331
211A
  5
2123
331
2194
  5
219D
331
2155
  5
215E
331
B36
  5
C25
331
20DB
  5
20E4
331
2069
  5
2072
331
20A8
  5
20B1
331
215D
  5
2166
331
219C
  5
21A5
331
9A7
  5
B23
331
B3E
  5
C33
331
20E3
  5
20EC
331
2122
  5
212B
331
21C5
  5
21CE
331
2071
  5
207A
331
20B0
  5
20B9
331
2165
  5
216E
331
21A4
  5
21AD
331
20EB
  5
20F4
331
212A
  5
2133
331
21CD
  5
9A5
331
21F5
  5
9B0
331
11F8
  5
15D5
331
17D7
  5
906
331
1200
  5
15DD
331
D7E
  5
FAD
331
D86
  5
11F5
331
8C4
  5
B60
331
B59
  5
C6E
331
C18
  5
B50
331
11C9
  5
1231
331
1230
  5
9B7
331
D4F
  5
F7E
331
D8E
  5
11FD
331
B61
  5
D4C
331
C20
  5
D78
331
1CF7
  5
95D
331
D57
  5
F86
331
D96
  5
1205
331
B69
  5
D54
331
B71
  5
D5D
331
B46
  5
C3B
331
2079
  5
2082
331
20B8
  5
20C1
331
216D
  5
2176
331
21AC
  5
21B5
331
B4E
  5
C46
331
20F3
  5
20FC
331
2132
  5
213B
331
20C0
  5
20C9
331
2081
  5
208A
331
213A
  5
2143
331
21B4
  5
21BD
331
2175
  5
217E
331
B56
  5
C4E
331
20FB
  5
2104
331
2089
  5
2092
331
20C8
  5
20D1
331
217D
  5
2186
331
21BC
  5
21C5
331
B1F
  5
B82
331
2103
  5
210C
331
2142
  5
214B
331
2091
  5
209A
331
2185
  5
218E
331
210B
  5
2114
331
11D1
  5
12F8
331
90C
  5
B72
331
11D9
  5
13AF
331
2046
  5
204F
331
86D
  5
B58
331
D5F
  5
F8E
331
204E
  5
2057
331
11E1
  5
15BB
331
13B0
  5
1B78
331
984
  5
B77
331
D67
  5
F96
331
B79
  5
D66
331
C38
  5
D80
331
11F1
  5
15CE
331
2056
  5
205F
331
D6F
  5
F9E
331
89D
  5
B61
331
B81
  5
D6E
331
D77
  5
FA6
331
B89
  5
D76
331
C48
  5
D8A
331
990
  5
B7D
331
B27
  5
B8A
331
205A
  5
2063
331
2099
  5
20A2
331
214E
  5
2157
331
218D
  5
2196
331
B2F
  5
C1E
331
20D4
  5
20DD
331
2113
  5
211C
331
20A1
  5
20AA
331
2062
  5
206B
331
211B
  5
2124
331
2195
  5
219E
331
2156
  5
215F
331
9A0
  5
B54
331
B37
  5
C26
331
20DC
  5
20E5
331
206A
  5
2073
331
20A9
  5
20B2
331
23C8
  5
9B6
331
215E
  5
2167
331
219D
  5
21A6
331
B3F
  5
C34
331
20E4
  5
20ED
331
2123
  5
212C
331
21C6
  5
21F3
331
2072
  5
207B
331
20B1
  5
20BA
331
2166
  5
216F
331
21A5
  5
21AE
331
20EC
  5
20F5
331
212B
  5
2134
331
11F9
  5
15D6
331
C50
  5
D95
331
1201
  5
15DE
331
1DE7
  5
9AA
331
D7F
  5
FAE
331
D87
  5
11F6
331
8C5
  5
B64
331
B5A
  5
C86
331
11CA
  5
126E
331
D50
  5
F7F
331
D8F
  5
11FE
331
B62
  5
D4D
331
203F
  5
2048
331
D97
  5
1206
331
B6A
  5
D56
331
B72
  5
D5E
331
B47
  5
C3C
331
207A
  5
2083
331
20B9
  5
20C2
331
216E
  5
2177
331
21AD
  5
21B6
331
B4F
  5
C47
331
20F4
  5
20FD
331
2133
  5
213C
331
20C1
  5
20CA
331
2082
  5
208B
331
22E0
  5
22F8
331
213B
  5
2144
331
21B5
  5
21BE
331
2176
  5
217F
331
B57
  5
C4F
331
20FC
  5
2105
331
208A
  5
2093
331
20C9
  5
20D2
331
217E
  5
2187
331
21BD
  5
21C6
331
2104
  5
210D
331
2143
  5
214C
331
2092
  5
209B
331
2186
  5
218F
331
210C
  5
2115
331
11D2
  5
12F9
331
1CF8
  5
95F
331
90D
  5
B73
331
D58
  5
F87
331
11DA
  5
13B0
331
1D80
  5
9A6
331
2047
  5
2050
331
86E
  5
B59
331
D60
  5
F8F
331
204F
  5
2058
331
11E2
  5
15BC
331
13B1
  5
1B79
331
D68
  5
F97
331
985
  5
B78
331
B7A
  5
D67
331
C39
  5
D81
331
11F2
  5
15CF
331
2057
  5
2060
331
D70
  5
F9F
331
89E
  5
B62
331
B82
  5
D6F
331
B8A
  5
D77
331
C49
  5
D8B
331
B20
  5
B83
331
991
  5
B7E
331
B28
  5
C17
331
205B
  5
2064
331
209A
  5
20A3
331
22F8
  5
2310
331
214F
  5
2158
331
218E
  5
2197
331
B30
  5
C1F
331
20D5
  5
20DE
331
2114
  5
211D
331
20A2
  5
20AB
331
2063
  5
206C
331
211C
  5
2125
331
2196
  5
219F
331
2157
  5
2160
331
9A1
  5
B53
331
B38
  5
C27
331
20DD
  5
20E6
331
206B
  5
2074
331
20AA
  5
20B3
331
215F
  5
2168
331
219E
  5
21A7
331
20E5
  5
20EE
331
2124
  5
212D
331
2073
  5
207C
331
20B2
  5
20BB
331
2310
  5
2349
331
2167
  5
2170
331
21A6
  5
21AF
331
20ED
  5
20F6
331
212C
  5
2135
331
21C7
  5
21F4
331
11FA
  5
15D7
331
D78
  5
FA7
331
1123
  5
9B3
331
1202
  5
15DF
331
1DE8
  5
9AC
331
D80
  5
FAF
331
120A
  5
15E2
331
1B71
  5
1B8A
331
1E48
  5
B28
331
D49
  5
D97
331
8C6
  5
B67
331
D88
  5
11F7
331
B5B
  5
CA0
331
11CB
  5
1294
331
D51
  5
F80
331
906
  5
B6A
331
D90
  5
11FF
331
B63
  5
D4E
331
C22
  5
B29
331
B6B
  5
D57
331
B73
  5
D60
331
B40
  5
C35
331
B48
  5
C3D
331
207B
  5
2084
331
20BA
  5
20C3
331
216F
  5
2178
331
21AE
  5
21B7
331
B50
  5
C48
331
20F5
  5
20FE
331
2134
  5
213D
331
20C2
  5
20CB
331
2083
  5
208C
331
213C
  5
2145
331
21B6
  5
21BF
331
2177
  5
2180
331
20FD
  5
2106
331
208B
  5
2094
331
20CA
  5
20D3
331
217F
  5
2188
331
21BE
  5
21C7
331
2105
  5
210E
331
2144
  5
214D
331
2093
  5
209C
331
2187
  5
2190
331
210D
  5
2116
331
2296
  5
22BA
331
129A
  5
9BE
331
11D3
  5
12FC
331
1CF9
  5
960
331
2040
  5
2049
331
D59
  5
F88
331
D98
  5
1207
331
2048
  5
2051
331
11DB
  5
13B1
331
1D81
  5
9A7
331
86F
  5
B5B
331
D61
  5
F90
331
2050
  5
2059
331
11E3
  5
15BD
331
13B2
  5
1B7A
331
D69
  5
F98
331
B7B
  5
D68
331
C3A
  5
D82
331
11F3
  5
15D0
331
D71
  5
FA0
331
89F
  5
B63
331
B83
  5
D70
331
C42
  5
B4F
331
C4A
  5
D8C
331
B21
  5
B84
331
2148
  5
2151
331
992
  5
B7F
331
B29
  5
C18
331
205C
  5
2065
331
209B
  5
20A4
331
2150
  5
2159
331
218F
  5
2198
331
99A
  5
B5A
331
B31
  5
C20
331
20D6
  5
20DF
331
2115
  5
211E
331
20A3
  5
20AC
331
2064
  5
206D
331
211D
  5
2126
331
2158
  5
2161
331
2197
  5
21A0
331
9A2
  5
B52
331
B39
  5
C28
331
20DE
  5
20E7
331
206C
  5
2075
331
20AB
  5
20B4
331
22BA
  5
22E0
331
2160
  5
2169
331
219F
  5
21A8
331
20E6
  5
20EF
331
2125
  5
212E
331
21C0
  5
21C9
331
2074
  5
207D
331
20B3
  5
20BC
331
21A7
  5
21B0
331
20EE
  5
20F7
331
212D
  5
2136
331
21C8
  5
21F5
331
11FB
  5
15D8
331
8A7
  5
B68
331
D79
  5
FA8
331
1203
  5
15E0
331
1DE9
  5
9AB
331
D81
  5
FB0
331
120B
  5
1B76
331
D4A
  5
D98
331
D89
  5
11F8
331
B5C
  5
CBA
331
11CC
  5
1295
331
D52
  5
F81
331
907
  5
B6C
331
D91
  5
1200
331
B64
  5
D4F
331
C23
  5
B2A
331
B6C
  5
D58
331
B74
  5
D61
331
C33
  5
D7B
331
B41
  5
C36
331
B49
  5
C3E
331
2168
  5
2171
331
20F6
  5
20FF
331
2135
  5
213E
331
B51
  5
C49
331
2170
  5
2179
331
21AF
  5
21B8
331
207C
  5
2085
331
20BB
  5
20C4
  0
XRECORD
  5
1DC8
102
{ACAD_REACTORS
330
1DC7
102
}
330
1DC7
100
AcDbXrecord
280
     1
 90
        1
340
104
  0
XRECORD
  5
1DCC
102
{ACAD_REACTORS
330
1DCB
102
}
330
1DCB
100
AcDbXrecord
280
     1
 90
        1
340
104
  0
DIMASSOC
  5
2222
102
{ACAD_REACTORS
330
2218
102
}
330
2218
100
AcDbDimAssoc
330
220B
 90
        3
 70
     0
 71
     0
  1
AcDbOsnapPointRef
 72
     2
331
2090
 73
     2
 91
        0
 40
0.5000000000000001
 10
33599.0790636818
 20
27411.09927759064
 30
0.0
 75
     0
  1
AcDbOsnapPointRef
 72
     2
331
20A7
 73
     2
 91
        0
 40
0.5000000000000001
 10
34223.0790636818
 20
27411.09927759064
 30
0.0
 75
     0
  0
DIMASSOC
  5
223A
102
{ACAD_REACTORS
330
2230
102
}
330
2230
100
AcDbDimAssoc
330
2223
 90
        3
 70
     0
 71
     0
  1
AcDbOsnapPointRef
 72
     1
331
205F
 73
     2
 91
        0
 40
1.0
 10
34222.0790636818
 20
27258.63110205299
 30
0.0
 75
     0
  1
AcDbOsnapPointRef
 72
    13
331
2041
 73
     2
 91
        0
 40
0.0
 10
34222.0790636818
 20
27206.63110205299
 30
0.0
 75
     0
  0
DIMASSOC
  5
2256
102
{ACAD_REACTORS
330
224A
102
}
330
224A
100
AcDbDimAssoc
330
223B
 90
        3
 70
     0
 71
     0
  1
AcDbOsnapPointRef
 72
    13
331
2041
 73
     2
 91
        0
 40
0.0
 10
0.0
 20
0.0
 30
2.000000000000000E+50
 75
     0
  1
AcDbOsnapPointRef
 72
    13
331
11DB
 73
     2
 91
        0
 40
0.0
 10
0.0
 20
0.0
 30
2.000000000000000E+50
 75
     0
  0
DIMASSOC
  5
2278
102
{ACAD_REACTORS
330
226E
102
}
330
226E
100
AcDbDimAssoc
330
2261
 90
        2
 70
     0
 71
     0
  1
AcDbOsnapPointRef
 72
     2
331
218B
 73
     2
 91
        0
 40
0.5
 10
34429.38141814908
 20
27240.9613753161
 30
0.0
 75
     0
  0
DIMASSOC
  5
22AF
102
{ACAD_REACTORS
330
22A4
102
}
330
22A4
100
AcDbDimAssoc
330
2296
 90
        3
 70
     0
 71
     0
  1
AcDbOsnapPointRef
 72
     1
331
86D
 73
     2
 91
        0
 40
3.141592653589793
 10
34389.38141814907
 20
27206.131102402
 30
0.0
 75
     0
  1
AcDbOsnapPointRef
 72
    13
331
C26
 73
     2
 91
        0
 40
0.0
 10
34413.38141814907
 20
27268.631102402
 30
0.0
 75
     0
  0
DIMASSOC
  5
22D5
102
{ACAD_REACTORS
330
22C9
102
}
330
22C9
100
AcDbDimAssoc
330
22BA
 90
        3
 70
     0
 71
     0
  1
AcDbOsnapPointRef
 72
    13
331
C26
 73
     2
 91
        0
 40
0.0
 10
0.0
 20
0.0
 30
2.000000000000000E+50
 75
     0
  1
AcDbOsnapPointRef
 72
     1
331
870
 73
     2
 91
        0
 40
1.0
 10
0.0
 20
0.0
 30
2.000000000000000E+50
 75
     0
  0
DIMASSOC
  5
22F7
102
{ACAD_REACTORS
330
22ED
102
}
330
22ED
100
AcDbDimAssoc
330
22E0
 90
        3
 70
     0
 71
     0
  1
AcDbOsnapPointRef
 72
     1
331
86D
 73
     2
 91
        0
 40
3.141592653589793
 10
34389.38141814907
 20
27206.131102402
 30
0.0
 75
     0
  1
AcDbOsnapPointRef
 72
     1
331
870
 73
     2
 91
        0
 40
1.0
 10
34434.38141814907
 20
27206.131102402
 30
0.0
 75
     0
  0
DIMASSOC
  5
230F
102
{ACAD_REACTORS
330
2305
102
}
330
2305
100
AcDbDimAssoc
330
22F8
 90
        3
 70
     0
 71
     0
  1
AcDbOsnapPointRef
 72
     2
331
218C
 73
     2
 91
        0
 40
7.853981633974482
 10
34413.38141814907
 20
27258.631102402
 30
0.0
 75
     0
  1
AcDbOsnapPointRef
 72
     2
331
982
 73
     2
 91
        0
 40
0.5
 10
34413.38141814907
 20
27181.631102402
 30
0.0
 75
     0
  0
DIMASSOC
  5
2329
102
{ACAD_REACTORS
330
231E
102
}
330
231E
100
AcDbDimAssoc
330
2310
 90
        3
 70
     0
 71
     0
  1
AcDbOsnapPointRef
 72
    13
331
2041
 73
     2
 91
        0
 40
0.0
 10
34222.0790636818
 20
27206.63110205299
 30
0.0
 75
     0
  1
AcDbOsnapPointRef
 72
     6
331
205C
 73
     2
 91
        0
 40
0.548611106734982
 10
34222.0790636818
 20
27242.38110205299
 30
0.0
332
C20
 74
     2
 92
        0
 75
     0
  0
XRECORD
  5
31A
102
{ACAD_REACTORS
330
319
102
}
330
319
100
AcDbXrecord
280
     1
 90
        1
340
104
  0
XRECORD
  5
31E
102
{ACAD_REACTORS
330
31D
102
}
330
31D
100
AcDbXrecord
280
     1
 90
        1
340
104
  0
ACDBDETAILVIEWSTYLE
  5
213
102
{ACAD_XDICTIONARY
360
22D
102
}
102
{ACAD_REACTORS
330
212
102
}
330
212
100
AcDbModelDocViewStyle
 70
     0
  3
Metric50
290
     0
100
AcDbDetailViewStyle
 70
     0
 71
     0
 90
        3
 71
     1
340
11
 62
   256
 40
5.0
340
0
 62
   256
 40
5.0
300

 40
0.0
280
     1
 71
     2
340
16
 90
       25
 62
   256
 71
     3
340
11
 62
   256
 40
5.0
 90
        0
 40
15.0
 90
        1
300
%<\AcVar ViewDetailId>% (%<\AcVar ViewScale \f "%sn">%)
 71
     4
340
16
 90
       25
 62
   256
340
16
 90
       25
 62
   256
280
     0
  0
LAYOUT
  5
22
102
{ACAD_XDICTIONARY
360
1FC
102
}
102
{ACAD_REACTORS
330
1A
102
}
330
1A
100
AcDbPlotSettings
  1

  2
Kyocera TASKalfa 3252ci(J) KX
  4
A3
  6

 40
4.984749794006347
 41
5.111724853515625
 42
5.154083251953125
 43
4.9847412109375
 44
297.0106506347656
 45
419.9889831542968
 46
0.0
 47
0.0
 48
0.0
 49
0.0
140
0.0
141
0.0
142
1.0
143
9.806410578662045
 70
 11952
 72
     1
 73
     1
 74
     0
  7
monochrome.stb
 75
     0
147
0.1019741109122964
 76
     0
 77
     2
 78
   300
148
-32876.12478992212
149
-27320.92452532269
100
AcDbLayout
  1
Model
 70
     1
 71
     0
 10
0.0
 20
0.0
 11
12.0
 21
9.0
 12
0.0
 22
0.0
 32
0.0
 14
0.0
 24
0.0
 34
0.0
 15
0.0
 25
0.0
 35
0.0
146
0.0
 13
0.0
 23
0.0
 33
0.0
 16
1.0
 26
0.0
 36
0.0
 17
0.0
 27
1.0
 37
0.0
 76
     0
330
1F
331
E1
1001
ACAD_PSEXT
1000
Kyocera TASKalfa 3252ci(J) KX
1000
Kyocera TASKalfa 3252ci(J) KX
1000
192.168.11.123
1000

1070
     0
  0
LAYOUT
  5
D3
102
{ACAD_REACTORS
330
1A
102
}
330
1A
100
AcDbPlotSettings
  1

  2
Kyocera TASKalfa 3050ci(J) KX
  4
A3
  6

 40
4.984749794006347
 41
5.111724853515625
 42
5.154083251953125
 43
4.9847412109375
 44
297.0106506347656
 45
419.9889831542968
 46
0.0
 47
0.0
 48
0.0
 49
0.0
140
0.0
141
0.0
142
1.0
143
1.0
 70
   688
 72
     1
 73
     1
 74
     5
  7
monochrome.stb
 75
    16
147
1.0
 76
     0
 77
     2
 78
   300
148
0.0
149
0.0
100
AcDbLayout
  1
レイアウト1
 70
     1
 71
     1
 10
-4.9847412109375
 20
-4.984749794006347
 11
415.0042419433593
 21
292.0259008407593
 12
0.0
 22
0.0
 32
0.0
 14
25.69999999999999
 24
19.5
 34
0.0
 15
231.3
 25
175.5
 35
0.0
146
0.0
 13
0.0
 23
0.0
 33
0.0
 16
1.0
 26
0.0
 36
0.0
 17
0.0
 27
1.0
 37
0.0
 76
     0
330
D2
331
318
1001
ACAD_PSEXT
1000
Kyocera TASKalfa 3050ci(J) KX
1000
Kyocera TASKalfa 3050ci(J) KX
1000
192.168.11.123
1000

1070
     0
  0
LAYOUT
  5
D7
102
{ACAD_REACTORS
330
1A
102
}
330
1A
100
AcDbPlotSettings
  1

  2
なし
  4
ISO_A4_(210.00_x_297.00_MM)
  6

 40
7.5
 41
20.0
 42
7.5
 43
20.0
 44
210.0
 45
297.0
 46
0.0
 47
0.0
 48
0.0
 49
0.0
140
0.0
141
0.0
142
1.0
143
1.0
 70
   688
 72
     1
 73
     1
 74
     5
  7
monochrome.stb
 75
    16
147
1.0
 76
     0
 77
     2
 78
   300
148
0.0
149
0.0
100
AcDbLayout
  1
レイアウト2
 70
     1
 71
     2
 10
-20.0
 20
-7.5
 11
277.0
 21
202.5
 12
0.0
 22
0.0
 32
0.0
 14
25.69999999999999
 24
19.5
 34
0.0
 15
231.3
 25
175.5
 35
0.0
146
0.0
 13
0.0
 23
0.0
 33
0.0
 16
1.0
 26
0.0
 36
0.0
 17
0.0
 27
1.0
 37
0.0
 76
     0
330
D6
331
1DC6
1001
ACAD_PSEXT
1000
なし
1000
なし
1000
適切ではありません
1000
新しいプロッタ環境設定名を選択しない限り、レイアウトは印刷されません。
1070
     0
  0
MATERIAL
  5
E4
102
{ACAD_XDICTIONARY
360
1F0
102
}
102
{ACAD_REACTORS
330
78
102
}
330
78
100
AcDbMaterial
  1
ByBlock
 94
       63
  0
MATERIAL
  5
E3
102
{ACAD_XDICTIONARY
360
1EE
102
}
102
{ACAD_REACTORS
330
78
102
}
330
78
100
AcDbMaterial
  1
ByLayer
 94
       63
  0
MATERIAL
  5
E5
102
{ACAD_XDICTIONARY
360
16A
102
}
102
{ACAD_REACTORS
330
78
102
}
330
78
100
AcDbMaterial
  1
Global
 43
0.0007999999797903
 43
0.0
 43
0.0
 43
0.0
 43
0.0
 43
0.0007999999797903
 43
0.0
 43
0.0
 43
0.0
 43
0.0
 43
1.0
 43
0.0
 43
0.0
 43
0.0
 43
0.0
 43
1.0
 49
0.0007999999797903
 49
0.0
 49
0.0
 49
0.0
 49
0.0
 49
0.0007999999797903
 49
0.0
 49
0.0
 49
0.0
 49
0.0
 49
1.0
 49
0.0
 49
0.0
 49
0.0
 49
0.0
 49
1.0
142
0.0007999999797903
142
0.0
142
0.0
142
0.0
142
0.0
142
0.0007999999797903
142
0.0
142
0.0
142
0.0
142
0.0
142
1.0
142
0.0
142
0.0
142
0.0
142
0.0
142
1.0
144
0.0007999999797903
144
0.0
144
0.0
144
0.0
144
0.0
144
0.0007999999797903
144
0.0
144
0.0
144
0.0
144
0.0
144
1.0
144
0.0
144
0.0
144
0.0
144
0.0
144
1.0
 94
       63
1001
ACAD
1070
    -1
1070
     3
1070
     0
1000

1071
        0
1070
     0
  0
MLEADERSTYLE
  5
132
102
{ACAD_REACTORS
330
124
102
}
330
124
100
AcDbMLeaderStyle
179
     2
170
     2
171
     1
172
     0
 90
        2
 40
0.0
 41
0.0
173
     1
 91
-1056964608
340
14
 92
       -2
290
     1
 42
2.0
291
     1
 43
8.0
  3
Standard
 44
4.0
300

342
11
174
     1
178
     1
175
     1
176
     0
 93
-1056964608
 45
4.0
292
     0
297
     0
 46
4.0
 94
-1056964608
 47
1.0
 49
1.0
140
1.0
293
     1
141
0.0
294
     1
177
     0
142
1.0
295
     0
296
     1
143
3.75
271
     0
272
     9
273
     9
298
     0
  0
MLEADERSTYLE
  5
125
102
{ACAD_REACTORS
330
124
102
}
330
124
100
AcDbMLeaderStyle
179
     2
170
     2
171
     1
172
     0
 90
        2
 40
0.0
 41
0.0
173
     1
 91
-1056964608
340
14
 92
       -2
290
     1
 42
2.0
291
     1
 43
8.0
  3
Standard
 44
4.0
300

342
11
174
     1
178
     1
175
     1
176
     0
 93
-1056964608
 45
4.0
292
     0
297
     0
 46
4.0
 94
-1056964608
 47
1.0
 49
1.0
140
1.0
293
     1
141
0.0
294
     1
177
     0
142
1.0
295
     0
296
     0
143
3.75
271
     0
272
     9
273
     9
298
     0
  0
MLINESTYLE
  5
18
102
{ACAD_REACTORS
330
17
102
}
330
17
100
AcDbMlineStyle
  2
STANDARD
 70
     0
  3

 62
   256
 51
90.0
 52
90.0
 71
     2
 49
0.5
 62
   256
  6
BYLAYER
 49
-0.5
 62
   256
  6
BYLAYER
  0
ACDBPLACEHOLDER
  5
F
102
{ACAD_REACTORS
330
E
102
}
330
E
  0
SCALE
  5
104
102
{ACAD_REACTORS
330
103
102
}
330
103
100
AcDbScale
 70
     0
300
1:1
140
1.0
141
1.0
290
     1
  0
SCALE
  5
1B5
102
{ACAD_REACTORS
330
103
102
}
330
103
100
AcDbScale
 70
     0
300
1:2
140
1.0
141
2.0
290
     0
  0
SCALE
  5
1B6
102
{ACAD_REACTORS
330
103
102
}
330
103
100
AcDbScale
 70
     0
300
1:4
140
1.0
141
4.0
290
     0
  0
SCALE
  5
1B7
102
{ACAD_REACTORS
330
103
102
}
330
103
100
AcDbScale
 70
     0
300
1:5
140
1.0
141
5.0
290
     0
  0
SCALE
  5
1B8
102
{ACAD_REACTORS
330
103
102
}
330
103
100
AcDbScale
 70
     0
300
1:8
140
1.0
141
8.0
290
     0
  0
SCALE
  5
1B9
102
{ACAD_REACTORS
330
103
102
}
330
103
100
AcDbScale
 70
     0
300
1:10
140
1.0
141
10.0
290
     0
  0
SCALE
  5
1BA
102
{ACAD_REACTORS
330
103
102
}
330
103
100
AcDbScale
 70
     0
300
1:16
140
1.0
141
16.0
290
     0
  0
SCALE
  5
1BB
102
{ACAD_REACTORS
330
103
102
}
330
103
100
AcDbScale
 70
     0
300
1:20
140
1.0
141
20.0
290
     0
  0
SCALE
  5
1BC
102
{ACAD_REACTORS
330
103
102
}
330
103
100
AcDbScale
 70
     0
300
1:30
140
1.0
141
30.0
290
     0
  0
SCALE
  5
1BD
102
{ACAD_REACTORS
330
103
102
}
330
103
100
AcDbScale
 70
     0
300
1:40
140
1.0
141
40.0
290
     0
  0
SCALE
  5
1BE
102
{ACAD_REACTORS
330
103
102
}
330
103
100
AcDbScale
 70
     0
300
1:50
140
1.0
141
50.0
290
     0
  0
SCALE
  5
1BF
102
{ACAD_REACTORS
330
103
102
}
330
103
100
AcDbScale
 70
     0
300
1:100
140
1.0
141
100.0
290
     0
  0
SCALE
  5
1C0
102
{ACAD_REACTORS
330
103
102
}
330
103
100
AcDbScale
 70
     0
300
2:1
140
2.0
141
1.0
290
     0
  0
SCALE
  5
1C1
102
{ACAD_REACTORS
330
103
102
}
330
103
100
AcDbScale
 70
     0
300
4:1
140
4.0
141
1.0
290
     0
  0
SCALE
  5
1C2
102
{ACAD_REACTORS
330
103
102
}
330
103
100
AcDbScale
 70
     0
300
8:1
140
8.0
141
1.0
290
     0
  0
SCALE
  5
1C3
102
{ACAD_REACTORS
330
103
102
}
330
103
100
AcDbScale
 70
     0
300
10:1
140
10.0
141
1.0
290
     0
  0
SCALE
  5
1C4
102
{ACAD_REACTORS
330
103
102
}
330
103
100
AcDbScale
 70
     0
300
100:1
140
100.0
141
1.0
290
     0
  0
ACDBSECTIONVIEWSTYLE
  5
211
102
{ACAD_XDICTIONARY
360
22B
102
}
102
{ACAD_REACTORS
330
210
102
}
330
210
100
AcDbModelDocViewStyle
 70
     0
  3
Metric50
290
     0
100
AcDbSectionViewStyle
 70
     0
 71
     0
 90
      102
 71
     1
340
11
 62
   256
 40
5.0
340
0
340
0
 62
   256
 40
5.0
300
I, O, Q, S, X, Z
 40
10.0
 90
        0
 40
2.5
 90
        0
 71
     2
340
16
 90
       25
 62
   256
340
16
 90
       50
 62
   256
 40
5.0
 40
2.5
 40
5.0
 71
     3
340
11
 62
   256
 40
5.0
 90
        0
 40
15.0
 90
        1
300
%<\AcVar ViewSectionStartId>%-%<\AcVar ViewSectionEndId>% (%<\AcVar ViewScale \f "%sn">%)
 71
     4
 62
   256
 62
   257
300
ANSI31
 40
1.0
 90
        0
290
     0
290
     0
 90
        6
 40
0.0
 40
1.570796326794896
 40
0.2617993877991494
 40
1.308996938995747
 40
-0.2617993877991494
 40
1.832595714594046
  0
TABLESTYLE
  5
98
102
{ACAD_XDICTIONARY
360
159
102
}
102
{ACAD_REACTORS
330
97
102
}
330
97
100
AcDbTableStyle
280
     0
  3
Standard
 70
     0
 71
     0
 40
1.5
 41
1.5
280
     0
281
     0
  7
Standard
140
4.5
170
     2
 62
     0
 63
     7
283
     0
 90
      512
 91
        0
  1

274
    -2
284
     1
 64
     0
275
    -2
285
     1
 65
     0
276
    -2
286
     1
 66
     0
277
    -2
287
     1
 67
     0
278
    -2
288
     1
 68
     0
279
    -2
289
     1
 69
     0
  7
Standard
140
6.0
170
     5
 62
     0
 63
     7
283
     0
 90
      512
 91
        0
  1

274
    -2
284
     1
 64
     0
275
    -2
285
     1
 65
     0
276
    -2
286
     1
 66
     0
277
    -2
287
     1
 67
     0
278
    -2
288
     1
 68
     0
279
    -2
289
     1
 69
     0
  7
Standard
140
4.5
170
     5
 62
     0
 63
     7
283
     0
 90
      512
 91
        0
  1

274
    -2
284
     1
 64
     0
275
    -2
285
     1
 65
     0
276
    -2
286
     1
 66
     0
277
    -2
287
     1
 67
     0
278
    -2
288
     1
 68
     0
279
    -2
289
     1
 69
     0
  0
VISUALSTYLE
  5
EC
102
{ACAD_REACTORS
330
E6
102
}
330
E6
100
AcDbVisualStyle
  2
2dWireframe
 70
     4
177
     3
291
     0
 70
    58
 90
        0
176
     1
 90
        2
176
     1
 90
        1
176
     1
 90
        0
176
     1
 40
0.6
176
     1
 40
30.0
176
     1
 62
     7
420
 16777215
176
     1
 90
        1
176
     1
 90
        4
176
     1
 62
     7
176
     1
 62
   257
176
     1
 90
        1
176
     1
 90
        1
176
     1
 40
1.0
176
     1
 90
        0
176
     1
 62
   257
176
     1
 40
1.0
176
     1
 90
        1
176
     1
 90
        6
176
     1
 90
        2
176
     1
 62
     7
176
     1
 90
        5
176
     1
 90
        0
176
     1
 90
        0
176
     1
290
     0
176
     1
 90
        1
176
     1
 40
0.0
176
     1
 90
        0
176
     1
290
     1
176
     1
290
     1
176
     1
290
     0
176
     1
290
     0
176
     1
290
     0
176
     1
290
     0
176
     1
290
     0
176
     1
290
     0
176
     1
290
     0
176
     1
 90
       50
176
     1
 40
0.0
176
     1
 40
1.0
176
     1
 90
        0
176
     1
 62
    18
420
        0
176
     1
 90
       50
176
     1
 90
        3
176
     1
 62
     5
420
      255
176
     1
290
     0
176
     1
 90
       50
176
     1
 90
       50
176
     1
 90
       50
176
     1
290
     0
176
     1
 90
       50
176
     1
 62
   256
176
     0
 40
1.0
176
     0
 90
        2
176
     1
  1
strokes_ogs.tif
176
     1
290
     0
176
     1
 40
1.0
176
     1
 40
1.0
176
     1
  0
VISUALSTYLE
  5
EB
102
{ACAD_REACTORS
330
E6
102
}
330
E6
100
AcDbVisualStyle
  2
Basic
 70
     7
177
     3
291
     1
 70
    58
 90
        1
176
     1
 90
        0
176
     1
 90
        1
176
     1
 90
        0
176
     1
 40
0.6
176
     1
 40
30.0
176
     1
 62
     7
420
 16777215
176
     1
 90
        0
176
     1
 90
        4
176
     1
 62
     7
176
     1
 62
   257
176
     1
 90
        1
176
     1
 90
        1
176
     1
 40
1.0
176
     1
 90
        8
176
     1
 62
     7
176
     1
 40
1.0
176
     1
 90
        1
176
     1
 90
        6
176
     1
 90
        2
176
     1
 62
     7
176
     1
 90
        5
176
     1
 90
        0
176
     1
 90
        0
176
     1
290
     0
176
     1
 90
        1
176
     1
 40
0.0
176
     1
 90
        0
176
     1
290
     0
176
     1
290
     1
176
     1
290
     1
176
     1
290
     0
176
     1
290
     0
176
     1
290
     0
176
     1
290
     0
176
     1
290
     0
176
     1
290
     0
176
     1
 90
       50
176
     1
 40
0.0
176
     1
 40
1.0
176
     1
 90
        0
176
     1
 62
    18
420
        0
176
     1
 90
       50
176
     1
 90
        3
176
     1
 62
     5
420
      255
176
     1
290
     0
176
     1
 90
       50
176
     1
 90
       50
176
     1
 90
       50
176
     1
290
     0
176
     1
 90
       50
176
     1
 62
   256
176
     0
 40
1.0
176
     0
 90
        2
176
     1
  1
strokes_ogs.tif
176
     1
290
     0
176
     1
 40
1.0
176
     1
 40
1.0
176
     1
  0
VISUALSTYLE
  5
F2
102
{ACAD_REACTORS
330
E6
102
}
330
E6
100
AcDbVisualStyle
  2
Brighten
 70
    12
177
     3
291
     1
 70
    58
 90
        2
176
     1
 90
        2
176
     1
 90
        1
176
     1
 90
        0
176
     1
 40
0.6
176
     1
 40
30.0
176
     1
 62
     7
420
 16777215
176
     1
 90
        1
176
     1
 90
        4
176
     1
 62
     7
176
     1
 62
   257
176
     1
 90
        1
176
     1
 90
        1
176
     1
 40
1.0
176
     1
 90
        8
176
     1
 62
     7
176
     1
 40
1.0
176
     1
 90
        1
176
     1
 90
        6
176
     1
 90
        2
176
     1
 62
     7
176
     1
 90
        5
176
     1
 90
        0
176
     1
 90
        0
176
     1
290
     0
176
     1
 90
        1
176
     1
 40
50.0
176
     1
 90
        0
176
     1
290
     0
176
     1
290
     1
176
     1
290
     1
176
     1
290
     0
176
     1
290
     0
176
     1
290
     0
176
     1
290
     0
176
     1
290
     0
176
     1
290
     0
176
     1
 90
       50
176
     1
 40
0.0
176
     1
 40
1.0
176
     1
 90
        0
176
     1
 62
    18
420
        0
176
     1
 90
       50
176
     1
 90
        3
176
     1
 62
     5
420
      255
176
     1
290
     0
176
     1
 90
       50
176
     1
 90
       50
176
     1
 90
       50
176
     1
290
     0
176
     1
 90
       50
176
     1
 62
   256
176
     0
 40
1.0
176
     0
 90
        2
176
     1
  1
strokes_ogs.tif
176
     1
290
     0
176
     1
 40
1.0
176
     1
 40
1.0
176
     1
  0
VISUALSTYLE
  5
F6
102
{ACAD_REACTORS
330
E6
102
}
330
E6
100
AcDbVisualStyle
  2
ColorChange
 70
    16
177
     3
291
     1
 70
    58
 90
        2
176
     1
 90
        2
176
     1
 90
        3
176
     1
 90
        0
176
     1
 40
0.6
176
     1
 40
30.0
176
     1
 62
     8
420
  8421504
176
     1
 90
        1
176
     1
 90
        4
176
     1
 62
     7
176
     1
 62
   257
176
     1
 90
        1
176
     1
 90
        1
176
     1
 40
1.0
176
     1
 90
        8
176
     1
 62
     8
420
  8421504
176
     1
 40
1.0
176
     1
 90
        1
176
     1
 90
        6
176
     1
 90
        2
176
     1
 62
     7
176
     1
 90
        5
176
     1
 90
        0
176
     1
 90
        0
176
     1
290
     0
176
     1
 90
        1
176
     1
 40
0.0
176
     1
 90
        0
176
     1
290
     0
176
     1
290
     1
176
     1
290
     1
176
     1
290
     0
176
     1
290
     0
176
     1
290
     0
176
     1
290
     0
176
     1
290
     0
176
     1
290
     0
176
     1
 90
       50
176
     1
 40
0.0
176
     1
 40
1.0
176
     1
 90
        0
176
     1
 62
    18
420
        0
176
     1
 90
       50
176
     1
 90
        3
176
     1
 62
     5
420
      255
176
     1
290
     0
176
     1
 90
       50
176
     1
 90
       50
176
     1
 90
       50
176
     1
290
     0
176
     1
 90
       50
176
     1
 62
   256
176
     0
 40
1.0
176
     0
 90
        2
176
     1
  1
strokes_ogs.tif
176
     1
290
     0
176
     1
 40
1.0
176
     1
 40
1.0
176
     1
  0
VISUALSTYLE
  5
EF
102
{ACAD_REACTORS
330
E6
102
}
330
E6
100
AcDbVisualStyle
  2
Conceptual
 70
     9
177
     3
291
     0
 70
    58
 90
        3
176
     1
 90
        2
176
     1
 90
        1
176
     1
 90
        0
176
     1
 40
0.6
176
     1
 40
30.0
176
     1
 62
     7
420
 16777215
176
     1
 90
        2
176
     1
 90
        2
176
     1
 62
     7
176
     1
 62
   257
176
     1
 90
        1
176
     1
 90
        1
176
     1
 40
40.0
176
     1
 90
        8
176
     1
 62
     7
176
     1
 40
1.0
176
     1
 90
        1
176
     1
 90
        6
176
     1
 90
        2
176
     1
 62
     7
176
     1
 90
        3
176
     1
 90
        0
176
     1
 90
        0
176
     1
290
     0
176
     1
 90
        1
176
     1
 40
0.0
176
     1
 90
        0
176
     1
290
     0
176
     1
290
     1
176
     1
290
     1
176
     1
290
     0
176
     1
290
     0
176
     1
290
     0
176
     1
290
     0
176
     1
290
     0
176
     1
290
     0
176
     1
 90
       50
176
     1
 40
0.0
176
     1
 40
1.0
176
     1
 90
        0
176
     1
 62
    18
420
        0
176
     1
 90
       50
176
     1
 90
        3
176
     1
 62
     5
420
      255
176
     1
290
     0
176
     1
 90
       50
176
     1
 90
       50
176
     1
 90
       50
176
     1
290
     0
176
     1
 90
       50
176
     1
 62
   256
176
     0
 40
1.0
176
     0
 90
        2
176
     1
  1
strokes_ogs.tif
176
     1
290
     0
176
     1
 40
1.0
176
     1
 40
1.0
176
     1
  0
VISUALSTYLE
  5
F1
102
{ACAD_REACTORS
330
E6
102
}
330
E6
100
AcDbVisualStyle
  2
Dim
 70
    11
177
     3
291
     1
 70
    58
 90
        2
176
     1
 90
        2
176
     1
 90
        1
176
     1
 90
        0
176
     1
 40
0.6
176
     1
 40
30.0
176
     1
 62
     7
420
 16777215
176
     1
 90
        1
176
     1
 90
        4
176
     1
 62
     7
176
     1
 62
   257
176
     1
 90
        1
176
     1
 90
        1
176
     1
 40
1.0
176
     1
 90
        8
176
     1
 62
     7
176
     1
 40
1.0
176
     1
 90
        1
176
     1
 90
        6
176
     1
 90
        2
176
     1
 62
     7
176
     1
 90
        5
176
     1
 90
        0
176
     1
 90
        0
176
     1
290
     0
176
     1
 90
        1
176
     1
 40
-50.0
176
     1
 90
        0
176
     1
290
     0
176
     1
290
     1
176
     1
290
     1
176
     1
290
     0
176
     1
290
     0
176
     1
290
     0
176
     1
290
     0
176
     1
290
     0
176
     1
290
     0
176
     1
 90
       50
176
     1
 40
0.0
176
     1
 40
1.0
176
     1
 90
        0
176
     1
 62
    18
420
        0
176
     1
 90
       50
176
     1
 90
        3
176
     1
 62
     5
420
      255
176
     1
290
     0
176
     1
 90
       50
176
     1
 90
       50
176
     1
 90
       50
176
     1
290
     0
176
     1
 90
       50
176
     1
 62
   256
176
     0
 40
1.0
176
     0
 90
        2
176
     1
  1
strokes_ogs.tif
176
     1
290
     0
176
     1
 40
1.0
176
     1
 40
1.0
176
     1
  0
VISUALSTYLE
  5
1DD
102
{ACAD_REACTORS
330
E6
102
}
330
E6
100
AcDbVisualStyle
  2
EdgeColorOff
 70
    22
177
     3
291
     1
 70
    58
 90
        2
176
     0
 90
        2
176
     0
 90
        0
176
     0
 90
        0
176
     0
 40
0.6
176
     0
 40
30.0
176
     0
 62
     7
420
 16777215
176
     0
 90
        1
176
     0
 90
        4
176
     0
 62
     7
176
     0
 62
   257
176
     0
 90
        1
176
     0
 90
        1
176
     0
 40
1.0
176
     0
 90
        8
176
     2
 62
     7
176
     0
 40
1.0
176
     0
 90
        1
176
     0
 90
        6
176
     0
 90
        2
176
     0
 62
     7
176
     0
 90
        5
176
     0
 90
        0
176
     0
 90
        0
176
     0
290
     0
176
     0
 90
        1
176
     0
 40
0.0
176
     0
 90
        0
176
     0
290
     0
176
     1
290
     1
176
     1
290
     1
176
     1
290
     0
176
     1
290
     0
176
     1
290
     0
176
     1
290
     0
176
     1
290
     0
176
     1
290
     0
176
     1
 90
       50
176
     1
 40
0.0
176
     1
 40
1.0
176
     1
 90
        0
176
     1
 62
    18
420
        0
176
     1
 90
       50
176
     1
 90
        3
176
     1
 62
     5
420
      255
176
     1
290
     0
176
     1
 90
       50
176
     1
 90
       50
176
     1
 90
       50
176
     1
290
     0
176
     1
 90
       50
176
     1
 62
   256
176
     0
 40
1.0
176
     0
 90
        2
176
     1
  1
strokes_ogs.tif
176
     1
290
     0
176
     1
 40
1.0
176
     1
 40
1.0
176
     1
  0
VISUALSTYLE
  5
F5
102
{ACAD_REACTORS
330
E6
102
}
330
E6
100
AcDbVisualStyle
  2
Facepattern
 70
    15
177
     3
291
     1
 70
    58
 90
        2
176
     1
 90
        2
176
     1
 90
        1
176
     1
 90
        0
176
     1
 40
0.6
176
     1
 40
30.0
176
     1
 62
     7
420
 16777215
176
     1
 90
        1
176
     1
 90
        4
176
     1
 62
     7
176
     1
 62
   257
176
     1
 90
        1
176
     1
 90
        1
176
     1
 40
1.0
176
     1
 90
        8
176
     1
 62
     7
176
     1
 40
1.0
176
     1
 90
        1
176
     1
 90
        6
176
     1
 90
        2
176
     1
 62
     7
176
     1
 90
        5
176
     1
 90
        0
176
     1
 90
        0
176
     1
290
     0
176
     1
 90
        1
176
     1
 40
0.0
176
     1
 90
        0
176
     1
290
     0
176
     1
290
     1
176
     1
290
     1
176
     1
290
     0
176
     1
290
     0
176
     1
290
     0
176
     1
290
     0
176
     1
290
     0
176
     1
290
     0
176
     1
 90
       50
176
     1
 40
0.0
176
     1
 40
1.0
176
     1
 90
        0
176
     1
 62
    18
420
        0
176
     1
 90
       50
176
     1
 90
        3
176
     1
 62
     5
420
      255
176
     1
290
     0
176
     1
 90
       50
176
     1
 90
       50
176
     1
 90
       50
176
     1
290
     0
176
     1
 90
       50
176
     1
 62
   256
176
     0
 40
1.0
176
     0
 90
        2
176
     1
  1
strokes_ogs.tif
176
     1
290
     0
176
     1
 40
1.0
176
     1
 40
1.0
176
     1
  0
VISUALSTYLE
  5
E7
102
{ACAD_REACTORS
330
E6
102
}
330
E6
100
AcDbVisualStyle
  2
Flat
 70
     0
177
     3
291
     1
 70
    58
 90
        2
176
     1
 90
        1
176
     1
 90
        1
176
     1
 90
        2
176
     1
 40
0.6
176
     1
 40
30.0
176
     1
 62
     7
420
 16777215
176
     1
 90
        0
176
     1
 90
        0
176
     1
 62
     7
176
     1
 62
   257
176
     1
 90
        1
176
     1
 90
        1
176
     1
 40
1.0
176
     1
 90
        8
176
     1
 62
     7
176
     1
 40
1.0
176
     1
 90
        1
176
     1
 90
        6
176
     1
 90
        2
176
     1
 62
     7
176
     1
 90
        5
176
     1
 90
        0
176
     1
 90
        0
176
     1
290
     0
176
     1
 90
       13
176
     1
 40
0.0
176
     1
 90
        0
176
     1
290
     0
176
     1
290
     1
176
     1
290
     1
176
     1
290
     0
176
     1
290
     0
176
     1
290
     0
176
     1
290
     0
176
     1
290
     0
176
     1
290
     0
176
     1
 90
       50
176
     1
 40
0.0
176
     1
 40
1.0
176
     1
 90
        0
176
     1
 62
    18
420
        0
176
     1
 90
       50
176
     1
 90
        3
176
     1
 62
     5
420
      255
176
     1
290
     0
176
     1
 90
       50
176
     1
 90
       50
176
     1
 90
       50
176
     1
290
     0
176
     1
 90
       50
176
     1
 62
   256
176
     0
 40
1.0
176
     0
 90
        2
176
     1
  1
strokes_ogs.tif
176
     1
290
     0
176
     1
 40
1.0
176
     1
 40
1.0
176
     1
  0
VISUALSTYLE
  5
E8
102
{ACAD_REACTORS
330
E6
102
}
330
E6
100
AcDbVisualStyle
  2
FlatWithEdges
 70
     1
177
     3
291
     1
 70
    58
 90
        2
176
     1
 90
        1
176
     1
 90
        1
176
     1
 90
        2
176
     1
 40
0.6
176
     1
 40
30.0
176
     1
 62
     7
420
 16777215
176
     1
 90
        1
176
     1
 90
        0
176
     1
 62
     7
176
     1
 62
   257
176
     1
 90
        1
176
     1
 90
        1
176
     1
 40
1.0
176
     1
 90
        0
176
     1
 62
   257
176
     1
 40
1.0
176
     1
 90
        1
176
     1
 90
        6
176
     1
 90
        2
176
     1
 62
     7
176
     1
 90
        5
176
     1
 90
        0
176
     1
 90
        0
176
     1
290
     0
176
     1
 90
       13
176
     1
 40
0.0
176
     1
 90
        0
176
     1
290
     0
176
     1
290
     1
176
     1
290
     1
176
     1
290
     0
176
     1
290
     0
176
     1
290
     0
176
     1
290
     0
176
     1
290
     0
176
     1
290
     0
176
     1
 90
       50
176
     1
 40
0.0
176
     1
 40
1.0
176
     1
 90
        0
176
     1
 62
    18
420
        0
176
     1
 90
       50
176
     1
 90
        3
176
     1
 62
     5
420
      255
176
     1
290
     0
176
     1
 90
       50
176
     1
 90
       50
176
     1
 90
       50
176
     1
290
     0
176
     1
 90
       50
176
     1
 62
   256
176
     0
 40
1.0
176
     0
 90
        2
176
     1
  1
strokes_ogs.tif
176
     1
290
     0
176
     1
 40
1.0
176
     1
 40
1.0
176
     1
  0
VISUALSTYLE
  5
E9
102
{ACAD_REACTORS
330
E6
102
}
330
E6
100
AcDbVisualStyle
  2
Gouraud
 70
     2
177
     3
291
     1
 70
    58
 90
        2
176
     1
 90
        2
176
     1
 90
        1
176
     1
 90
        2
176
     1
 40
0.6
176
     1
 40
30.0
176
     1
 62
     7
420
 16777215
176
     1
 90
        0
176
     1
 90
        0
176
     1
 62
     7
176
     1
 62
   257
176
     1
 90
        1
176
     1
 90
        1
176
     1
 40
1.0
176
     1
 90
        0
176
     1
 62
     7
176
     1
 40
1.0
176
     1
 90
        1
176
     1
 90
        6
176
     1
 90
        2
176
     1
 62
     7
176
     1
 90
        5
176
     1
 90
        0
176
     1
 90
        0
176
     1
290
     0
176
     1
 90
       13
176
     1
 40
0.0
176
     1
 90
        0
176
     1
290
     0
176
     1
290
     1
176
     1
290
     1
176
     1
290
     0
176
     1
290
     0
176
     1
290
     0
176
     1
290
     0
176
     1
290
     0
176
     1
290
     0
176
     1
 90
       50
176
     1
 40
0.0
176
     1
 40
1.0
176
     1
 90
        0
176
     1
 62
    18
420
        0
176
     1
 90
       50
176
     1
 90
        3
176
     1
 62
     5
420
      255
176
     1
290
     0
176
     1
 90
       50
176
     1
 90
       50
176
     1
 90
       50
176
     1
290
     0
176
     1
 90
       50
176
     1
 62
   256
176
     0
 40
1.0
176
     0
 90
        2
176
     1
  1
strokes_ogs.tif
176
     1
290
     0
176
     1
 40
1.0
176
     1
 40
1.0
176
     1
  0
VISUALSTYLE
  5
EA
102
{ACAD_REACTORS
330
E6
102
}
330
E6
100
AcDbVisualStyle
  2
GouraudWithEdges
 70
     3
177
     3
291
     1
 70
    58
 90
        2
176
     1
 90
        2
176
     1
 90
        1
176
     1
 90
        2
176
     1
 40
0.6
176
     1
 40
30.0
176
     1
 62
     7
420
 16777215
176
     1
 90
        1
176
     1
 90
        0
176
     1
 62
     7
176
     1
 62
   257
176
     1
 90
        1
176
     1
 90
        1
176
     1
 40
1.0
176
     1
 90
        0
176
     1
 62
   257
176
     1
 40
1.0
176
     1
 90
        1
176
     1
 90
        6
176
     1
 90
        2
176
     1
 62
     7
176
     1
 90
        5
176
     1
 90
        0
176
     1
 90
        0
176
     1
290
     0
176
     1
 90
       13
176
     1
 40
0.0
176
     1
 90
        0
176
     1
290
     0
176
     1
290
     1
176
     1
290
     1
176
     1
290
     0
176
     1
290
     0
176
     1
290
     0
176
     1
290
     0
176
     1
290
     0
176
     1
290
     0
176
     1
 90
       50
176
     1
 40
0.0
176
     1
 40
1.0
176
     1
 90
        0
176
     1
 62
    18
420
        0
176
     1
 90
       50
176
     1
 90
        3
176
     1
 62
     5
420
      255
176
     1
290
     0
176
     1
 90
       50
176
     1
 90
       50
176
     1
 90
       50
176
     1
290
     0
176
     1
 90
       50
176
     1
 62
   256
176
     0
 40
1.0
176
     0
 90
        2
176
     1
  1
strokes_ogs.tif
176
     1
290
     0
176
     1
 40
1.0
176
     1
 40
1.0
176
     1
  0
VISUALSTYLE
  5
EE
102
{ACAD_REACTORS
330
E6
102
}
330
E6
100
AcDbVisualStyle
  2
Hidden
 70
     6
177
     3
291
     0
 70
    58
 90
        1
176
     1
 90
        2
176
     1
 90
        2
176
     1
 90
        0
176
     1
 40
0.6
176
     1
 40
30.0
176
     1
 62
     7
420
 16777215
176
     1
 90
        2
176
     1
 90
        2
176
     1
 62
     7
176
     1
 62
   257
176
     1
 90
        2
176
     1
 90
        1
176
     1
 40
40.0
176
     1
 90
        0
176
     1
 62
   257
176
     1
 40
1.0
176
     1
 90
        1
176
     1
 90
        6
176
     1
 90
        2
176
     1
 62
     7
176
     1
 90
        3
176
     1
 90
        0
176
     1
 90
        0
176
     1
290
     0
176
     1
 90
        1
176
     1
 40
0.0
176
     1
 90
        0
176
     1
290
     0
176
     1
290
     1
176
     1
290
     1
176
     1
290
     0
176
     1
290
     0
176
     1
290
     0
176
     1
290
     0
176
     1
290
     0
176
     1
290
     0
176
     1
 90
       50
176
     1
 40
0.0
176
     1
 40
1.0
176
     1
 90
        0
176
     1
 62
    18
420
        0
176
     1
 90
       50
176
     1
 90
        3
176
     1
 62
     5
420
      255
176
     1
290
     0
176
     1
 90
       50
176
     1
 90
       50
176
     1
 90
       50
176
     1
290
     0
176
     1
 90
       50
176
     1
 62
   256
176
     0
 40
1.0
176
     0
 90
        2
176
     1
  1
strokes_ogs.tif
176
     1
290
     0
176
     1
 40
1.0
176
     1
 40
1.0
176
     1
  0
VISUALSTYLE
  5
1DB
102
{ACAD_REACTORS
330
E6
102
}
330
E6
100
AcDbVisualStyle
  2
JitterOff
 70
    20
177
     3
291
     1
 70
    58
 90
        2
176
     0
 90
        2
176
     0
 90
        0
176
     0
 90
        0
176
     0
 40
0.6
176
     0
 40
30.0
176
     0
 62
     7
420
 16777215
176
     0
 90
        1
176
     0
 90
        4
176
     0
 62
     7
176
     0
 62
   257
176
     0
 90
        1
176
     0
 90
        1
176
     0
 40
1.0
176
     0
 90
       10
176
     2
 62
     7
176
     0
 40
1.0
176
     0
 90
        1
176
     0
 90
        6
176
     0
 90
        2
176
     0
 62
     7
176
     0
 90
        5
176
     0
 90
        0
176
     0
 90
        0
176
     0
290
     0
176
     0
 90
        1
176
     0
 40
0.0
176
     0
 90
        0
176
     0
290
     0
176
     1
290
     1
176
     1
290
     1
176
     1
290
     0
176
     1
290
     0
176
     1
290
     0
176
     1
290
     0
176
     1
290
     0
176
     1
290
     0
176
     1
 90
       50
176
     1
 40
0.0
176
     1
 40
1.0
176
     1
 90
        0
176
     1
 62
    18
420
        0
176
     1
 90
       50
176
     1
 90
        3
176
     1
 62
     5
420
      255
176
     1
290
     0
176
     1
 90
       50
176
     1
 90
       50
176
     1
 90
       50
176
     1
290
     0
176
     1
 90
       50
176
     1
 62
   256
176
     0
 40
1.0
176
     0
 90
        2
176
     1
  1
strokes_ogs.tif
176
     1
290
     0
176
     1
 40
1.0
176
     1
 40
1.0
176
     1
  0
VISUALSTYLE
  5
F4
102
{ACAD_REACTORS
330
E6
102
}
330
E6
100
AcDbVisualStyle
  2
Linepattern
 70
    14
177
     3
291
     1
 70
    58
 90
        2
176
     1
 90
        2
176
     1
 90
        1
176
     1
 90
        0
176
     1
 40
0.6
176
     1
 40
30.0
176
     1
 62
     7
420
 16777215
176
     1
 90
        1
176
     1
 90
        4
176
     1
 62
     7
176
     1
 62
   257
176
     1
 90
        7
176
     1
 90
        7
176
     1
 40
1.0
176
     1
 90
        8
176
     1
 62
     7
176
     1
 40
1.0
176
     1
 90
        1
176
     1
 90
        6
176
     1
 90
        2
176
     1
 62
     7
176
     1
 90
        5
176
     1
 90
        0
176
     1
 90
        0
176
     1
290
     0
176
     1
 90
        1
176
     1
 40
0.0
176
     1
 90
        0
176
     1
290
     0
176
     1
290
     1
176
     1
290
     1
176
     1
290
     0
176
     1
290
     0
176
     1
290
     0
176
     1
290
     0
176
     1
290
     0
176
     1
290
     0
176
     1
 90
       50
176
     1
 40
0.0
176
     1
 40
1.0
176
     1
 90
        0
176
     1
 62
    18
420
        0
176
     1
 90
       50
176
     1
 90
        3
176
     1
 62
     5
420
      255
176
     1
290
     0
176
     1
 90
       50
176
     1
 90
       50
176
     1
 90
       50
176
     1
290
     0
176
     1
 90
       50
176
     1
 62
   256
176
     0
 40
1.0
176
     0
 90
        2
176
     1
  1
strokes_ogs.tif
176
     1
290
     0
176
     1
 40
1.0
176
     1
 40
1.0
176
     1
  0
VISUALSTYLE
  5
1DC
102
{ACAD_REACTORS
330
E6
102
}
330
E6
100
AcDbVisualStyle
  2
OverhangOff
 70
    21
177
     3
291
     1
 70
    58
 90
        2
176
     0
 90
        2
176
     0
 90
        0
176
     0
 90
        0
176
     0
 40
0.6
176
     0
 40
30.0
176
     0
 62
     7
420
 16777215
176
     0
 90
        1
176
     0
 90
        4
176
     0
 62
     7
176
     0
 62
   257
176
     0
 90
        1
176
     0
 90
        1
176
     0
 40
1.0
176
     0
 90
        9
176
     2
 62
     7
176
     0
 40
1.0
176
     0
 90
        1
176
     0
 90
        6
176
     0
 90
        2
176
     0
 62
     7
176
     0
 90
        5
176
     0
 90
        0
176
     0
 90
        0
176
     0
290
     0
176
     0
 90
        1
176
     0
 40
0.0
176
     0
 90
        0
176
     0
290
     0
176
     1
290
     1
176
     1
290
     1
176
     1
290
     0
176
     1
290
     0
176
     1
290
     0
176
     1
290
     0
176
     1
290
     0
176
     1
290
     0
176
     1
 90
       50
176
     1
 40
0.0
176
     1
 40
1.0
176
     1
 90
        0
176
     1
 62
    18
420
        0
176
     1
 90
       50
176
     1
 90
        3
176
     1
 62
     5
420
      255
176
     1
290
     0
176
     1
 90
       50
176
     1
 90
       50
176
     1
 90
       50
176
     1
290
     0
176
     1
 90
       50
176
     1
 62
   256
176
     0
 40
1.0
176
     0
 90
        2
176
     1
  1
strokes_ogs.tif
176
     1
290
     0
176
     1
 40
1.0
176
     1
 40
1.0
176
     1
  0
VISUALSTYLE
  5
F0
102
{ACAD_REACTORS
330
E6
102
}
330
E6
100
AcDbVisualStyle
  2
Realistic
 70
     8
177
     3
291
     0
 70
    58
 90
        2
176
     1
 90
        3
176
     1
 90
        0
176
     1
 90
        2
176
     1
 40
0.6
176
     1
 40
30.0
176
     1
 62
     7
420
 16777215
176
     1
 90
        0
176
     1
 90
        0
176
     1
 62
     7
176
     1
 62
   257
176
     1
 90
        1
176
     1
 90
        1
176
     1
 40
1.0
176
     1
 90
        8
176
     1
 62
   257
176
     1
 40
1.0
176
     1
 90
        1
176
     1
 90
        6
176
     1
 90
        2
176
     1
 62
     7
176
     1
 90
        3
176
     1
 90
        0
176
     1
 90
        0
176
     1
290
     0
176
     1
 90
       13
176
     1
 40
0.0
176
     1
 90
        0
176
     1
290
     0
176
     1
290
     1
176
     1
290
     1
176
     1
290
     0
176
     1
290
     0
176
     1
290
     0
176
     1
290
     0
176
     1
290
     0
176
     1
290
     0
176
     1
 90
       50
176
     1
 40
0.0
176
     1
 40
1.0
176
     1
 90
        0
176
     1
 62
    18
420
        0
176
     1
 90
       50
176
     1
 90
        3
176
     1
 62
     5
420
      255
176
     1
290
     0
176
     1
 90
       50
176
     1
 90
       50
176
     1
 90
       50
176
     1
290
     0
176
     1
 90
       50
176
     1
 62
   256
176
     0
 40
1.0
176
     0
 90
        2
176
     1
  1
strokes_ogs.tif
176
     1
290
     0
176
     1
 40
1.0
176
     1
 40
1.0
176
     1
  0
VISUALSTYLE
  5
1EA
102
{ACAD_REACTORS
330
E6
102
}
330
E6
100
AcDbVisualStyle
  2
Shaded
 70
    27
177
     3
291
     0
 70
    58
 90
        2
176
     1
 90
        2
176
     1
 90
        1
176
     1
 90
        2
176
     1
 40
0.6
176
     1
 40
30.0
176
     1
 62
     7
420
 16777215
176
     1
 90
        0
176
     1
 90
        4
176
     1
 62
     7
176
     1
 62
   257
176
     1
 90
        1
176
     1
 90
        1
176
     1
 40
1.0
176
     1
 90
        8
176
     1
 62
   257
176
     1
 40
1.0
176
     1
 90
        1
176
     1
 90
        6
176
     1
 90
        2
176
     1
 62
     8
420
  7895160
176
     1
 90
        3
176
     1
 90
        0
176
     1
 90
        0
176
     1
290
     0
176
     1
 90
        5
176
     1
 40
0.0
176
     1
 90
        0
176
     1
290
     0
176
     1
290
     1
176
     1
290
     1
176
     1
290
     0
176
     1
290
     0
176
     1
290
     0
176
     1
290
     0
176
     1
290
     0
176
     1
290
     0
176
     1
 90
       50
176
     1
 40
0.0
176
     1
 40
1.0
176
     1
 90
        0
176
     1
 62
    18
420
        0
176
     1
 90
       50
176
     1
 90
        3
176
     1
 62
     5
420
      255
176
     1
290
     0
176
     1
 90
       50
176
     1
 90
       50
176
     1
 90
       50
176
     1
290
     0
176
     1
 90
       50
176
     1
 62
   256
176
     0
 40
1.0
176
     0
 90
        2
176
     1
  1
strokes_ogs.tif
176
     1
290
     0
176
     1
 40
1.0
176
     1
 40
1.0
176
     1
  0
VISUALSTYLE
  5
1E9
102
{ACAD_REACTORS
330
E6
102
}
330
E6
100
AcDbVisualStyle
  2
Shaded with edges
 70
    26
177
     3
291
     0
 70
    58
 90
        2
176
     1
 90
        2
176
     1
 90
        1
176
     1
 90
        2
176
     1
 40
0.6
176
     1
 40
30.0
176
     1
 62
     7
420
 16777215
176
     1
 90
        1
176
     1
 90
       10
176
     1
 62
     7
176
     1
 62
   257
176
     1
 90
        2
176
     1
 90
        1
176
     1
 40
1.0
176
     1
 90
        8
176
     1
 62
   257
176
     1
 40
1.0
176
     1
 90
        1
176
     1
 90
        6
176
     1
 90
        2
176
     1
 62
     7
176
     1
 90
        3
176
     1
 90
        0
176
     1
 90
        0
176
     1
290
     0
176
     1
 90
        5
176
     1
 40
0.0
176
     1
 90
        0
176
     1
290
     0
176
     1
290
     1
176
     1
290
     1
176
     1
290
     0
176
     1
290
     0
176
     1
290
     0
176
     1
290
     0
176
     1
290
     0
176
     1
290
     0
176
     1
 90
       50
176
     1
 40
0.0
176
     1
 40
1.0
176
     1
 90
        0
176
     1
 62
    18
420
        0
176
     1
 90
       50
176
     1
 90
        3
176
     1
 62
     5
420
      255
176
     1
290
     0
176
     1
 90
       50
176
     1
 90
       50
176
     1
 90
       50
176
     1
290
     0
176
     1
 90
       50
176
     1
 62
   256
176
     0
 40
1.0
176
     0
 90
        2
176
     1
  1
strokes_ogs.tif
176
     1
290
     0
176
     1
 40
1.0
176
     1
 40
1.0
176
     1
  0
VISUALSTYLE
  5
1E6
102
{ACAD_REACTORS
330
E6
102
}
330
E6
100
AcDbVisualStyle
  2
Shades of Gray
 70
    23
177
     3
291
     0
 70
    58
 90
        2
176
     1
 90
        2
176
     1
 90
        3
176
     1
 90
        0
176
     1
 40
0.6
176
     1
 40
30.0
176
     1
 62
     7
420
 16777215
176
     1
 90
        2
176
     1
 90
        2
176
     1
 62
     7
176
     1
 62
     7
176
     1
 90
        1
176
     1
 90
        1
176
     1
 40
40.0
176
     1
 90
        8
176
     1
 62
     7
176
     1
 40
1.0
176
     1
 90
        1
176
     1
 90
        6
176
     1
 90
        2
176
     1
 62
     7
176
     1
 90
        3
176
     1
 90
        0
176
     1
 90
        0
176
     1
290
     0
176
     1
 90
        1
176
     1
 40
0.0
176
     1
 90
        0
176
     1
290
     0
176
     1
290
     1
176
     1
290
     1
176
     1
290
     0
176
     1
290
     0
176
     1
290
     0
176
     1
290
     0
176
     1
290
     0
176
     1
290
     0
176
     1
 90
       50
176
     1
 40
0.0
176
     1
 40
1.0
176
     1
 90
        0
176
     1
 62
    18
420
        0
176
     1
 90
       50
176
     1
 90
        3
176
     1
 62
     5
420
      255
176
     1
290
     0
176
     1
 90
       50
176
     1
 90
       50
176
     1
 90
       50
176
     1
290
     0
176
     1
 90
       50
176
     1
 62
   256
176
     0
 40
1.0
176
     0
 90
        2
176
     1
  1
strokes_ogs.tif
176
     1
290
     0
176
     1
 40
1.0
176
     1
 40
1.0
176
     1
  0
VISUALSTYLE
  5
1E7
102
{ACAD_REACTORS
330
E6
102
}
330
E6
100
AcDbVisualStyle
  2
Sketchy
 70
    24
177
     3
291
     0
 70
    58
 90
        1
176
     1
 90
        2
176
     1
 90
        2
176
     1
 90
        0
176
     1
 40
0.6
176
     1
 40
30.0
176
     1
 62
     7
420
 16777215
176
     1
 90
        2
176
     1
 90
        2
176
     1
 62
     7
176
     1
 62
     7
176
     1
 90
        1
176
     1
 90
        1
176
     1
 40
40.0
176
     1
 90
       11
176
     1
 62
     7
176
     1
 40
1.0
176
     1
 90
        1
176
     1
 90
        6
176
     1
 90
        2
176
     1
 62
     7
176
     1
 90
        6
176
     1
 90
        0
176
     1
 90
        0
176
     1
290
     0
176
     1
 90
        1
176
     1
 40
0.0
176
     1
 90
        0
176
     1
290
     0
176
     1
290
     1
176
     1
290
     1
176
     1
290
     0
176
     1
290
     0
176
     1
290
     0
176
     1
290
     0
176
     1
290
     0
176
     1
290
     0
176
     1
 90
       50
176
     1
 40
0.0
176
     1
 40
1.0
176
     1
 90
        0
176
     1
 62
    18
420
        0
176
     1
 90
       50
176
     1
 90
        3
176
     1
 62
     5
420
      255
176
     1
290
     0
176
     1
 90
       50
176
     1
 90
       50
176
     1
 90
       50
176
     1
290
     0
176
     1
 90
       50
176
     1
 62
   256
176
     0
 40
1.0
176
     0
 90
        2
176
     1
  1
strokes_ogs.tif
176
     1
290
     0
176
     1
 40
1.0
176
     1
 40
1.0
176
     1
  0
VISUALSTYLE
  5
F3
102
{ACAD_REACTORS
330
E6
102
}
330
E6
100
AcDbVisualStyle
  2
Thicken
 70
    13
177
     3
291
     1
 70
    58
 90
        2
176
     1
 90
        2
176
     1
 90
        1
176
     1
 90
        0
176
     1
 40
0.6
176
     1
 40
30.0
176
     1
 62
     7
420
 16777215
176
     1
 90
        1
176
     1
 90
        4
176
     1
 62
     7
176
     1
 62
   257
176
     1
 90
        1
176
     1
 90
        1
176
     1
 40
1.0
176
     1
 90
       12
176
     1
 62
     7
176
     1
 40
1.0
176
     1
 90
        1
176
     1
 90
        6
176
     1
 90
        2
176
     1
 62
     7
176
     1
 90
        5
176
     1
 90
        0
176
     1
 90
        0
176
     1
290
     0
176
     1
 90
        1
176
     1
 40
0.0
176
     1
 90
        0
176
     1
290
     0
176
     1
290
     1
176
     1
290
     1
176
     1
290
     0
176
     1
290
     0
176
     1
290
     0
176
     1
290
     0
176
     1
290
     0
176
     1
290
     0
176
     1
 90
       50
176
     1
 40
0.0
176
     1
 40
1.0
176
     1
 90
        0
176
     1
 62
    18
420
        0
176
     1
 90
       50
176
     1
 90
        3
176
     1
 62
     5
420
      255
176
     1
290
     0
176
     1
 90
       50
176
     1
 90
       50
176
     1
 90
       50
176
     1
290
     0
176
     1
 90
       50
176
     1
 62
   256
176
     0
 40
1.0
176
     0
 90
        2
176
     1
  1
strokes_ogs.tif
176
     1
290
     0
176
     1
 40
1.0
176
     1
 40
1.0
176
     1
  0
VISUALSTYLE
  5
ED
102
{ACAD_REACTORS
330
E6
102
}
330
E6
100
AcDbVisualStyle
  2
Wireframe
 70
     5
177
     3
291
     0
 70
    58
 90
        0
176
     1
 90
        2
176
     1
 90
        0
176
     1
 90
        0
176
     1
 40
0.6
176
     1
 40
30.0
176
     1
 62
     7
420
 16777215
176
     1
 90
        1
176
     1
 90
        4
176
     1
 62
     7
176
     1
 62
   257
176
     1
 90
        1
176
     1
 90
        1
176
     1
 40
1.0
176
     1
 90
        0
176
     1
 62
   257
176
     1
 40
1.0
176
     1
 90
        1
176
     1
 90
        6
176
     1
 90
        2
176
     1
 62
     7
176
     1
 90
        3
176
     1
 90
        0
176
     1
 90
        0
176
     1
290
     0
176
     1
 90
        1
176
     1
 40
0.0
176
     1
 90
        0
176
     1
290
     0
176
     1
290
     1
176
     1
290
     1
176
     1
290
     0
176
     1
290
     0
176
     1
290
     0
176
     1
290
     0
176
     1
290
     0
176
     1
290
     0
176
     1
 90
       50
176
     1
 40
0.0
176
     1
 40
1.0
176
     1
 90
        0
176
     1
 62
    18
420
        0
176
     1
 90
       50
176
     1
 90
        3
176
     1
 62
     5
420
      255
176
     1
290
     0
176
     1
 90
       50
176
     1
 90
       50
176
     1
 90
       50
176
     1
290
     0
176
     1
 90
       50
176
     1
 62
   256
176
     0
 40
1.0
176
     0
 90
        2
176
     1
  1
strokes_ogs.tif
176
     1
290
     0
176
     1
 40
1.0
176
     1
 40
1.0
176
     1
  0
VISUALSTYLE
  5
1E8
102
{ACAD_REACTORS
330
E6
102
}
330
E6
100
AcDbVisualStyle
  2
X-Ray
 70
    25
177
     3
291
     0
 70
    58
 90
        2
176
     1
 90
        2
176
     1
 90
        1
176
     1
 90
        1
176
     1
 40
0.5
176
     1
 40
30.0
176
     1
 62
     7
420
 16777215
176
     1
 90
        1
176
     1
 90
        0
176
     1
 62
     7
176
     1
 62
   257
176
     1
 90
        1
176
     1
 90
        1
176
     1
 40
1.0
176
     1
 90
        8
176
     1
 62
     7
176
     1
 40
1.0
176
     1
 90
        1
176
     1
 90
        6
176
     1
 90
        2
176
     1
 62
     7
176
     1
 90
        3
176
     1
 90
        0
176
     1
 90
        0
176
     1
290
     0
176
     1
 90
       13
176
     1
 40
0.0
176
     1
 90
        0
176
     1
290
     0
176
     1
290
     1
176
     1
290
     1
176
     1
290
     0
176
     1
290
     0
176
     1
290
     0
176
     1
290
     0
176
     1
290
     0
176
     1
290
     0
176
     1
 90
       50
176
     1
 40
0.0
176
     1
 40
1.0
176
     1
 90
        0
176
     1
 62
    18
420
        0
176
     1
 90
       50
176
     1
 90
        3
176
     1
 62
     5
420
      255
176
     1
290
     0
176
     1
 90
       50
176
     1
 90
       50
176
     1
 90
       50
176
     1
290
     0
176
     1
 90
       50
176
     1
 62
   256
176
     0
 40
1.0
176
     0
 90
        2
176
     1
  1
strokes_ogs.tif
176
     1
290
     0
176
     1
 40
1.0
176
     1
 40
1.0
176
     1
  0
DICTIONARYVAR
  5
13D
102
{ACAD_REACTORS
330
67
102
}
330
67
100
DictionaryVariables
280
     0
  1
1:1
  0
DICTIONARYVAR
  5
13C
102
{ACAD_REACTORS
330
67
102
}
330
67
100
DictionaryVariables
280
     0
  1
STANDARD
  0
DICTIONARYVAR
  5
C5
102
{ACAD_REACTORS
330
67
102
}
330
67
100
DictionaryVariables
280
     0
  1
STANDARD
  0
DICTIONARYVAR
  5
21E
102
{ACAD_REACTORS
330
67
102
}
330
67
100
DictionaryVariables
280
     0
  1
Metric50
  0
DICTIONARYVAR
  5
21F
102
{ACAD_REACTORS
330
67
102
}
330
67
100
DictionaryVariables
280
     0
  1
Metric50
  0
DICTIONARYVAR
  5
68
102
{ACAD_REACTORS
330
67
102
}
330
67
100
DictionaryVariables
280
     0
  1
2
  0
DICTIONARYVAR
  5
DA8
102
{ACAD_REACTORS
330
67
102
}
330
67
100
DictionaryVariables
280
     0
  1
2
  0
DICTIONARYVAR
  5
6C
102
{ACAD_REACTORS
330
67
102
}
330
67
100
DictionaryVariables
280
     0
  1
1
  0
DICTIONARYVAR
  5
1A5
102
{ACAD_REACTORS
330
67
102
}
330
67
100
DictionaryVariables
280
     0
  1
0
  0
DICTIONARYVAR
  5
1A6
102
{ACAD_REACTORS
330
67
102
}
330
67
100
DictionaryVariables
280
     0
  1
0
  0
DICTIONARY
  5
22D
330
213
100
AcDbDictionary
280
     1
281
     1
  3
ACAD_XREC_ROUNDTRIP
360
2473
  0
DICTIONARY
  5
1FC
330
22
100
AcDbDictionary
280
     1
281
     1
  3
AcPublish_PlotSettingsOverride
360
DA7
  0
DICTIONARY
  5
1F0
330
E4
100
AcDbDictionary
280
     1
281
     1
  3
FBXASSET
360
1F1
  0
DICTIONARY
  5
1EE
330
E3
100
AcDbDictionary
280
     1
281
     1
  3
FBXASSET
360
1EF
  0
DICTIONARY
  5
16A
330
E5
100
AcDbDictionary
280
     1
281
     1
  3
BUMPTILE
360
16C
  3
DIFFUSETILE
360
16B
  3
FBXASSET
360
1F2
  3
OPACITYTILE
360
16D
  3
REFLECTIONTILE
360
16E
  0
DICTIONARY
  5
22B
330
211
100
AcDbDictionary
280
     1
281
     1
  3
ACAD_XREC_ROUNDTRIP
360
2472
  0
DICTIONARY
  5
159
330
98
100
AcDbDictionary
280
     1
281
     1
  3
ACAD_ROUNDTRIP_2008_TABLESTYLE_CELLSTYLEMAP
360
2471
  0
XRECORD
  5
2473
102
{ACAD_REACTORS
330
22D
102
}
330
22D
100
AcDbXrecord
280
     1
102
DISPLAYNAME
  1
Metric50
102
FLAGS
 90
        0
  0
PLOTSETTINGS
  5
DA7
102
{ACAD_REACTORS
330
1FC
102
}
330
1FC
100
AcDbPlotSettings
  1

  2
Kyocera TASKalfa 3050ci(J) KX
  4
ANSI_A_(8.50_x_11.00_Inches)
  6

 40
4.984749794006347
 41
5.111724853515625
 42
5.154083251953125
 43
4.9847412109375
 44
297.0106506347656
 45
419.9889831542968
 46
0.0
 47
0.0
 48
33316.24093491148
 49
28289.23237812787
140
34996.24093491148
141
29477.23237812787
142
1.0
143
1.0
 70
 11952
 72
     1
 73
     1
 74
     4
  7

 75
    16
147
1.0
 76
     0
 77
     2
 78
   300
148
-33316.24093491148
149
-28289.23237812787
1001
ACAD_PSEXT
1000
Kyocera TASKalfa 3050ci(J) KX
1000
Kyocera TASKalfa 3050ci(J) KX
1000
192.168.11.123
1000

1070
     0
  0
XRECORD
  5
1F1
102
{ACAD_REACTORS
330
1F0
102
}
330
1F0
100
AcDbXrecord
280
     1
 70
     1
 90
429727718
  1
F226E010-5D7B-4EF0-9E0F-00A2E58668EA
310
504B03040A0000080000C270623B3DEE336E79000000790000001B0000006175746F6465736B2D64657369676E2D7061636B6167652E786D6C3C3F786D6C2076657273696F6E3D22312E302220656E636F64696E673D227574662D3822203F3E3C666F726D6174733E3C666F726D61743E687474703A2F2F736368656D612E
310
6175746F6465736B2E636F6D2F64657369676E2D7061636B6167652F323030393C2F666F726D61743E3C2F666F726D6174733E504B0304140006080800C270623BD486FD9CA0000000F4000000130000005B436F6E74656E745F54797065735D2E786D6C7D8EC10E82300C865F65E91D8A1E8C310C0EEA1BF002731658846E
310
D98AC1B77784ABF1D8FE5FBFBF75BBCE937A534CCEB38643598122B6FEE978D0B0485F9C41B54DDD7D022595594E1A469170414C76A4D9A4D207E29CF43ECE46F218070CC6BECC4078ACAA135ACF422C856C0E68EA1BF5669944DDD7BCDE7B1F8E415D77AECB980613C2E4AC91FC167A2B244592486606FC29C8FD7F045B9A
310
EF7053A7E60B504B0304140006080800C270623B132FA9F8EA0000007C01000008000000636F72652E786D6C8D90DD6EC3200C855F05F976223169D2D18850ADDDF6047B010434436D200A30EDF147FA236D77BBB2757C3EDB3A62FF3D5DC8975DA20B7E00562110EB7530CE8F03E474A21CC85E8A2584F4CB06C4ABC90EB0
310
CA20C5B8843CDF251D7CB23E15D50763EFA28AD12620FA529A01A2FEB493AA544EC511CFD5ACF4598DB6628FAEC0393B436E479C29FBDCC9D905E486BFBF1D5ED8336D78D7D2961F90F2233FD2572C8316D9B6EB1A51AFB014C94D8FFB7AB12A5903B241DC51C628361FACED71DB63FB84BC4714F56AFF03E5D9FC13CACEA7
310
4D737FF7864590AC3C721D4851AF5994720DAAD43537F903504B0304140006080800C270623B55019EA25F0000007C00000007000000636E782E786D6C4DCB3B0E80201045D1AD90E915ED2CF8AC45050C11660C8261F98AB1B07AC9C97D42D718D865D3E909258CFD00CCE24AC6E326A164D74DC0B4128928FF326038472B
310
A13128B1252AC747C6BAB984FC68F0B87FE8960A5C09FE86CFB69FBA01504B0304140006080800C270623B0B97CEAB6F010000D40300000C0000006662782F636F72652E786D6CC553ED6E8320147D15C2DF05416B3BD720CDDA6D4FB017A04A1DA98241307DFC5D3F9AAE4BB774BFE60F25E7DCCB3DE7207C736A6AD42BD7
310
696B721C470C23650A5B6A53E538F803C930DA08EEACF55FCA3032B251391E602C78E56C6867A8B0C62BE30135B6543328BB4E798C8A1A1639EE8A0FD5C848060F15DD316A657194958AE20868A813BCF30E04A069C8F0C6E2B03F713AE18287A0CB99D5254CD307AD1C168BECED75FB1C3F92245BA624CDB68C64BB6C475E
310
1810298B57CB65C2E9D02CB8D7CD595DE194F4AAC42261EC89C43161C97B9CAED96ACDD20796AD19E37428BF6A0A6D796753D0C62F9259EED4D66111839091F8E61622F2A8933DE8A182D32144F88C095F070D8140C85EEEEBB38F2340BD2ABC752930A50D17AA9775503095456C7CD0CF0B4EA74E983A6E0EAE6FCE48EE9E
310
F1FB8E70D4D25460427A58EE831F74F249C31C5AAB1CE9FD0919EB1A59DF67E317877FA22EE26F4A2A6C6DDD7F29A2F301D1F9F7A0C37D149F504B0304140006080800C270623BD9317DDA7D0000009D0000000B0000006662782F636E782E786D6C4DCCD10AC2201886E15B91FFDC966B53037588D27D8CE686E4344CA3CB
310
6F8B1D74F4C1C3C72B86CF1AD0DBE5974F5102399D01B9784F938F8B845A66CC010D4AE494CADF0D501C572761675062C9A93E0F9ADC3CD650360D3E3E0E34BDE1DA901EDFAE96E18ED00E6BC65A6C29B78651DEB28B864689E657DA760FAB2F504B0304140006080800C270623B609261632A010000120200003100000066
310
62782F43354338414331352D463944372D343136342D413737322D4436384443373638323733412F636F72652E786D6C8D515B6EC32010BC0AE22B55850D0E7E24C24491A39EA0172086A42831583CAA1CBF503B52FB971F16CDCECC0E2C3B3CA63BF856CE6B6B7A480A0C8132A395DA5C7B18C30575101C3873D6863F3408
310
8C98540F330C39BB3A1BE7151AAD09CA84841A2BD50A0AEF558060BCA74B0FFDF8A52651881812C3DF8A598C3771550529523BF138F3C1A5006019924FC8877AE88E03A9D1C7EED4224A1A8A8E6D5BA153D39D86B6E9AA767B64E522E42C462D57B996298EBE68E55E35C962CE829E9EF147A7445012F20AE31D2204E1EA93
310
D03D6EF698BEE36E8F312B33FD9F28CEF24551D4266CAB35EE22F39013562E0DCEA48DE7FB338C7ACCD60590E76DBC1ADF20C705C635D951562EC4F4FCE4D8D0D5D107EBD2F76E6EE7C425F562DB50CECABCA1547ED7976ADE26FF01504B0304140006080800C270623BAB1CAE584E01000033030000300000006662782F43
310
354338414331352D463944372D343136342D413737322D4436384443373638323733412F636E782E786D6CD593CD6EC32010845F0571AD6CE3D48AD20813A9873E410FBD12D82434182C7EAAE6EDBB2424CD25871E7B41D6EC30B3FA84F9E67BB2E40B4234DE8DB46F1925E094D7C6ED479AD3AE5951B2113C789FEE6C9438
310
39C1488B4C05DF079FE72A69D8C96C13AAD6B8631503449F83828872B949AC57D26200B826A308D316B4064D6E46FCDA41C05550DC9E483A00797BFD207EFB092A45DE9514C1BBD22178396BD39D891265658C238DEA00936C654E5E433CB65A26D9F6EDB5EBC14EBF49A45CB856E66048291F6939A9A81BB5C8917738143C
310
A680F4AA299D66A042CEB3354A2684DC9D8D178FE0D9B8B41CAAD720F880EE7EF93C0C18769E099ECC04D5A102C8049A8A05632F4DDF376CF1DE0F6BB65CB3E189ADD68CF1AED805DF7A6FEB258C81E067A2BC4BE012153DEFCAF811BEEA23DA0464EDC3E90F2011406DBDD0B965FC673EDDF97D23AE807F81F801504B0304
310
140006080800C270623BCB23EE24670500003C100000340000006662782F43354338414331352D463944372D343136342D413737322D4436384443373638323733412F6F626A656374732E786D6CAD575B8F9B3818FD2B887DE69664A6332B866A72ABA26ADAAA51AB7D182932E030EC0046B69966F6D7EF31180224D3662F
310
7908D8D8DFF57CC79FFDF7873C335E2817292BEE4CCF764D8316118BD322B9332BB9B76E4CE37DE073C6646F99691424A777A69A36033FE1AC2AF5544CF7A4CAE468763DFFC310112DA869441911E2CE14D113CD894D2AC9622A9EED98486227FB83EDD9CDC2A1D88493F26924B4249C16129662BE8014A331CA1B0E5DD309
310
7C477D0F7CF5AF574DDF5EE5D4FE0CF5A78590A4884E948DC44CBDD97235B9BAB5AE66B3A935BB9E78D67C3D5F5ADEBBA9BBB85E2C6EEF57B7502C2487246D09A77B33F880D8F034F29DE65367B136FC9C49112B0A1AD5FEC3C3DA662D31A6252D62E431A502DA7A5EBBC3A1A762D3FB3C5563ADB23F7D9957FD1D3D41ADED
310
EDB36F290BFF840BE21254704115AA9AF868471BFCB9C7A8858C65FA5B2A8C9C48CA539219591A72C25FCD004BD592C01F8851E8E40AE1CA0333F08EF2FAB6A2347E8DDD7356EEAB2C53D034831AD93BE09F4A515B96FE45F9796DB009B9AAD242DE6887E46B49CDE0D677EAC9C0578FE9447F6C0269EC339220E570B3F93A
310
7274A16A6FB334838FEBF0B055F5785E79C95949B954F001B4DAC4B54F1525ADD6BB28736A039C19C4FC1894AF88FC2794EFD114E48DA787D961A6B5484E0AB1673C476E6CB7FE196EFB62756FA72FE0B3D1EAD335DDCCBF5AEC3B9DB143C2782B7F00974ACDCD7FCFDF30667DA4F6D217F82F2830C6A73A94DB8864A09E87
310
B4404214288D8C610A5CBE0F0F66B0015382D9B18B644117909317DF79C177FC37B2C156B5FADEB34042477C7B01F323967559C0B637C072C293B562EDDC5B31BFFA5F6AE67EB9FDB8ADF89E44F44113CB92EED32295383B8FE0ED1B3448C4C0A367FAFA83F1188E9E2661DB4F42AE5509445BC55C053E690F0B35386A1E28
310
88B02F618AF3FC5F6878484544B38C149455AD96EE185258ED4846F709A8C226A0D3C908C59CBEA4AA9318AC189885B33EE269A942D61D7A1D4FDB6FF8F26DF309A03483F9EB1C687D3EAE0A8F741FB18CF15DF8BA6B98D004F8B06788EEEF4378EB883A4A0A105F63B9A51C1DE25D9CEEF79500EF9E89E2F7CDA29FA98E48
310
4E5FDA026A35363539033BA3F608D7F06D75A221E004073B2B76298E7194E559E57DDD6305A296FB86FCB0CACB1DC95955C84BC2E4B6FEB4D677C2FB5D8CF84164F46406DBFA69CD41D9318D8FA91AA0401D41677C1AA4673D995CAF5CCFB5AE96EFE6D66CB576ADDB95BBB65CF77EB2BABAB9BEBE59DD7716D596047E7B42
310
F56B10D1C489E8573CD561FEB63996AD193C10299C0F4D413949F3FCB6B1D116FB0EF600E0DDC64D5E6634A785240ABE0FEA25FB4AD0550C6434F39B9C24F402299F3F6C473660E6827D5F54A9D11FA3BD7A76A16AE1AC10F954E56141D26CB4513B6E9745A2DD6E43D93D1B466F876AA4E3893E54B02C8D4138B191509653
310
09DAB980ED794E0510D3EFCA637D7BB860F74BD30F4A1266B4B5E489A025CE04500DB855911CCE1BBFA185535DD49D89C3CE7EC69F2E44D340AAEF4CF09B4C232AEC10C7A36A7C6AE18000BAB08E0401355224193AEB665337EE76A9D8807E70026AFDDD924BBA25EDD7807873529638B507B45ADBA61544FFC8F1D61C8348
310
BC8695EC7C394E74CED46A50598D53FA6E8016E259AB3EA0BE7EEE9667D76B0611B9E89EF4531034522D497852DF0B947DDAA4FBE51707AD80B1F96C9459952097974BB23805982B55E0401150A165964402AA8BDF1FBF7086BB686EAC5340E071C1F29C157A70AFEFB2C6F60937D3F811B440D5F5434C5CCF7BACBB7E7D11
310
D98544509BC4E219136DC1290F465803204F8E539D0247E560B47CB334F4813183D01AB4274D69730D37503CEAE6A84AA54F96E54F1B7FA75E0A3070B4ECC1DF504B0304140006080000C270623B000000000000000000000000350000006662782F43354338414331352D463944372D343136342D413737322D4436384443
310
373638323733412F76657274696365732E62696E504B0304140006080800C270623BF270F1330600000004000000360000006662782F43354338414331352D463944372D343136342D413737322D4436384443373638323733412F747269616E676C65732E62696E636660600000504B0304140006080000C270623B000000
310
000000000000000000370000006662782F43354338414331352D463944372D343136342D413737322D4436384443373638323733412F617474726962757465732E62696E504B0304140006080800C270623B08DA0BD19000000041010000360000006662782F43354338414331352D463944372D343136342D413737322D44
310
36384443373638323733412F6469726563746F72792E786D6C858F410AC3201045AF22B36F53E9A60B35CBEEBAE80D244E44489C6234F4F835464A48035D0DF398FF9F8AF63D0E6CC63039F212F8F9020C7D47C6792B21C5FE7403D62A1188E2E60C98D7234A5830286103A55745067B9D86B8A3CF9C7F90C11DE607FB1443
310
96D7B6A82D282E9A152AD114D5EF2CB866EEE831B8EEA07A7BB5A8D7D61A2BAAEB7FD5F70921FF497D00504B0304140006080800C270623B00848760FC000000A00100003B0000006662782F43354338414331352D463944372D343136342D413737322D4436384443373638323733412F7265736F75726365732F636F7265
310
2E786D6C8D504B6E833010BD0A9A6D65B009201719474DDA9EA017B0CC84580936F2A7EAF16B0295DA5D3733A3F7D13C3D71FC9AEFC527FA609C1D8095140AB4DA8DC64E03A478211C8AA314DEB9F84B068555330EB0C220C5E45D5A76483B1BD1C68C5A37E20EAA103042A1EFF91820E82BCEAA54296645B8958BD2373561
310
C9CA4C679D1421FA1CA0D89EAC13A4C7E092D71844B5B152A464C65D63C6FCD35C0C7A9007FEFE767A611DA979DB90869F28E1677E26AF34130D655DDBD6A25ACD524433FF64D41E55C411644DE933618CD0FA83353DED7ADA3C51DE532AAA55FEC79496F19FA6646C3CD47BDCCD1640B21CE4414851AD7DE5F52833EFB55B
310
F90D504B010214000A0000080000C270623B3DEE336E79000000790000001B00000000000000000000000000000000006175746F6465736B2D64657369676E2D7061636B6167652E786D6C504B01021400140006080800C270623BD486FD9CA0000000F40000001300000000000000000000000000B20000005B436F6E7465
310
6E745F54797065735D2E786D6C504B01021400140006080800C270623B132FA9F8EA0000007C010000080000000000000000000000000083010000636F72652E786D6C504B01021400140006080800C270623B55019EA25F0000007C000000070000000000000000000000000093020000636E782E786D6C504B0102140014
310
0006080800C270623B0B97CEAB6F010000D40300000C00000000000000000000000000170300006662782F636F72652E786D6C504B01021400140006080800C270623BD9317DDA7D0000009D0000000B00000000000000000000000000B00400006662782F636E782E786D6C504B01021400140006080800C270623B609261
310
632A010000120200003100000000000000000000000000560500006662782F43354338414331352D463944372D343136342D413737322D4436384443373638323733412F636F72652E786D6C504B01021400140006080800C270623BAB1CAE584E010000330300003000000000000000000000000000CF0600006662782F43
310
354338414331352D463944372D343136342D413737322D4436384443373638323733412F636E782E786D6C504B01021400140006080800C270623BCB23EE24670500003C10000034000000000000000000000000006B0800006662782F43354338414331352D463944372D343136342D413737322D44363844433736383237
310
33412F6F626A656374732E786D6C504B01021400140006080000C270623B0000000000000000000000003500000000000000000000000000240E00006662782F43354338414331352D463944372D343136342D413737322D4436384443373638323733412F76657274696365732E62696E504B01021400140006080800C270
310
623BF270F13306000000040000003600000000000000000000000000770E00006662782F43354338414331352D463944372D343136342D413737322D4436384443373638323733412F747269616E676C65732E62696E504B01021400140006080000C270623B00000000000000000000000037000000000000000000000000
310
00D10E00006662782F43354338414331352D463944372D343136342D413737322D4436384443373638323733412F617474726962757465732E62696E504B01021400140006080800C270623B08DA0BD190000000410100003600000000000000000000000000260F00006662782F43354338414331352D463944372D343136
310
342D413737322D4436384443373638323733412F6469726563746F72792E786D6C504B01021400140006080800C270623B00848760FC000000A00100003B000000000000000000000000000A1000006662782F43354338414331352D463944372D343136342D413737322D4436384443373638323733412F7265736F757263
310
65732F636F72652E786D6C504B0506000000000E000E00800400005F1100000000
  0
XRECORD
  5
1EF
102
{ACAD_REACTORS
330
1EE
102
}
330
1EE
100
AcDbXrecord
280
     1
 70
     1
 90
429727718
  1
E2304D28-6187-4406-84E4-1B0A0969D8AC
310
504B03040A0000080000C270623B3DEE336E79000000790000001B0000006175746F6465736B2D64657369676E2D7061636B6167652E786D6C3C3F786D6C2076657273696F6E3D22312E302220656E636F64696E673D227574662D3822203F3E3C666F726D6174733E3C666F726D61743E687474703A2F2F736368656D612E
310
6175746F6465736B2E636F6D2F64657369676E2D7061636B6167652F323030393C2F666F726D61743E3C2F666F726D6174733E504B0304140006080800C270623BD486FD9CA0000000F4000000130000005B436F6E74656E745F54797065735D2E786D6C7D8EC10E82300C865F65E91D8A1E8C310C0EEA1BF002731658846E
310
D98AC1B77784ABF1D8FE5FBFBF75BBCE937A534CCEB38643598122B6FEE978D0B0485F9C41B54DDD7D022595594E1A469170414C76A4D9A4D207E29CF43ECE46F218070CC6BECC4078ACAA135ACF422C856C0E68EA1BF5669944DDD7BCDE7B1F8E415D77AECB980613C2E4AC91FC167A2B244592486606FC29C8FD7F045B9A
310
EF7053A7E60B504B0304140006080800C270623B6C505844EA0000007C01000008000000636F72652E786D6C8D90416EC3201045AF82665B61834B1DC7C244B5EB1BF402088883128365A0EAF18B13476A775DCDE8CF7F33A3CF4FDFF30D7D993558EF3AA00501649CF2DABAA98314CFB80174127CF53EFEB2017272361D6C
310
32083EAD3E2DBBA4BC8BC6C5AC3AAFCD2ECA104C04A46EB9E920A88B99652153CC8E702D16A9AE7232057D76194EC96AF4386275DE67CFD6AC20081DC7633D50FCC1688F197BA3F8FD30F6781846D2B3C3D83475C5CB0D163CDAF9795FAD4646A34154841C31A598549F94B5A46E097B214D4B082F37FB1F282DFA9F50B22E
310
BE56FBBB0F2C80A0F991FB40F072CB22977B50B96EB9891F504B0304140006080800C270623B55019EA25F0000007C00000007000000636E782E786D6C4DCB3B0E80201045D1AD90E915ED2CF8AC45050C11660C8261F98AB1B07AC9C97D42D718D865D3E909258CFD00CCE24AC6E326A164D74DC0B4128928FF326038472B
310
A13128B1252AC747C6BAB984FC68F0B87FE8960A5C09FE86CFB69FBA01504B0304140006080800C270623B85AE40E170010000D40300000C0000006662782F636F72652E786D6CC553ED6E8320147D15C2DF4501E7FA15A4593BDF602F40913A53058360FAF8BB7E345D976EE97ECD1F4ACEB9977BCE41F8F6DCD4A8D7AEAB
310
ACC9308B2946DA285B54A6CC70F0C76885D1567067ADFF528691918DCEF00063C14B67433B43CA1AAF8D07D4D842CFA0EC3AED3152352C32DCA90FDDC858060F15DD296EA53AC952C72C061AEA04EFBC0301681A32BCB1381ECE9C4CB8E02154C5CC56054CAB8E9576585096E7EBC59E456F29DB4569FAC2A2D765BE8BF6FB
310
9CEED265BE5A2D124E8666C17DD55CD429A7A5D7051609A5EB88B18826EF2CDDD0C586A64F74B5A19493A1FCA629B4C5834DA132FE3999E54E6D1D160C848CC437B71091479DEC410F119C0C21C2674CF83668080442F6F2505F7C9C00EAB5F2D6A5C014365CA95ED641C3541AD3F1413F2F38993A61EAB839B8BE3B237978
310
C6EF3BC2514B538209E96179087ED0C9270D7368AD7651EFCFC858D7C8FA311BBF38FC1375157F5792B2B575FFA588CC0744E6DF830CF7517C02504B0304140006080800C270623BD959F09C7C0000009D0000000B0000006662782F636E782E786D6C4DCCD10A83201886E15B91FFDC4A2BF0400D0BBD8F581632D3E13476
310
F9ABD1C18E3E78F878F9F0D93D3A6C7ABB180490AA0164C3232E2E6C024A5E310334489E62CC7F374061DEAD808B41F22DC5F2BA69B1EB5C7C3ED5BBF0BCB11F29514A1BACD44471C74C8BC7C968CC28D13D316DC71A06B5E4F5AF74EE15965F504B0304140006080800C270623BD97BE6F829010000120200003100000066
310
62782F35423231414145462D414143322D343846332D424346452D3832314535314633343830382F636F72652E786D6C8D515B6EC32010BC0AE22B55850D0E8EDC081339517C825E8018E2A2C460F1A872FC42ED48ED5F7E58343B333BB0ECF098EEE05B39AFAD6921293004CA0C566A33B630862B6A203870E6AC0D7F6810
310
1831A916661872363A1BE7151AAC09CA84841A2BD50A0AEF558060B8A74B0BFDF0A52651881812C3DF8A590C3731AA8214A99D789CF9E05200B00CC927E4F5B1225D77EE51D79D2A449B7E8B8EA7FE8C9A8A9C6BD26F69831B562E42CE62D472956B99E2E8AB56EE55932CE62CE8E9197F704A042521AF30FE4084205C7D12
310
BAC7BB3DA6EFB8D963CCCA4CFF278AB37C5114B509DB6A8DBBC83CE484954B833369E3E5FE0CA31EB37501E4791BAF8637C87181714D680AB110D3F393E38EAE8E3E5897BE7773BB242EA917DB1DE5ACCC1B4AE5777DA9E66DF21F504B0304140006080800C270623BAB1CAE584E01000033030000300000006662782F3542
310
3231414145462D414143322D343846332D424346452D3832314535314633343830382F636E782E786D6CD593CD6EC32010845F0571AD6CE3D48AD20813A9873E410FBD12D82434182C7EAAE6EDBB2424CD25871E7B41D6EC30B3FA84F9E67BB2E40B4234DE8DB46F1925E094D7C6ED479AD3AE5951B2113C789FEE6C943839
310
C1488B4C05DF079FE72A69D8C96C13AAD6B8631503449F83828872B949AC57D26200B826A308D316B4064D6E46FCDA41C05550DC9E483A00797BFD207EFB092A45DE9514C1BBD22178396BD39D891265658C238DEA00936C654E5E433CB65A26D9F6EDB5EBC14EBF49A45CB856E66048291F6939A9A81BB5C8917738143CA6
310
80F4AA299D66A042CEB3354A2684DC9D8D178FE0D9B8B41CAAD720F880EE7EF93C0C18769E099ECC04D5A102C8049A8A05632F4DDF376CF1DE0F6BB65CB3E189ADD68CF1AED805DF7A6FEB258C81E067A2BC4BE012153DEFCAF811BEEA23DA0464EDC3E90F2011406DBDD0B965FC673EDDF97D23AE807F81F801504B030414
310
0006080800C270623B086A6785630500003C100000340000006662782F35423231414145462D414143322D343846332D424346452D3832314535314633343830382F6F626A656374732E786D6CAD575D739B3814FD2B0CFB0C189BA4CE0EA193D849C6D34DDBA9A79D7DC88C47804CD8006224913AFDF57B040203B65BEF87
310
1F0C12D2FD3CF7E8CA7FBFCB33E3957291B2E2DA74ED8969D02262715A24D76625B7D6DC34DE073E674CF696994641727A6DAA6933F013CEAA524FC5744BAA4C8E66EF6FFF3444440B6A1A514684B83645F44C7362934AB2988A173B2692D8C97667BB76B3702836E1A47C1E092D09A78584A5982F20C5688C7287C389E904
310
BEA3BE07BEFAD7AB66A75739B53F43FD69212429A20365233133D75BDE4D2FAEAC0BCF9B59DEE5D4B56EEF6F9796FB6E36595C2E1657377757502C2487246D09A75B3378406C781AF94EF3A9B3581B7ECCA48815058D6AFFE1616DB39618D3921631F29852016D3DAF27C3A1AB62D3FB3C5363ADB23F7D9E57FD1D3D41ADED
310
EDB36F290BFF820BE21C54704115AA9AF868471BFC4DF6510B19CBF4B75418399194A72433B234E484BF990196AA25813F10A3D0C915C2950766E0EEE5F56D4569FC1ABBC7ACDC5659A6A0690635B237C03F95A2B62CFD41F9716DB009B9AAD242CEB543F2ADA46670E53BF564E0ABC76CAA3F368134B619499072B8D97C1D
310
39BA50B5B75A9AC187FB70B756F5785C79C95949B954F001B4DAC4B54F1525ADD63D2B736A039C19C47C1F942F88FC4794EFDE14E48DA73B6FE7692D9293426C19CF911B7B52FF8C49FB62756F872FE0B3D1EAC335DDCCBF5AEC3B9DB143C238953F804BA566FEDFF3378C591FA9BDF405FE2B0A8CF1990EE53A2219A8E731
310
2D9010054A23639802976FC39D19ACC0946076EC2259D005E4E0C5775EF11DFF8D6CB055ADBEF72C90D011DF9EC1FC88655D16B0ED04580E78B256AC9D3B15F38BFFA5666E96EB0FEB8A6F49441F35B12CE9362D5289B3730FDEBE4183440C3C7AA16FDF198FE1E86112D6FD24E45A9540B455CC55E093F6B05083BDE68182
310
08FB12A638CFFF8586C7544434CB484159D56AE98E2185D58E64749F802A6C023A9B8E50CCE96BAA3A89C18A815938EB239E962A64DDA1D7F1B47DC297AFAB8F00A519DCBEFD41DEFA8419EEE93E6219E39BF06DD330A109F061CF10DDDF86F0D61175941420BEC6724B393AC49B38DD6E2B01DE3D12C56FAB453F531D911C
310
BEB405D46A6C6AD2033BA3F608D7F06D75A221E004073B2B36298E7194E551E57DDD6305A2967B427E58E5E586E4AC2AE439619AB4FEB4D677C2FB5D8CF84E64F46C06EBFA69DD82B2631A9F48A83A828EF83448CFDD7436F196D3B975E9CEDF599E37B9B4E6DE9D67B9B7939BC9D5E5D5727E83F00F2BA03DA1FA358868E2
310
44F42B9EEA307F5DEDCBD60C1E8914CE4353504ED23CBFAE6CB4C5BE833D0078B771959719CD69218982EFA37AC9BE1074150319CDFC2A27093D43CAA787F5C806CC9CB1EFB32A35FA7DB457CF2E542D1C15229FAB3C2C489A8D366AC7EDB248B4DB6D28BB67C3E8ED508D743CD1870A96A53108273612CA722A413B67B03D
310
CFA90062FA5D79AC6F0F67EC7E6DFA4149C28CB6963C13B4C49900AA413A552487F3C66F68E15417756DE2B0B35FF0A70BD13490EA6B13FC26D3880A3BC4F1A81A9F5A3820802EAC2341809E144986CEBAD9D48DBB5D2A36A01F9C805A7FB7E49C6E49FB3520DE9C94254EED01ADD6B66905D13F72BC35C72012AF61253B5F
310
F6139D33B59A005C0377BA075A8817AD7A87FAFAB95BAE5DAF1944E4AC7BD24F41D048B524E1497D2F5041D726DD2C3F3B68058CD527A3CCAA04B93C5F92C529C05CA902078A800A2DB32412505DFCFEF49933DC4573E33E05049E162CCF59A10737FA2E6BAC9F71338D9F400B545D3FC474E2BA4F75D7AF2F229B90086A93
310
58BC60A22D38E5C1086B00E4C171AAAF678ECAC168F96A69E803C383D01AB4074D69730D37503CEAE6A84AA54F96E54F1B7FA75E0A1470B4ECC1DF504B0304140006080000C270623B000000000000000000000000350000006662782F35423231414145462D414143322D343846332D424346452D38323145353146333438
310
30382F76657274696365732E62696E504B0304140006080800C270623BF270F1330600000004000000360000006662782F35423231414145462D414143322D343846332D424346452D3832314535314633343830382F747269616E676C65732E62696E636660600000504B0304140006080000C270623B0000000000000000
310
00000000370000006662782F35423231414145462D414143322D343846332D424346452D3832314535314633343830382F617474726962757465732E62696E504B0304140006080800C270623B08DA0BD19000000041010000360000006662782F35423231414145462D414143322D343846332D424346452D383231453531
310
4633343830382F6469726563746F72792E786D6C858F410AC3201045AF22B36F53E9A60B35CBEEBAE80D244E44489C6234F4F835464A48035D0DF398FF9F8AF63D0E6CC63039F212F8F9020C7D47C6792B21C5FE7403D62A1188E2E60C98D7234A5830286103A55745067B9D86B8A3CF9C7F90C11DE607FB144396D7B6A82D
310
282E9A152AD114D5EF2CB866EEE831B8EEA07A7BB5A8D7D61A2BAAEB7FD5F70921FF497D00504B0304140006080800C270623B7FFB76DCFC000000A00100003B0000006662782F35423231414145462D414143322D343846332D424346452D3832314535314633343830382F7265736F75726365732F636F72652E786D6C8D
310
504B6E833010BD0A9A6D65B029250419478572835EC032136A25D8C89FAAC7AF09546A77DDCC8CDE47F3F4F8E56BB9679FE8BCB6A6039653C8D0283B69337710C39534905D0477D6865F32C88C5CB0830D06C16767E37A40CA9A802624D4D8090F507A8F0132754F47075E7DE02273194352F85BBE4A759333E62C4F74D209
310
EE834B01B2FDC9364138F4363A859E173B2B788C7A3A347A4A3FF555A30341D9389EEB8192B78AF5A4AA5E18793D8D3D198691F6D5696C9ABAE4C566163CE8E527A37228034E204A4ACF843142CB7756B5B46E69F5449B96525E6CF23FA6B84EFF34456DC27379C4DD6D1E044B411E84E0C5D6575A8F32D3DEBA15DF504B01
310
0214000A0000080000C270623B3DEE336E79000000790000001B00000000000000000000000000000000006175746F6465736B2D64657369676E2D7061636B6167652E786D6C504B01021400140006080800C270623BD486FD9CA0000000F40000001300000000000000000000000000B20000005B436F6E74656E745F5479
310
7065735D2E786D6C504B01021400140006080800C270623B6C505844EA0000007C010000080000000000000000000000000083010000636F72652E786D6C504B01021400140006080800C270623B55019EA25F0000007C000000070000000000000000000000000093020000636E782E786D6C504B01021400140006080800
310
C270623B85AE40E170010000D40300000C00000000000000000000000000170300006662782F636F72652E786D6C504B01021400140006080800C270623BD959F09C7C0000009D0000000B00000000000000000000000000B10400006662782F636E782E786D6C504B01021400140006080800C270623BD97BE6F829010000
310
120200003100000000000000000000000000560500006662782F35423231414145462D414143322D343846332D424346452D3832314535314633343830382F636F72652E786D6C504B01021400140006080800C270623BAB1CAE584E010000330300003000000000000000000000000000CE0600006662782F354232314141
310
45462D414143322D343846332D424346452D3832314535314633343830382F636E782E786D6C504B01021400140006080800C270623B086A6785630500003C10000034000000000000000000000000006A0800006662782F35423231414145462D414143322D343846332D424346452D3832314535314633343830382F6F62
310
6A656374732E786D6C504B01021400140006080000C270623B00000000000000000000000035000000000000000000000000001F0E00006662782F35423231414145462D414143322D343846332D424346452D3832314535314633343830382F76657274696365732E62696E504B01021400140006080800C270623BF270F1
310
3306000000040000003600000000000000000000000000720E00006662782F35423231414145462D414143322D343846332D424346452D3832314535314633343830382F747269616E676C65732E62696E504B01021400140006080000C270623B0000000000000000000000003700000000000000000000000000CC0E0000
310
6662782F35423231414145462D414143322D343846332D424346452D3832314535314633343830382F617474726962757465732E62696E504B01021400140006080800C270623B08DA0BD190000000410100003600000000000000000000000000210F00006662782F35423231414145462D414143322D343846332D424346
310
452D3832314535314633343830382F6469726563746F72792E786D6C504B01021400140006080800C270623B7FFB76DCFC000000A00100003B00000000000000000000000000051000006662782F35423231414145462D414143322D343846332D424346452D3832314535314633343830382F7265736F75726365732F636F
310
72652E786D6C504B0506000000000E000E00800400005A1100000000
  0
XRECORD
  5
16C
102
{ACAD_REACTORS
330
16A
102
}
330
16A
100
AcDbXrecord
280
     1
270
     1
271
     1
  0
XRECORD
  5
16B
102
{ACAD_REACTORS
330
16A
102
}
330
16A
100
AcDbXrecord
280
     1
270
     1
271
     1
  0
XRECORD
  5
1F2
102
{ACAD_REACTORS
330
16A
102
}
330
16A
100
AcDbXrecord
280
     1
 70
     0
 90
1673772943
  1
AEB1D1DA-B7DF-4CBA-830A-738AA2653737
310
504B03040A0000080000C270623B3DEE336E79000000790000001B0000006175746F6465736B2D64657369676E2D7061636B6167652E786D6C3C3F786D6C2076657273696F6E3D22312E302220656E636F64696E673D227574662D3822203F3E3C666F726D6174733E3C666F726D61743E687474703A2F2F736368656D612E
310
6175746F6465736B2E636F6D2F64657369676E2D7061636B6167652F323030393C2F666F726D61743E3C2F666F726D6174733E504B0304140006080800C270623BD486FD9CA0000000F4000000130000005B436F6E74656E745F54797065735D2E786D6C7D8EC10E82300C865F65E91D8A1E8C310C0EEA1BF002731658846E
310
D98AC1B77784ABF1D8FE5FBFBF75BBCE937A534CCEB38643598122B6FEE978D0B0485F9C41B54DDD7D022595594E1A469170414C76A4D9A4D207E29CF43ECE46F218070CC6BECC4078ACAA135ACF422C856C0E68EA1BF5669944DDD7BCDE7B1F8E415D77AECB980613C2E4AC91FC167A2B244592486606FC29C8FD7F045B9A
310
EF7053A7E60B504B0304140006080800C270623BC5983BD0EB0000007C01000008000000636F72652E786D6C8D904D6EC3201085AF82665B6103F1BF3091AB2427E80510262E4A0C9681AAC72F4E1CA9DD7535A337EF9B193D7EFC9EEFE84BAFDE38DB03CD08206D951B8D9D7A88E18A1B4047C157E7C22F1B202B67DDC326
310
83E0D3EAE2B24BCAD9A06D48AA75A3DE45E9BD0E80D43D353D78F5A96799C91892C3DFB245AA9B9C74465F5D826334237A1E3163DA67AE46AF20CABAA887E1FD82D9401A5C9CCA136ED8E58CEBF650B2BAA8CE557BE6F9060B1ECCFCBAAF562D831E4130425A4C2926EC83161DA93A52BC91A62384E79BFD0F1497F19F5034
310
361CD8FEEE13F320687AE431103CDFB248E51154AA5B6EE207504B0304140006080800C270623B55019EA25F0000007C00000007000000636E782E786D6C4DCB3B0E80201045D1AD90E915ED2CF8AC45050C11660C8261F98AB1B07AC9C97D42D718D865D3E909258CFD00CCE24AC6E326A164D74DC0B4128928FF32603847
310
2BA13128B1252AC747C6BAB984FC68F0B87FE8960A5C09FE86CFB69FBA01504B0304140006080800C270623BEE35DAD072010000D40300000C0000006662782F636F72652E786D6CC553ED6E8230147D95A67F1768411435A5C6457D82BD4085CA1AA125A5253EFE2E1FC6B938E37E8D1FD09C736FEF39A7946D2E75853A69
310
5B657486A3906224756E0AA5CB0C7B770A96186D38B3C6B86F65186951CB0CF730E6ACB4C63713941BEDA476806A53C809146D2B1D4679058B0CB7F9A7AC4528BC838AF61C36223F8B5286510834D471D63A0B02D038A47F637E3A5E181971CEBC57C5C4AA02A6A9939216F3799AA4DBEDFB2188B7741924BBF92E58C6877D
310
90AE66F3384D16FBC56ACF48DFCC9953F5555D6EA570B2C03CA67415445140E38F2859D3C59A266F74B9A69491BEFCAEC937C58B4D5E69378B27B9635B8B79044206E2875B88C8A15674A0877046FA10E133247C1F340402213B71ACAE3ECE00753277C626C014C6DFA84E545EC2541AD2E141BF2F18193B61EAB039B87E38
310
237E79C6F31DE1A8852EC18470B03C7AD7EB64A38629B446DAA07317A48DAD45F59A8D270EFF44DDC43F94949BCAD8FF5244A60322D3EF41FAFBC8BF00504B0304140006080800C270623BD65DADFA7E0000009D0000000B0000006662782F636E782E786D6C4DCCD10A83201886E15B91FFDC651665A0C64C771FB12C62A6
310
C3E9D8E5AF46073BFAE0E1E3E5FD6773E86DE36B0D5E40792180ACBF8769F58B809C66CC00F592C710D2DF0D901F372BE060907C89213F4F9AEC3C66977675AB7F9C488DBA1A4309AE06D6E25ADD4ADCB5BAC2A4D1BAA135EBD440A190BCF895F63DC2F20B504B0304140006080800C270623B16D345222A01000012020000
310
310000006662782F32454241454532302D334338372D344246312D393744332D3036444436323438394243322F636F72652E786D6C8D515B6EC32010BC0AE2AB55850DC4719C0813358F9EA01720405294182C1E558E5FA81DA9FDCB0F8B66676607966DEFC30D7C6B1F8CB33D241586405BE994B1971EA678461D045BCEBC
310
73F10F0D022B06DDC30243CE2EDEA57186A4B351DB9851EB949E4111828E10C85BBEF430C82F3D884AA49819E15A8D425EC54557A4CAEDCCE32C449F038069483921A7C7DDFBF148315AECBB156A761F04AD578705C2EDE1D0D2A65BEFF694D59390B3948C9AE546E538E66CB47FD6A488398B6678C4975E8BA855D663BC46
310
84204C3F49B3C1ED06376FB8DB60CCEA42FF274AA37A52948C8D0B3AC79D640172C2EAA9C19972E9747B84D1F7D1F908CABC97A0E52BE4B8C2784968CBEA89989F9F1DDB66760CD1F9FCBD2FD753E692E564DB369CD56543B9FCAE2FD7B24DFE03504B0304140006080800C270623BAB1CAE584E0100003303000030000000
310
6662782F32454241454532302D334338372D344246312D393744332D3036444436323438394243322F636E782E786D6CD593CD6EC32010845F0571AD6CE3D48AD20813A9873E410FBD12D82434182C7EAAE6EDBB2424CD25871E7B41D6EC30B3FA84F9E67BB2E40B4234DE8DB46F1925E094D7C6ED479AD3AE5951B2113C78
310
9FEE6C943839C1488B4C05DF079FE72A69D8C96C13AAD6B8631503449F83828872B949AC57D26200B826A308D316B4064D6E46FCDA41C05550DC9E483A00797BFD207EFB092A45DE9514C1BBD22178396BD39D891265658C238DEA00936C654E5E433CB65A26D9F6EDB5EBC14EBF49A45CB856E66048291F6939A9A81BB5C8
310
917738143CA680F4AA299D66A042CEB3354A2684DC9D8D178FE0D9B8B41CAAD720F880EE7EF93C0C18769E099ECC04D5A102C8049A8A05632F4DDF376CF1DE0F6BB65CB3E189ADD68CF1AED805DF7A6FEB258C81E067A2BC4BE012153DEFCAF811BEEA23DA0464EDC3E90F2011406DBDD0B965FC673EDDF97D23AE807F81F8
310
01504B0304140006080800C270623B849BF81A650500003B100000340000006662782F32454241454532302D334338372D344246312D393744332D3036444436323438394243322F6F626A656374732E786D6CAD575B739B3814FE2B0CFB0C98D869921D42C797A6E3E9A4CDD4D3CE3E64C62340266C406224913AFBEBF713
310
080CD869BD173F18248ECEF53B1705EFF7456EBD502133CE6E6DDF9DD81665314F3296DEDA95DA39D7B6F53E0C04E7AA47665B8C14F4D6D6DB7618A48257A5D94AE88E54B91AEDDE2DFEB0644C19B5AD382752DEDA327EA2057149A57842E5B39B1045DC74B7777DB7211CB24D05299F464C4B222853D014FB0C5CAC46297F
310
B89CD85E1878FA7B18E87F43357D9BCAABED19CACF985484C547C2466CA6FE6CF5E1E2F2C6B99CCDA6CEECDD85EF2CEE162BC7BF9A4E96EF96CB9BF9871B08964A8093D144D09D1D7E846F4416075EF3A9D3D8287E4AA5983346E3DA7E5858EB6C3826B4A42C411C332A21AD67F564B8F4B56F7A9FA77A6D44F6B7CFB3AA7F
310
A2C7A8D5BD7DF635E5D19F30419E830A21A94655E31F636883BFC9C16B11E7B9F99649AB208A8A8CE4569E458288573B04A9260983011B8D4EA111AE2DB043FFC0AFAF2B52E3D7D83DA5E5AECA730D4D3BAC91BD05FEA992B566D95F549C96069D10AB2A63EADA18A45E4B6A873781576F86817E4C2FCCC7C691D62E272942
310
0E339BAF2343973AF7D62B3BFC7417ED373A1F4F0B2F052FA9501A3E80561BB8F6A9BD64C4FA67454E1F8031039F1F9CF2159EFF8CF43DA882B8896C3FDBCF8C142508933B2E0AC4C69DD43F6BD2BE38DDDBF10BEAD988FA98A6DBF957C481D7293B2C186FC50FE0D2A1B9FEEFF11BFAAC8FD45EF8C2E00509C6C5D4B87213
310
931CA5E73E63088806A595736CA196EFA2BD1DAE512951D9718AE461E790A397C07BC177FC37BC51AD6AF1BD27434047F5F68CCA0F5FD66901DDDE00CB519DAC051BE3DEF2F9E5FF9233F3D5E6D3A6123B12D37B5358567497B14CA1771EC0DB576810888145CFF4F50717090C3D0EC2A61F84C28892F0B6F6B9767CDA360B
310
BD38481E0888712EE5BAE605BF90709FC998E639619457AD94AE0D69AC7645C6CC09C8C2C6A1D38B118A057DC9F42431A018A8855E1F8BACD42EEB9A5E57A7DD376CF9B6FE0C50823EE711C90F44D1A1DAC73CE7621BBD6E9B4268037B383204F7F721BA8D433DCD0580AFA1DC561CE3E16D92ED769544D93DE1C4EFEB653F
310
505D1D397E69F3A795D8A4E40CC519A94784416F2B13F38020E8EB9C6D33747164E549E17DD96301B2E6FB06FFA82ACA2D2978C5D4396E9AB4F6B4DA77CCFB438CFC4154FC64879BFAE92C50B1139A1C42350081EE40276C1A8467FE61E1AFFCD5DC595CADEE9CD9723177AEA793B97335BD9ECF2FDE5D4EAFA6579D46B526
310
61D036A87E0AC29B6888412532E3E66FEB43D6DAE13D51D2FBD8E4939736CF6F6B175371E0E10CF0DD1D5C17654E0BCA14D1E8BDD72FF95782A162C0A3D95F1724A56770F9F27133D2013B679C7BD099467F8CCE9ADDA5CE85934CD45355448C64F9E8A031DC2D596ACC6E5DD93D9B82DE2EF5CAF81363A8E47996A0DE2456
310
4A794115AACE19C55E14540231FDA13C319787334EBF34E3A022514E5B4D9E0826E25C02D5805B15ABE1BEF51B26383D44DDDAE875EE33FE4C22DA16427D6BA3BCA92CA6D28DD01DF5DC53330704308475351050232CCD31583787BA75774AFB06E5070DD0C8EF48CE19968C5D83BA5B90B244D31E54D55A372320FE4786B7
310
EA5844E135AA5467CB61A333A61683CC6A8C3257034C10CF46F41EF9F573B37CB7A61978E4AC6BD24F41D070751411697D2DD0FA1995E6AB070F9380B5FE629579952296E773720405982B9DE04011506178964401AACBDF1F1F04C755B4B0EE3240E071C98B8233B3989BABACB579C2C534794459A0FAF6212F26BEFF580F
310
FDE61EB28D88A42E49E43336DA84D3168CB006401E755313024FC76044BE5E59A661CCC0B406EDD14CDADCC22D248FBE38EA54E917CBF2A773BF5793020C02137BF837504B0304140006080000C270623B000000000000000000000000350000006662782F32454241454532302D334338372D344246312D393744332D3036
310
444436323438394243322F76657274696365732E62696E504B0304140006080800C270623BF270F1330600000004000000360000006662782F32454241454532302D334338372D344246312D393744332D3036444436323438394243322F747269616E676C65732E62696E636660600000504B0304140006080000C270623B
310
000000000000000000000000370000006662782F32454241454532302D334338372D344246312D393744332D3036444436323438394243322F617474726962757465732E62696E504B0304140006080800C270623B08DA0BD19000000041010000360000006662782F32454241454532302D334338372D344246312D393744
310
332D3036444436323438394243322F6469726563746F72792E786D6C858F410AC3201045AF22B36F53E9A60B35CBEEBAE80D244E44489C6234F4F835464A48035D0DF398FF9F8AF63D0E6CC63039F212F8F9020C7D47C6792B21C5FE7403D62A1188E2E60C98D7234A5830286103A55745067B9D86B8A3CF9C7F90C11DE607
310
FB144396D7B6A82D282E9A152AD114D5EF2CB866EEE831B8EEA07A7BB5A8D7D61A2BAAEB7FD5F70921FF497D00504B0304140006080800C270623BAD7266E1FD000000A00100003B0000006662782F32454241454532302D334338372D344246312D393744332D3036444436323438394243322F7265736F75726365732F63
310
6F72652E786D6C8D50596E833010BD0A9ADFCA6008BB8C23AAD013F4029699502BC1465EAA1EBF26A152FBD79F99D15B344F8F9DBFD67BF289D629A307C8530A096A6966A5970182BF9216923367D618FF4B0689162B0EB0C3C0D9624DD80E481AED51FB886A33E3010AE7D04322EFF118C0C90F5C452A828F0A774B37216F
310
62C1344F231D759C396F6380E4F9649FC02D3A13AC44C7B227CB59086A3E346A8E3FD555A1055E3565338EAF132946DA92F2525D485BBC4DA4E94E55D194F5547713CB7633675EAD3F19A545E171065E50DA913C27B478CFCB9ED63D2D5F68DB53CAB25DFEC714B6F99FA6A0B43F1547DCA7CD01CF639007C159B6F715D7A3
310
CCB8F76EF937504B010214000A0000080000C270623B3DEE336E79000000790000001B00000000000000000000000000000000006175746F6465736B2D64657369676E2D7061636B6167652E786D6C504B01021400140006080800C270623BD486FD9CA0000000F40000001300000000000000000000000000B20000005B43
310
6F6E74656E745F54797065735D2E786D6C504B01021400140006080800C270623BC5983BD0EB0000007C010000080000000000000000000000000083010000636F72652E786D6C504B01021400140006080800C270623B55019EA25F0000007C000000070000000000000000000000000094020000636E782E786D6C504B01
310
021400140006080800C270623BEE35DAD072010000D40300000C00000000000000000000000000180300006662782F636F72652E786D6C504B01021400140006080800C270623BD65DADFA7E0000009D0000000B00000000000000000000000000B40400006662782F636E782E786D6C504B01021400140006080800C27062
310
3B16D345222A0100001202000031000000000000000000000000005B0500006662782F32454241454532302D334338372D344246312D393744332D3036444436323438394243322F636F72652E786D6C504B01021400140006080800C270623BAB1CAE584E010000330300003000000000000000000000000000D406000066
310
62782F32454241454532302D334338372D344246312D393744332D3036444436323438394243322F636E782E786D6C504B01021400140006080800C270623B849BF81A650500003B1000003400000000000000000000000000700800006662782F32454241454532302D334338372D344246312D393744332D303644443632
310
3438394243322F6F626A656374732E786D6C504B01021400140006080000C270623B0000000000000000000000003500000000000000000000000000270E00006662782F32454241454532302D334338372D344246312D393744332D3036444436323438394243322F76657274696365732E62696E504B0102140014000608
310
0800C270623BF270F133060000000400000036000000000000000000000000007A0E00006662782F32454241454532302D334338372D344246312D393744332D3036444436323438394243322F747269616E676C65732E62696E504B01021400140006080000C270623B000000000000000000000000370000000000000000
310
0000000000D40E00006662782F32454241454532302D334338372D344246312D393744332D3036444436323438394243322F617474726962757465732E62696E504B01021400140006080800C270623B08DA0BD190000000410100003600000000000000000000000000290F00006662782F32454241454532302D33433837
310
2D344246312D393744332D3036444436323438394243322F6469726563746F72792E786D6C504B01021400140006080800C270623BAD7266E1FD000000A00100003B000000000000000000000000000D1000006662782F32454241454532302D334338372D344246312D393744332D3036444436323438394243322F726573
310
6F75726365732F636F72652E786D6C504B0506000000000E000E0080040000631100000000
  0
XRECORD
  5
16D
102
{ACAD_REACTORS
330
16A
102
}
330
16A
100
AcDbXrecord
280
     1
270
     1
271
     1
  0
XRECORD
  5
16E
102
{ACAD_REACTORS
330
16A
102
}
330
16A
100
AcDbXrecord
280
     1
270
     1
271
     1
  0
XRECORD
  5
2472
102
{ACAD_REACTORS
330
22B
102
}
330
22B
100
AcDbXrecord
280
     1
102
DISPLAYNAME
  1
Metric50
102
FLAGS
 90
        0
  0
CELLSTYLEMAP
  5
2471
102
{ACAD_REACTORS
330
159
102
}
330
159
100
AcDbCellStyleMap
 90
        3
300
CELLSTYLE
  1
TABLEFORMAT_BEGIN
 90
        5
170
     1
 91
        0
 92
    32768
 62
   257
 93
        1
300
CONTENTFORMAT
  1
CONTENTFORMAT_BEGIN
 90
        0
 91
        0
 92
      512
 93
        0
300

 40
0.0
140
1.0
 94
        5
 62
     0
340
11
144
6.0
309
CONTENTFORMAT_END
171
     1
301
MARGIN
  1
CELLMARGIN_BEGIN
 40
1.5
 40
1.5
 40
1.5
 40
1.5
 40
4.5
 40
4.5
309
CELLMARGIN_END
 94
        6
 95
        1
302
GRIDFORMAT
  1
GRIDFORMAT_BEGIN
 90
        0
 91
        1
 62
     0
 92
       -2
340
14
 93
        0
 40
1.125
309
GRIDFORMAT_END
 95
        2
302
GRIDFORMAT
  1
GRIDFORMAT_BEGIN
 90
        0
 91
        1
 62
     0
 92
       -2
340
14
 93
        0
 40
1.125
309
GRIDFORMAT_END
 95
        4
302
GRIDFORMAT
  1
GRIDFORMAT_BEGIN
 90
        0
 91
        1
 62
     0
 92
       -2
340
14
 93
        0
 40
1.125
309
GRIDFORMAT_END
 95
        8
302
GRIDFORMAT
  1
GRIDFORMAT_BEGIN
 90
        0
 91
        1
 62
     0
 92
       -2
340
14
 93
        0
 40
1.125
309
GRIDFORMAT_END
 95
       16
302
GRIDFORMAT
  1
GRIDFORMAT_BEGIN
 90
        0
 91
        1
 62
     0
 92
       -2
340
14
 93
        0
 40
1.125
309
GRIDFORMAT_END
 95
       32
302
GRIDFORMAT
  1
GRIDFORMAT_BEGIN
 90
        0
 91
        1
 62
     0
 92
       -2
340
14
 93
        0
 40
1.125
309
GRIDFORMAT_END
309
TABLEFORMAT_END
  1
CELLSTYLE_BEGIN
 90
        1
 91
        1
300
_TITLE
309
CELLSTYLE_END
300
CELLSTYLE
  1
TABLEFORMAT_BEGIN
 90
        5
170
     1
 91
        0
 92
        0
 62
   257
 93
        1
300
CONTENTFORMAT
  1
CONTENTFORMAT_BEGIN
 90
        0
 91
        0
 92
      512
 93
        0
300

 40
0.0
140
1.0
 94
        5
 62
     0
340
11
144
4.5
309
CONTENTFORMAT_END
171
     1
301
MARGIN
  1
CELLMARGIN_BEGIN
 40
1.5
 40
1.5
 40
1.5
 40
1.5
 40
4.5
 40
4.5
309
CELLMARGIN_END
 94
        6
 95
        1
302
GRIDFORMAT
  1
GRIDFORMAT_BEGIN
 90
        0
 91
        1
 62
     0
 92
       -2
340
14
 93
        0
 40
1.125
309
GRIDFORMAT_END
 95
        2
302
GRIDFORMAT
  1
GRIDFORMAT_BEGIN
 90
        0
 91
        1
 62
     0
 92
       -2
340
14
 93
        0
 40
1.125
309
GRIDFORMAT_END
 95
        4
302
GRIDFORMAT
  1
GRIDFORMAT_BEGIN
 90
        0
 91
        1
 62
     0
 92
       -2
340
14
 93
        0
 40
1.125
309
GRIDFORMAT_END
 95
        8
302
GRIDFORMAT
  1
GRIDFORMAT_BEGIN
 90
        0
 91
        1
 62
     0
 92
       -2
340
14
 93
        0
 40
1.125
309
GRIDFORMAT_END
 95
       16
302
GRIDFORMAT
  1
GRIDFORMAT_BEGIN
 90
        0
 91
        1
 62
     0
 92
       -2
340
14
 93
        0
 40
1.125
309
GRIDFORMAT_END
 95
       32
302
GRIDFORMAT
  1
GRIDFORMAT_BEGIN
 90
        0
 91
        1
 62
     0
 92
       -2
340
14
 93
        0
 40
1.125
309
GRIDFORMAT_END
309
TABLEFORMAT_END
  1
CELLSTYLE_BEGIN
 90
        2
 91
        1
300
_HEADER
309
CELLSTYLE_END
300
CELLSTYLE
  1
TABLEFORMAT_BEGIN
 90
        5
170
     1
 91
        0
 92
        0
 62
   257
 93
        1
300
CONTENTFORMAT
  1
CONTENTFORMAT_BEGIN
 90
        0
 91
        0
 92
      512
 93
        0
300

 40
0.0
140
1.0
 94
        2
 62
     0
340
11
144
4.5
309
CONTENTFORMAT_END
171
     1
301
MARGIN
  1
CELLMARGIN_BEGIN
 40
1.5
 40
1.5
 40
1.5
 40
1.5
 40
4.5
 40
4.5
309
CELLMARGIN_END
 94
        6
 95
        1
302
GRIDFORMAT
  1
GRIDFORMAT_BEGIN
 90
        0
 91
        1
 62
     0
 92
       -2
340
14
 93
        0
 40
1.125
309
GRIDFORMAT_END
 95
        2
302
GRIDFORMAT
  1
GRIDFORMAT_BEGIN
 90
        0
 91
        1
 62
     0
 92
       -2
340
14
 93
        0
 40
1.125
309
GRIDFORMAT_END
 95
        4
302
GRIDFORMAT
  1
GRIDFORMAT_BEGIN
 90
        0
 91
        1
 62
     0
 92
       -2
340
14
 93
        0
 40
1.125
309
GRIDFORMAT_END
 95
        8
302
GRIDFORMAT
  1
GRIDFORMAT_BEGIN
 90
        0
 91
        1
 62
     0
 92
       -2
340
14
 93
        0
 40
1.125
309
GRIDFORMAT_END
 95
       16
302
GRIDFORMAT
  1
GRIDFORMAT_BEGIN
 90
        0
 91
        1
 62
     0
 92
       -2
340
14
 93
        0
 40
1.125
309
GRIDFORMAT_END
 95
       32
302
GRIDFORMAT
  1
GRIDFORMAT_BEGIN
 90
        0
 91
        1
 62
     0
 92
       -2
340
14
 93
        0
 40
1.125
309
GRIDFORMAT_END
309
TABLEFORMAT_END
  1
CELLSTYLE_BEGIN
 90
        3
 91
        2
300
_DATA
309
CELLSTYLE_END
  0
ENDSEC
  0
SECTION
  2
ACDSDATA
 70
     2
 71
     8
  0
ACDSSCHEMA
 90
        0
  1
AcDb_Thumbnail_Schema
  2
AcDbDs::ID
280
    10
 91
        8
  2
Thumbnail_Data
280
    15
 91
        0
101
ACDSRECORD
 95
        0
 90
        1
  2
AcDbDs::TreatedAsObjectData
280
     1
291
     1
101
ACDSRECORD
 95
        0
 90
        2
  2
AcDbDs::Legacy
280
     1
291
     1
101
ACDSRECORD
  1
AcDbDs::ID
 90
        3
  2
AcDs:Indexable
280
     1
291
     1
101
ACDSRECORD
  1
AcDbDs::ID
 90
        4
  2
AcDbDs::HandleAttribute
280
     7
282
     1
  0
ACDSSCHEMA
 90
        1
  1
AcDbDs::TreatedAsObjectDataSchema
  2
AcDbDs::TreatedAsObjectData
280
     1
 91
        0
  0
ACDSSCHEMA
 90
        2
  1
AcDbDs::LegacySchema
  2
AcDbDs::Legacy
280
     1
 91
        0
  0
ACDSSCHEMA
 90
        3
  1
AcDbDs::IndexedPropertySchema
  2
AcDs:Indexable
280
     1
 91
        0
  0
ACDSSCHEMA
 90
        4
  1
AcDbDs::HandleAttributeSchema
  2
AcDbDs::HandleAttribute
280
     7
 91
        1
284
     1
  0
ACDSRECORD
 90
        0
  2
AcDbDs::ID
280
    10
320
22
  2
Thumbnail_Data
280
    15
 94
     3520
310
89504E470D0A1A0A0000000D49484452000001340000010008030000000AB47A1600000300504C5445212830000000C8C8C80000000000000000000000000000000000000000000000000000330000660000990000CC0000FF0033000033330033660033990033CC0033FF0066000066330066660066990066CC0066FF0099
310
000099330099660099990099CC0099FF00CC0000CC3300CC6600CC9900CCCC00CCFF00FF0000FF3300FF6600FF9900FFCC00FFFF3300003300333300663300993300CC3300FF3333003333333333663333993333CC3333FF3366003366333366663366993366CC3366FF3399003399333399663399993399CC3399FF33CC00
310
33CC3333CC6633CC9933CCCC33CCFF33FF0033FF3333FF6633FF9933FFCC33FFFF6600006600336600666600996600CC6600FF6633006633336633666633996633CC6633FF6666006666336666666666996666CC6666FF6699006699336699666699996699CC6699FF66CC0066CC3366CC6666CC9966CCCC66CCFF66FF0066
310
FF3366FF6666FF9966FFCC66FFFF9900009900339900669900999900CC9900FF9933009933339933669933999933CC9933FF9966009966339966669966999966CC9966FF9999009999339999669999999999CC9999FF99CC0099CC3399CC6699CC9999CCCC99CCFF99FF0099FF3399FF6699FF9999FFCC99FFFFCC0000CC00
310
33CC0066CC0099CC00CCCC00FFCC3300CC3333CC3366CC3399CC33CCCC33FFCC6600CC6633CC6666CC6699CC66CCCC66FFCC9900CC9933CC9966CC9999CC99CCCC99FFCCCC00CCCC33CCCC66CCCC99CCCCCCCCCCFFCCFF00CCFF33CCFF66CCFF99CCFFCCCCFFFFFF0000FF0033FF0066FF0099FF00CCFF00FFFF3300FF3333
310
FF3366FF3399FF33CCFF33FFFF6600FF6633FF6666FF6699FF66CCFF66FFFF9900FF9933FF9966FF9999FF99CCFF99FFFFCC00FFCC33FFCC66FFCC99FFCCCCFFCCFFFFFF00FFFF33FFFF66FFFF99FFFFCCFFFFFF0000000D0D0D1A1A1A2828283535354343435050505D5D5D6B6B6B787878868686939393A1A1A1AEAEAEBB
310
BBBBC9C9C9D6D6D6E4E4E4F1F1F1FFFFFF000000000000000000000000000000000000000000000000000000000000B21171F600000A7B4944415478DAED9D5BC2AA3A0C85339CF5E2FC27E3347CFF7F91B6496F14845270E59CBD758B5AF84C93D5D28B088D46A3D168341A8D46A3D168341A8D46A3D168341A8D46A3D168
310
341A8D46A3D168341A8D46A3D168D7B417AD6674900D2E4504BB41630DAC554C7ADA061F23B4FDA03D69A9F5F6B4A779FE5CF989A6D79FA57FEC55C439D0F06FC7429B4BB81934391CDACD3CED7D45C6D3E0AE12CE43BCAB38CCEE0FFC5B9EEA65F3FA3394E0A1554BA815912DE1146862A17DCE0616C2FCC463FE9C7102CD
310
BCEE9DCB95E0A0D54BA815912DE19CEA691301FC45BA13F39E92B841E94AA7AB53D5D326827A09B522B2250C903D11FC4019E20AAD6A892C795A943D174AA815318EA74592C35FD2F410859E10053357F4F91C9C3F7C72724672D44BA814912F6184EC395D8C40D522888969A176953C2DC4AA6CF6AC97502B225BC249D913
310
A87B9A851627B10C34B18920D269F5126A45644B18029A3F5DFB73E7A3B488C99EDE8FDCD12CB46A09B522B2259C05ED58718B9B89DBB7014737A98F2DE1020D7640A7AE5F6DB0ABEA5900F235B410D310DB0A68C8DA29D07CB66F84A6AEA0724536A6896BDEFE2AB4C24557A1F9E6ED9ED0CEAC9E1ADACA98169F7A357BE2
310
EB983618B4A32587DCAB1372D2031D2407283932B1E86725072A9689695BEE1100CB855C005A486D8741AB498E8B4293ADD0DAB3A7C8EDA01D2F397C1177896958790B6F23344A0E4A8E95926383B8BD772F47D327F2ADC6DF1A9650951CFB40530DF6DB248295D0B6B53D096D2DB41B7ADAF13756E47643ADC2FD430EB56A
310
D6691C3E7ABCE40025C7170DF69F4E04612424A11D0A8D3A4DD6C7344A8E75926303344A0E4A8E2F06C0B06B481613811F39B105DA0D755A53F6FC069A1F24FADBD0D6F772E0AE5D4387498E5B7ADAC13ACDCF2EE1DDA86106DD0AA7636F520084466884466884466884466884466884466884361434376F1C84B60E5AB83F
310
44686DD0E66EC7DB506B878693ED9AD04E3D4F42DB56C7098DD0088DD0088DD0088DD0088DD0088DD0088DD0088DD0088DD008ADB5D0AB432B9CFF119B76DD1F9A347DCF6F41F34ED4026DA7DDE3E0BFECB29EB6B469D7E3B8DDC0EE034D1E228FCF1FF7DFE7617A344FFE9F3ED44BD35BFD07C57D87B877D8622E0DED7D39
310
A29CEA8362FEFBF1D07CA66BFFBCE6DFE09FCD07C47D70FE90F8639F5FC421BBB0A7FD9FF674810A5AF03477E589A73DFC93BCA7859715DA899A83F62EF1FD535D135A523DC3B1877950A9E291BCC7DA43F2EFBC4BF57C9DB86DE57FEA1EE91E7B333438DF42597260FE9642A2C537926324A9D60E2D3C2941535CF76A87C1
310
3CC1C5A0E9B3C7C27BF66316411B855A233473F268BAC05DDAFB71330A3783566F266EBCDAE44BABE9009DB2451BB486D07208B3DCB796BF0ABD465BF681B6F94A202BA801E8538197A1A51B62A2FA0E24C7BEB81044DF5428C5BFDA67A0690334ED60396830613ADA3C46BE1BF9894C2985B88AAFDD7A3F68F02AC3EC2B1A
310
87DFB0171A7674340D4DFD36D96A38163440CC7E85D15929AAC9D1AF275DC0564ED8028785A61DACE86952F634D9CBD3022964EBE758D024DEC1B11ED30A39E2FBEA89A0D5EC0F01FBD3E0F02CDA20399AB267FC2C3DB65BF684E47274DCD03B195AD2A8C4BA26D44ED02A4D5B8B11B5B65E7F718B65C9BF6773202F6E6B0A
310
ADD3BCA0752D022C83417F685A93608C4430183454DF7A74C5DCD2CB7122B42547BB0E349898E28559FC4EBDAF724B174FAD6B482E072D6E7BCE3B75CF42C93D78A914448217C951BBCA046CE80DBF6F00CDFA4CDC840A38F44EEF4A8D0677948077FE0CA2D6431EDA22B3CB408387E665B993E3889B1008FEA8AB2822851A
310
35BB6C8F7155475CC7D33C2898EA2980DA25CC938504A2F37B32CABEE469A8F7665FC6D3B4FE4E7A77359F2847344B4F1B4BAFE66999F0D473BA3F5403E9A2D016BABE0A3D25A6B9BF527234A87D9F57EE024DB40C91A2E4481B8D16DA82A7E1EBEEBBBDA115BBCCCAE23DEB06081A25951C99AEDFE6AA871E3D69DBA055BA
310
AAB00CCD91CA4A0ED33BBB05DA4077A3F683E6F3695E7220B3B88E090A4BD9136A279241A085FAB9099A6E21AC951C50DAF75AD05ECDD076ECE9800E57F90EC6F8C058D0A6F1AF6FC3A39B4D45CDF308F48DFC6C82C5FBFC5E63417B8FE17CD414268EF0B4C73CBADB34A34AD05E84E6A0618626CBD0DE2E394E7F1AF01E33
310
8B47F765D31E78976BC2162A9EF67A0D17D31A3D6D3F579B3C4DE609185AF6E7A0B9F1D0434193095A253DE11868D3AC15A32B4CEB4A437BCFD460F6F4D933EA9853FD6F01E0F4A38EE669B2D041B17FFD44F8C57CCBA218D3649EA8310EB4D7D916A475A97ACAA4D3C6F234F5DBBEBA78DA4B7D284033DE1555CF0113C199
310
566946B9C7D780D9D3C0AB3846F1DB6043636349AFAC6ACC85BD8F32797558847CCB8ACAA8D426779565689B1241E565036D6E3C5C0A5AF89673A02957BF0A345D9B5ECBF9646F68AF2B426B4B1BBB2FE46D0FECBD9A4A57683B19569E419F5323B49F8036C01E1A97DB63A5D3FDE07B411342A3A7F5723442DB901AD640E3
310
9EC51B9D2243F2D712C12ED0BE6B8C101AA1111AA13111DCDAD3088DD0088D316D5C686C46D1D3CE850635C6414D6D4806B1EB21D0EEB59F80162FC2F20F2D9AD31BBA503223FF8130837757687E3122B1AB8A84D98DE7EC5AFC147502AEF89CA7F933473C1D017220B46A1A3F6BF3E1E069AAE40FB4745AA4FF6D454183AC
310
87D6789D168C489879AD66929D040DD13A04CED32C3389A600EB6501A395E37684665CCA0F2946985278C62ED74F09AB30848B7E4AD81D5E825BB5AE40BC17341133971D7A36146CCC13132CBAC6B4F1244743AF4A1AE27E5DDC26845405B5A900FD26678E2E6ED3B016962EB1AB98744C0B73F6943811205A8445EC4FEAF4
310
517E62EEBED0A22C1A5E0ED914FE9DDDD6F1F5CB1C859886C2DA186A3D11A331D742833446A0B80A4A1CBED2CAD95372A8122768EAF734C23F083594EEE6B765CFB600A44395CE9F88745CEFC58F4D94C87A9AF7FC9D3C2D99B85B63A6C383F6F8284A0435DCB37A2631CD785A3EA6E5AF77654CABB51F51581D4689BD506B
310
7B7A9AA8D52DFA64CFF6DEE0444B980A29BD57BB3C53A7418BFD6A348AA085F69398C5E83A8BDB53745A165A7D530054168DB455F8AE3DB7B91A85C26058E9EE48DB7B397AB6084276A9B508B4921D029AE0F4067BD9D3046619C3F3A93D5D15B03A6D1868439AEE4F23B4759E26A7C6B41A34D554CBD7CB2076BB415777A3
310
D037A625CBFFE7F624C8E9E07553C36E246EB11D1AF46D957C57EE903A2D1C47F640E3BE51586AB767C948D436486F4C9DDD738B25684FE3B3F20DB442332A594BAFE366312D9D900914A4EBB2EBE3EF2EA467E2634D2D82D675DCF2F7007AB7D0B3D0D46DF4B2A72186563CFD4D8960095AA153E38C5987C1D31AA0A1E669
310
D38BCF76688D4224EEEA8E319E074DEC1A9D31B452F53431CD83FB8D5143906835D8CDD9F31B717B2568FF86CF5F98FE1FE966318AC386E4C43430F8CDE2B2B895AE779F2E06ADA2324E74B567AE1DC331B7CDE276486819F78A87C4F5AFACD17D4F0C0DAD6D7B8CCE2D82E13D2D074EDFB6ED7DB358EFD23E143449368FC9
310
A129ACC1DD237B32110CDC097987EC59D569D6ED8A479EBF263996A0A9A06B8FA870FC73D0AA8980D0F2BD1C71B226B4264F0BFD7984D62C6EEDC868426BA99ED1064A4767CF3F5195935E5FC3590D0000000049454E44AE426082
  0
ACDSRECORD
 90
        0
  2
AcDbDs::ID
280
    10
320
D3
  2
Thumbnail_Data
280
    15
 94
     1155
310
89504E470D0A1A0A0000000D4948445200000100000000B5080300000087DCD12600000300504C5445FFFFFF000000C8C8C80000000000000000000000000000000000000000000000000000330000660000990000CC0000FF0033000033330033660033990033CC0033FF0066000066330066660066990066CC0066FF0099
310
000099330099660099990099CC0099FF00CC0000CC3300CC6600CC9900CCCC00CCFF00FF0000FF3300FF6600FF9900FFCC00FFFF3300003300333300663300993300CC3300FF3333003333333333663333993333CC3333FF3366003366333366663366993366CC3366FF3399003399333399663399993399CC3399FF33CC00
310
33CC3333CC6633CC9933CCCC33CCFF33FF0033FF3333FF6633FF9933FFCC33FFFF6600006600336600666600996600CC6600FF6633006633336633666633996633CC6633FF6666006666336666666666996666CC6666FF6699006699336699666699996699CC6699FF66CC0066CC3366CC6666CC9966CCCC66CCFF66FF0066
310
FF3366FF6666FF9966FFCC66FFFF9900009900339900669900999900CC9900FF9933009933339933669933999933CC9933FF9966009966339966669966999966CC9966FF9999009999339999669999999999CC9999FF99CC0099CC3399CC6699CC9999CCCC99CCFF99FF0099FF3399FF6699FF9999FFCC99FFFFCC0000CC00
310
33CC0066CC0099CC00CCCC00FFCC3300CC3333CC3366CC3399CC33CCCC33FFCC6600CC6633CC6666CC6699CC66CCCC66FFCC9900CC9933CC9966CC9999CC99CCCC99FFCCCC00CCCC33CCCC66CCCC99CCCCCCCCCCFFCCFF00CCFF33CCFF66CCFF99CCFFCCCCFFFFFF0000FF0033FF0066FF0099FF00CCFF00FFFF3300FF3333
310
FF3366FF3399FF33CCFF33FFFF6600FF6633FF6666FF6699FF66CCFF66FFFF9900FF9933FF9966FF9999FF99CCFF99FFFFCC00FFCC33FFCC66FFCC99FFCCCCFFCCFFFFFF00FFFF33FFFF66FFFF99FFFFCCFFFFFF0000000D0D0D1A1A1A2828283535354343435050505D5D5D6B6B6B787878868686939393A1A1A1AEAEAEBB
310
BBBBC9C9C9D6D6D6E4E4E4F1F1F1FFFFFF000000000000000000000000000000000000000000000000000000000000B0E2D2350000013E4944415478DAEDDDB11184301443C1DF7F998A5D0483134A30A07540018FB1F6A26356F99935D547801D20C97EB43D9F009D6F3FAE8000AE8000020860040570050410800214A080
310
0D1040000A508002364000012840010AD8000104A000052860030410800214A0800D1040000A508002364000012840010AD8000104A000052860030410800214A0800D104080BF2A9093E70D0AE4F05B39AE404B80082080004650005740000104A000056C80000250800214B001020840010A50C006082000052840011B20
310
800014A000056C80000250800214B001020840010A50C006082000052840011B20800014A000056C80000250800214B001020840010A50C006082000052840011B20800014A000056C80000250800214B0015F0F50F2EFF2BE2F303EB222802B208000021841016C407D80FD1BBCEF690304B803949F0B2119936F10150AC9
310
0000000049454E44AE426082
  0
ACDSRECORD
 90
        0
  2
AcDbDs::ID
280
    10
320
D7
  2
Thumbnail_Data
280
    15
 94
     1868
310
89504E470D0A1A0A0000000D4948445200000100000000B5080300000087DCD12600000300504C5445FFFFFF000000C8C8C80000000000000000000000000000000000000000000000000000330000660000990000CC0000FF0033000033330033660033990033CC0033FF0066000066330066660066990066CC0066FF0099
310
000099330099660099990099CC0099FF00CC0000CC3300CC6600CC9900CCCC00CCFF00FF0000FF3300FF6600FF9900FFCC00FFFF3300003300333300663300993300CC3300FF3333003333333333663333993333CC3333FF3366003366333366663366993366CC3366FF3399003399333399663399993399CC3399FF33CC00
310
33CC3333CC6633CC9933CCCC33CCFF33FF0033FF3333FF6633FF9933FFCC33FFFF6600006600336600666600996600CC6600FF6633006633336633666633996633CC6633FF6666006666336666666666996666CC6666FF6699006699336699666699996699CC6699FF66CC0066CC3366CC6666CC9966CCCC66CCFF66FF0066
310
FF3366FF6666FF9966FFCC66FFFF9900009900339900669900999900CC9900FF9933009933339933669933999933CC9933FF9966009966339966669966999966CC9966FF9999009999339999669999999999CC9999FF99CC0099CC3399CC6699CC9999CCCC99CCFF99FF0099FF3399FF6699FF9999FFCC99FFFFCC0000CC00
310
33CC0066CC0099CC00CCCC00FFCC3300CC3333CC3366CC3399CC33CCCC33FFCC6600CC6633CC6666CC6699CC66CCCC66FFCC9900CC9933CC9966CC9999CC99CCCC99FFCCCC00CCCC33CCCC66CCCC99CCCCCCCCCCFFCCFF00CCFF33CCFF66CCFF99CCFFCCCCFFFFFF0000FF0033FF0066FF0099FF00CCFF00FFFF3300FF3333
310
FF3366FF3399FF33CCFF33FFFF6600FF6633FF6666FF6699FF66CCFF66FFFF9900FF9933FF9966FF9999FF99CCFF99FFFFCC00FFCC33FFCC66FFCC99FFCCCCFFCCFFFFFF00FFFF33FFFF66FFFF99FFFFCCFFFFFF0000000D0D0D1A1A1A2828283535354343435050505D5D5D6B6B6B787878868686939393A1A1A1AEAEAEBB
310
BBBBC9C9C9D6D6D6E4E4E4F1F1F1FFFFFF000000000000000000000000000000000000000000000000000000000000B0E2D235000004074944415478DAED9D4996AB300C45BD1C4DB2FF05781B8C34AE4514364D6C42938001DB5C551D120CC53FDC484F6E44BEF97BB8993FF368030000000080A9696BF56EF1804D005AF3
310
FD2A0000000044100084000000000044100084000000F00B0029CC926701D9386E3FFEADA4F6EB472DFB45301900A34D22537325004D08C035DBF1A80DCF6ABDB4E99DD56FFC4E33DF9A0E8002202B009F36DF5A2B80E866BBDD5EC2A3D6AB3DC05CE701FDAE7F6DFC3BDF6AFAD67173AD089ACB4360FEED13B240BF2B7299
310
0720829989A04C6FF859006E10C12359C0FE686AB559391C2ADFA607B417FBD18AC80276DCB541EBE7A533C902893DE0074BE8010A806C44D08CC7E6FEF8AC1000403E22780F802359A00A0D200BA001002004C8020040030000000020820020040000801C0134B72F8CDC2C82E302C9DB9E950582BA00A96475782C5BB351
310
B1DD1280B132663CB1740D5800E0DA16003411801A1647874F7CA0B10120F480D2B3C0A47AD3FEEC01A5678179006B22E83DA0A6B14004E05B0D68A2A5F3B2B3C05208AC7B4027FFB794C9A5174179F7032271B32B1E3084BF5456221345C00D1A50C25860A64AE6596381DE031A5F2EE5DF3F6C2C70AA07143023F4AE8E63
310
3EA0EE42C9550F90B3E6032E0690EE91A9222B45935A0695A2B628CB200B44717E6856788F65A001000040A1004CCD000C000881DD00AAE8072082004004014008000000170338F6D53FD96481039D92A4A71538235418801342C0C8B60688917A354045555FED8FFB55ED5E5EDDCEEBE57FDB53720770C01DDBBB7B39D3EE
310
25B4A1C501A87630E443A08B031B5E691A0229F3404E630131EF82181B5EE85303E46C00778C05A28A201B7ECE3180B47D810C9E1D0EBE2CC45583880CBB4B493038A92E0D7021E03666D480B94EA0A44D84396501B15F7584DD79596781233D417F6FB202A40F812C009853D2A073F2A127284B69B0D6192155E9BB3BC64E
310
3B42C6F46FDA8E50CA8E404E63017D03109902185BDADE72CA8171563D41F563810DBBC603EE9A119221F66D78AD8906D43C25F6D570987501D6055817605A1C0000200B9005C802680000004016200B9005D0000000802C4016200BA00100000059802C507216F8AE3EBA620D90C803E2E55F6B1E07601A024501D85F1FD4
310
7D9BC2E2B1DC9E1B4C2B82BE50BAAB13F6E5D1417D70501F5D4416485D28ADA9EBA3737D5EC0FFA1FFAFA3A71A20CFE809CAA2080260D84DFCC0547100923F3266B27A6A4C368F0CD5B2993F35B6CF03C2F2C7CF8EF0B8B92A04AECF02AA2B21E0BE244BBAF279AD540374AD4A74A88E755BA3D903D8178BEB00C6A74924A3
310
AEF0791DA1FEB6E78440CD43B3C0099FFD6959A0304B9E05EA3005000000B053042B3500100200000000104100100200000000C673DC5C6DB55BB2000000000000C4001E6EFFB5E7A6659E470B9C0000000049454E44AE426082
  0
ENDSEC
  0
EOF
