  0
SECTION
  2
HEADER
  9
$ACADVER
  1
AC1027
  9
$ACADMAINTVER
 70
   106
  9
$DWGCODEPAGE
  3
ANSI_932
  9
$LASTSAVEDBY
  1
takamura205
  9
$REQUIREDVERSIONS
160
                 0
  9
$INSBASE
 10
0.0
 20
0.0
 30
0.0
  9
$EXTMIN
 10
33316.24093491148
 20
28289.23237812787
 30
0.0
  9
$EXTMAX
 10
34996.24093491148
 20
29477.23237812787
 30
0.0
  9
$LIMMIN
 10
0.0
 20
0.0
  9
$LIMMAX
 10
420.0
 20
297.0
  9
$ORTHOMODE
 70
     0
  9
$REGENMODE
 70
     1
  9
$FILLMODE
 70
     1
  9
$QTEXTMODE
 70
     0
  9
$MIRRTEXT
 70
     0
  9
$LTSCALE
 40
1.0
  9
$ATTMODE
 70
     1
  9
$TEXTSIZE
 40
2.5
  9
$TRACEWID
 40
1.0
  9
$TEXTSTYLE
  7
Standard
  9
$CLAYER
  8
寸法線
  9
$CELTYPE
  6
ByLayer
  9
$CECOLOR
 62
   256
  9
$CELTSCALE
 40
1.0
  9
$DISPSILH
 70
     0
  9
$DIMSCALE
 40
1.0
  9
$DIMASZ
 40
2.5
  9
$DIMEXO
 40
0.625
  9
$DIMDLI
 40
3.75
  9
$DIMRND
 40
0.0
  9
$DIMDLE
 40
0.0
  9
$DIMEXE
 40
1.25
  9
$DIMTP
 40
0.0
  9
$DIMTM
 40
0.0
  9
$DIMTXT
 40
20.0
  9
$DIMCEN
 40
2.5
  9
$DIMTSZ
 40
0.0
  9
$DIMTOL
 70
     0
  9
$DIMLIM
 70
     0
  9
$DIMTIH
 70
     0
  9
$DIMTOH
 70
     0
  9
$DIMSE1
 70
     0
  9
$DIMSE2
 70
     0
  9
$DIMTAD
 70
     1
  9
$DIMZIN
 70
     8
  9
$DIMBLK
  1

  9
$DIMASO
 70
     1
  9
$DIMSHO
 70
     1
  9
$DIMPOST
  1

  9
$DIMAPOST
  1

  9
$DIMALT
 70
     0
  9
$DIMALTD
 70
     3
  9
$DIMALTF
 40
0.03937007874016
  9
$DIMLFAC
 40
1.0
  9
$DIMTOFL
 70
     1
  9
$DIMTVP
 40
0.0
  9
$DIMTIX
 70
     0
  9
$DIMSOXD
 70
     0
  9
$DIMSAH
 70
     0
  9
$DIMBLK1
  1

  9
$DIMBLK2
  1

  9
$DIMSTYLE
  2
ISO-25
  9
$DIMCLRD
 70
     0
  9
$DIMCLRE
 70
     0
  9
$DIMCLRT
 70
     0
  9
$DIMTFAC
 40
1.0
  9
$DIMGAP
 40
0.625
  9
$DIMJUST
 70
     0
  9
$DIMSD1
 70
     0
  9
$DIMSD2
 70
     0
  9
$DIMTOLJ
 70
     0
  9
$DIMTZIN
 70
     8
  9
$DIMALTZ
 70
     0
  9
$DIMALTTZ
 70
     0
  9
$DIMUPT
 70
     0
  9
$DIMDEC
 70
     2
  9
$DIMTDEC
 70
     2
  9
$DIMALTU
 70
     2
  9
$DIMALTTD
 70
     3
  9
$DIMTXSTY
  7
Standard
  9
$DIMAUNIT
 70
     0
  9
$DIMADEC
 70
     0
  9
$DIMALTRND
 40
0.0
  9
$DIMAZIN
 70
     0
  9
$DIMDSEP
 70
    44
  9
$DIMATFIT
 70
     3
  9
$DIMFRAC
 70
     0
  9
$DIMLDRBLK
  1

  9
$DIMLUNIT
 70
     2
  9
$DIMLWD
 70
    -2
  9
$DIMLWE
 70
    -2
  9
$DIMTMOVE
 70
     0
  9
$DIMFXL
 40
1.0
  9
$DIMFXLON
 70
     0
  9
$DIMJOGANG
 40
0.7853981633974483
  9
$DIMTFILL
 70
     0
  9
$DIMTFILLCLR
 70
     0
  9
$DIMARCSYM
 70
     0
  9
$DIMLTYPE
  6

  9
$DIMLTEX1
  6

  9
$DIMLTEX2
  6

  9
$DIMTXTDIRECTION
 70
     0
  9
$LUNITS
 70
     2
  9
$LUPREC
 70
     4
  9
$SKETCHINC
 40
1.0
  9
$FILLETRAD
 40
1.0
  9
$AUNITS
 70
     0
  9
$AUPREC
 70
     0
  9
$MENU
  1
.
  9
$ELEVATION
 40
0.0
  9
$PELEVATION
 40
0.0
  9
$THICKNESS
 40
0.0
  9
$LIMCHECK
 70
     0
  9
$CHAMFERA
 40
0.0
  9
$CHAMFERB
 40
0.0
  9
$CHAMFERC
 40
0.0
  9
$CHAMFERD
 40
0.0
  9
$SKPOLY
 70
     0
  9
$TDCREATE
 40
2457175.672123785
  9
$TDUCREATE
 40
2457175.297123785
  9
$TDUPDATE
 40
2457871.481347407
  9
$TDUUPDATE
 40
2457871.106347408
  9
$TDINDWG
 40
0.9245658218
  9
$TDUSRTIMER
 40
0.9245657176
  9
$USRTIMER
 70
     1
  9
$ANGBASE
 50
0.0
  9
$ANGDIR
 70
     0
  9
$PDMODE
 70
     0
  9
$PDSIZE
 40
0.0
  9
$PLINEWID
 40
0.0
  9
$SPLFRAME
 70
     0
  9
$SPLINETYPE
 70
     6
  9
$SPLINESEGS
 70
     8
  9
$HANDSEED
  5
28FB
  9
$SURFTAB1
 70
     6
  9
$SURFTAB2
 70
     6
  9
$SURFTYPE
 70
     6
  9
$SURFU
 70
     6
  9
$SURFV
 70
     6
  9
$UCSBASE
  2

  9
$UCSNAME
  2

  9
$UCSORG
 10
0.0
 20
0.0
 30
0.0
  9
$UCSXDIR
 10
1.0
 20
0.0
 30
0.0
  9
$UCSYDIR
 10
0.0
 20
1.0
 30
0.0
  9
$UCSORTHOREF
  2

  9
$UCSORTHOVIEW
 70
     0
  9
$UCSORGTOP
 10
0.0
 20
0.0
 30
0.0
  9
$UCSORGBOTTOM
 10
0.0
 20
0.0
 30
0.0
  9
$UCSORGLEFT
 10
0.0
 20
0.0
 30
0.0
  9
$UCSORGRIGHT
 10
0.0
 20
0.0
 30
0.0
  9
$UCSORGFRONT
 10
0.0
 20
0.0
 30
0.0
  9
$UCSORGBACK
 10
0.0
 20
0.0
 30
0.0
  9
$PUCSBASE
  2

  9
$PUCSNAME
  2

  9
$PUCSORG
 10
0.0
 20
0.0
 30
0.0
  9
$PUCSXDIR
 10
1.0
 20
0.0
 30
0.0
  9
$PUCSYDIR
 10
0.0
 20
1.0
 30
0.0
  9
$PUCSORTHOREF
  2

  9
$PUCSORTHOVIEW
 70
     0
  9
$PUCSORGTOP
 10
0.0
 20
0.0
 30
0.0
  9
$PUCSORGBOTTOM
 10
0.0
 20
0.0
 30
0.0
  9
$PUCSORGLEFT
 10
0.0
 20
0.0
 30
0.0
  9
$PUCSORGRIGHT
 10
0.0
 20
0.0
 30
0.0
  9
$PUCSORGFRONT
 10
0.0
 20
0.0
 30
0.0
  9
$PUCSORGBACK
 10
0.0
 20
0.0
 30
0.0
  9
$USERI1
 70
     0
  9
$USERI2
 70
     0
  9
$USERI3
 70
     0
  9
$USERI4
 70
     0
  9
$USERI5
 70
     0
  9
$USERR1
 40
0.0
  9
$USERR2
 40
0.0
  9
$USERR3
 40
0.0
  9
$USERR4
 40
0.0
  9
$USERR5
 40
0.0
  9
$WORLDVIEW
 70
     1
  9
$SHADEDGE
 70
     3
  9
$SHADEDIF
 70
    70
  9
$TILEMODE
 70
     1
  9
$MAXACTVP
 70
    64
  9
$PINSBASE
 10
0.0
 20
0.0
 30
0.0
  9
$PLIMCHECK
 70
     0
  9
$PEXTMIN
 10
25.69999999999999
 20
19.5
 30
0.0
  9
$PEXTMAX
 10
231.3
 20
175.5
 30
0.0
  9
$PLIMMIN
 10
-4.9847412109375
 20
-4.984749794006347
  9
$PLIMMAX
 10
415.0042419433593
 20
292.0259008407593
  9
$UNITMODE
 70
     0
  9
$VISRETAIN
 70
     1
  9
$PLINEGEN
 70
     0
  9
$PSLTSCALE
 70
     1
  9
$TREEDEPTH
 70
  3020
  9
$CMLSTYLE
  2
Standard
  9
$CMLJUST
 70
     0
  9
$CMLSCALE
 40
20.0
  9
$PROXYGRAPHICS
 70
     1
  9
$MEASUREMENT
 70
     1
  9
$CELWEIGHT
370
    -1
  9
$ENDCAPS
280
     0
  9
$JOINSTYLE
280
     0
  9
$LWDISPLAY
290
     0
  9
$INSUNITS
 70
     4
  9
$HYPERLINKBASE
  1

  9
$STYLESHEET
  1
monochrome.stb
  9
$XEDIT
290
     1
  9
$CEPSNTYPE
380
     0
  9
$PSTYLEMODE
290
     0
  9
$FINGERPRINTGUID
  2
{083708C7-F509-4151-B42C-06F3721D7F80}
  9
$VERSIONGUID
  2
{48A910AD-8A72-4CF7-B911-FE62D3472F56}
  9
$EXTNAMES
290
     1
  9
$PSVPSCALE
 40
0.0
  9
$OLESTARTUP
290
     0
  9
$SORTENTS
280
   127
  9
$INDEXCTL
280
     0
  9
$HIDETEXT
280
     1
  9
$XCLIPFRAME
280
     2
  9
$HALOGAP
280
     0
  9
$OBSCOLOR
 70
   257
  9
$OBSLTYPE
280
     0
  9
$INTERSECTIONDISPLAY
280
     0
  9
$INTERSECTIONCOLOR
 70
   257
  9
$DIMASSOC
280
     2
  9
$PROJECTNAME
  1

  9
$CAMERADISPLAY
290
     0
  9
$LENSLENGTH
 40
50.0
  9
$CAMERAHEIGHT
 40
1524.0
  9
$STEPSPERSEC
 40
2.0
  9
$STEPSIZE
 40
6.0
  9
$3DDWFPREC
 40
2.0
  9
$PSOLWIDTH
 40
5.0
  9
$PSOLHEIGHT
 40
80.0
  9
$LOFTANG1
 40
1.570796326794896
  9
$LOFTANG2
 40
1.570796326794896
  9
$LOFTMAG1
 40
0.0
  9
$LOFTMAG2
 40
0.0
  9
$LOFTPARAM
 70
     7
  9
$LOFTNORMALS
280
     1
  9
$LATITUDE
 40
37.795
  9
$LONGITUDE
 40
-122.394
  9
$NORTHDIRECTION
 40
0.0
  9
$TIMEZONE
 70
 -8000
  9
$LIGHTGLYPHDISPLAY
280
     1
  9
$TILEMODELIGHTSYNCH
280
     1
  9
$CMATERIAL
347
E3
  9
$SOLIDHIST
280
     0
  9
$SHOWHIST
280
     1
  9
$DWFFRAME
280
     2
  9
$DGNFRAME
280
     0
  9
$REALWORLDSCALE
290
     1
  9
$INTERFERECOLOR
 62
     1
  9
$INTERFEREOBJVS
345
F0
  9
$INTERFEREVPVS
346
ED
  9
$CSHADOW
280
     0
  9
$SHADOWPLANELOCATION
 40
0.0
  0
ENDSEC
  0
SECTION
  2
CLASSES
  0
CLASS
  1
ACDBDICTIONARYWDFLT
  2
AcDbDictionaryWithDefault
  3
ObjectDBX Classes
 90
        0
 91
        1
280
     0
281
     0
  0
CLASS
  1
DICTIONARYVAR
  2
AcDbDictionaryVar
  3
ObjectDBX Classes
 90
        0
 91
       10
280
     0
281
     0
  0
CLASS
  1
TABLESTYLE
  2
AcDbTableStyle
  3
ObjectDBX Classes
 90
     4095
 91
        1
280
     0
281
     0
  0
CLASS
  1
MATERIAL
  2
AcDbMaterial
  3
ObjectDBX Classes
 90
     1153
 91
        3
280
     0
281
     0
  0
CLASS
  1
VISUALSTYLE
  2
AcDbVisualStyle
  3
ObjectDBX Classes
 90
     4095
 91
       24
280
     0
281
     0
  0
CLASS
  1
SCALE
  2
AcDbScale
  3
ObjectDBX Classes
 90
     1153
 91
       17
280
     0
281
     0
  0
CLASS
  1
MLEADERSTYLE
  2
AcDbMLeaderStyle
  3
ACDB_MLEADERSTYLE_CLASS
 90
     4095
 91
        2
280
     0
281
     0
  0
CLASS
  1
CELLSTYLEMAP
  2
AcDbCellStyleMap
  3
ObjectDBX Classes
 90
     1152
 91
        1
280
     0
281
     0
  0
CLASS
  1
EXACXREFPANELOBJECT
  2
ExAcXREFPanelObject
  3
EXAC_ESW
 90
     1025
 91
        0
280
     0
281
     0
  0
CLASS
  1
NPOCOLLECTION
  2
AcDbImpNonPersistentObjectsCollection
  3
ObjectDBX Classes
 90
     1153
 91
        0
280
     0
281
     0
  0
CLASS
  1
LAYER_INDEX
  2
AcDbLayerIndex
  3
ObjectDBX Classes
 90
        0
 91
        0
280
     0
281
     0
  0
CLASS
  1
SPATIAL_INDEX
  2
AcDbSpatialIndex
  3
ObjectDBX Classes
 90
        0
 91
        0
280
     0
281
     0
  0
CLASS
  1
IDBUFFER
  2
AcDbIdBuffer
  3
ObjectDBX Classes
 90
        0
 91
        0
280
     0
281
     0
  0
CLASS
  1
ACDBSECTIONVIEWSTYLE
  2
AcDbSectionViewStyle
  3
ObjectDBX Classes
 90
     1025
 91
        1
280
     0
281
     0
  0
CLASS
  1
ACDBDETAILVIEWSTYLE
  2
AcDbDetailViewStyle
  3
ObjectDBX Classes
 90
     1025
 91
        1
280
     0
281
     0
  0
CLASS
  1
DIMASSOC
  2
AcDbDimAssoc
  3
"AcDbDimAssoc|Product Desc:     AcDim ARX App For Dimension|Company:          Autodesk, Inc.|WEB Address:      www.autodesk.com"
 90
        0
 91
        8
280
     0
281
     0
  0
CLASS
  1
SORTENTSTABLE
  2
AcDbSortentsTable
  3
ObjectDBX Classes
 90
        0
 91
        1
280
     0
281
     0
  0
CLASS
  1
PLOTSETTINGS
  2
AcDbPlotSettings
  3
ObjectDBX Classes
 90
        0
 91
        1
280
     0
281
     0
  0
ENDSEC
  0
SECTION
  2
TABLES
  0
TABLE
  2
VPORT
  5
8
330
0
100
AcDbSymbolTable
 70
     1
  0
VPORT
  5
E1
330
8
100
AcDbSymbolTableRecord
100
AcDbViewportTableRecord
  2
*Active
 70
     0
 10
0.0
 20
0.0
 11
1.0
 21
1.0
 12
34759.01817394134
 22
29452.12135073501
 13
0.0
 23
0.0
 14
10.0
 24
10.0
 15
10.0
 25
10.0
 16
0.0
 26
0.0
 36
1.0
 17
0.0
 27
0.0
 37
0.0
 40
3876.95106439117
 41
1.203585147247119
 42
50.0
 43
0.0
 44
0.0
 50
0.0
 51
0.0
 71
     0
 72
  1000
 73
     1
 74
     3
 75
     0
 76
     1
 77
     0
 78
     0
281
     0
 65
     1
110
0.0
120
0.0
130
0.0
111
1.0
121
0.0
131
0.0
112
0.0
122
1.0
132
0.0
 79
     0
146
0.0
348
EC
 60
     3
 61
     5
292
     1
282
     1
141
0.0
142
0.0
 63
   250
421
  3355443
1001
ACAD_NAV_VCDISPLAY
1070
     3
  0
ENDTAB
  0
TABLE
  2
LTYPE
  5
5
330
0
100
AcDbSymbolTable
 70
     4
  0
LTYPE
  5
14
330
5
100
AcDbSymbolTableRecord
100
AcDbLinetypeTableRecord
  2
ByBlock
 70
     0
  3

 72
    65
 73
     0
 40
0.0
  0
LTYPE
  5
15
330
5
100
AcDbSymbolTableRecord
100
AcDbLinetypeTableRecord
  2
ByLayer
 70
     0
  3

 72
    65
 73
     0
 40
0.0
  0
LTYPE
  5
16
330
5
100
AcDbSymbolTableRecord
100
AcDbLinetypeTableRecord
  2
Continuous
 70
     0
  3
Solid line
 72
    65
 73
     0
 40
0.0
  0
LTYPE
  5
25A
330
5
100
AcDbSymbolTableRecord
100
AcDbLinetypeTableRecord
  2
ACAD_ISO04W100
 70
     0
  3
ISO long-dash dot ____ . ____ . ____ . ____ . _
 72
    65
 73
     4
 40
30.0
 49
24.0
 74
     0
 49
-3.0
 74
     0
 49
0.0
 74
     0
 49
-3.0
 74
     0
  0
LTYPE
  5
25E
330
5
100
AcDbSymbolTableRecord
100
AcDbLinetypeTableRecord
  2
ACAD_ISO02W100
 70
     0
  3
ISO dash __ __ __ __ __ __ __ __ __ __ __ __ __
 72
    65
 73
     2
 40
15.0
 49
12.0
 74
     0
 49
-3.0
 74
     0
  0
LTYPE
  5
260
330
5
100
AcDbSymbolTableRecord
100
AcDbLinetypeTableRecord
  2
ACAD_ISO07W100
 70
     0
  3
ISO dot . . . . . . . . . . . . . . . . . . . .
 72
    65
 73
     2
 40
3.0
 49
0.0
 74
     0
 49
-3.0
 74
     0
  0
ENDTAB
  0
TABLE
  2
LAYER
  5
2
102
{ACAD_XDICTIONARY
360
1F6
102
}
330
0
100
AcDbSymbolTable
 70
    14
  0
LAYER
  5
10
102
{ACAD_XDICTIONARY
360
133
102
}
330
2
100
AcDbSymbolTableRecord
100
AcDbLayerTableRecord
  2
0
 70
     0
 62
     7
  6
Continuous
370
    -3
390
F
347
E5
348
0
  0
LAYER
  5
255
330
2
100
AcDbSymbolTableRecord
100
AcDbLayerTableRecord
  2
中心線
 70
     0
 62
     3
  6
ACAD_ISO04W100
370
     9
390
F
347
E5
348
0
1001
AcAecLayerStandard
1000

1000

1001
AcCmTransparency
1071
        0
  0
LAYER
  5
25B
330
2
100
AcDbSymbolTableRecord
100
AcDbLayerTableRecord
  2
外形線②
 70
     0
 62
     7
  6
Continuous
370
    15
390
F
347
E5
348
0
1001
AcAecLayerStandard
1000

1000

1001
AcCmTransparency
1071
        0
  0
LAYER
  5
25C
330
2
100
AcDbSymbolTableRecord
100
AcDbLayerTableRecord
  2
寸法線
 70
     0
 62
     3
  6
Continuous
370
    13
390
F
347
E5
348
0
1001
AcAecLayerStandard
1000

1000

1001
AcCmTransparency
1071
        0
  0
LAYER
  5
25D
330
2
100
AcDbSymbolTableRecord
100
AcDbLayerTableRecord
  2
点線
 70
     0
 62
     4
  6
ACAD_ISO02W100
370
     9
390
F
347
E5
348
0
1001
AcAecLayerStandard
1000

1000

1001
AcCmTransparency
1071
        0
  0
LAYER
  5
25F
330
2
100
AcDbSymbolTableRecord
100
AcDbLayerTableRecord
  2
オフセット
 70
     0
 62
    -6
  6
Continuous
370
    13
390
F
347
E5
348
0
1001
AcAecLayerStandard
1000

1000

1001
AcCmTransparency
1071
        0
  0
LAYER
  5
271
330
2
100
AcDbSymbolTableRecord
100
AcDbLayerTableRecord
  2
Defpoints
 70
     0
 62
     7
  6
Continuous
290
     0
370
    -3
390
F
347
E5
348
0
  0
LAYER
  5
2F1
330
2
100
AcDbSymbolTableRecord
100
AcDbLayerTableRecord
  2
ビューポート
 70
     0
 62
     3
  6
Continuous
370
    15
390
F
347
E5
348
0
1001
AcAecLayerStandard
1000

1000

1001
AcCmTransparency
1071
        0
  0
LAYER
  5
382
330
2
100
AcDbSymbolTableRecord
100
AcDbLayerTableRecord
  2
外形線
 70
     0
 62
     7
  6
Continuous
370
    15
390
F
347
E5
348
0
1001
AcAecLayerStandard
1000

1000

1001
AcCmTransparency
1071
        0
  0
LAYER
  5
430
330
2
100
AcDbSymbolTableRecord
100
AcDbLayerTableRecord
  2
LED器具
 70
     0
 62
     4
  6
Continuous
370
    13
390
F
347
E5
348
0
1001
AcAecLayerStandard
1000

1000

1001
AcCmTransparency
1071
        0
  0
LAYER
  5
44D
330
2
100
AcDbSymbolTableRecord
100
AcDbLayerTableRecord
  2
孔
 70
     0
 62
     4
  6
Continuous
370
    15
390
F
347
E5
348
0
1001
AcAecLayerStandard
1000

1000

1001
AcCmTransparency
1071
        0
  0
LAYER
  5
AAC
330
2
100
AcDbSymbolTableRecord
100
AcDbLayerTableRecord
  2
枠線
 70
     0
 62
     2
  6
Continuous
370
     9
390
F
347
E5
348
0
1001
AcAecLayerStandard
1000

1000

1001
AcCmTransparency
1071
        0
  0
LAYER
  5
CEA
102
{ACAD_XDICTIONARY
360
CEB
102
}
330
2
100
AcDbSymbolTableRecord
100
AcDbLayerTableRecord
  2
1
 70
     0
 62
     7
  6
Continuous
370
    -3
390
F
347
E5
348
0
  0
LAYER
  5
DBB
330
2
100
AcDbSymbolTableRecord
100
AcDbLayerTableRecord
  2
○
 70
     0
 62
     3
  6
Continuous
370
     9
390
F
347
E5
348
0
1001
AcAecLayerStandard
1000

1000

1001
AcCmTransparency
1071
        0
  0
ENDTAB
  0
TABLE
  2
STYLE
  5
3
330
0
100
AcDbSymbolTable
 70
     4
  0
STYLE
  5
11
330
3
100
AcDbSymbolTableRecord
100
AcDbTextStyleTableRecord
  2
Standard
 70
     0
 40
0.0
 41
1.0
 50
0.0
 71
     0
 42
2.5
  3
arial.ttf
  4

1001
ACAD
1000
Arial
1071
       34
  0
STYLE
  5
129
330
3
100
AcDbSymbolTableRecord
100
AcDbTextStyleTableRecord
  2
Annotative
 70
     0
 40
0.0
 41
1.0
 50
0.0
 71
     0
 42
2.5
  3
arial.ttf
  4

1001
AcadAnnotative
1000
AnnotativeData
1002
{
1070
     1
1070
     1
1002
}
1001
ACAD
1000
Arial
1071
       34
  0
STYLE
  5
259
330
3
100
AcDbSymbolTableRecord
100
AcDbTextStyleTableRecord
  2

 70
     1
 40
0.0
 41
1.0
 50
0.0
 71
     0
 42
2.5
  3
ltypeshp.shx
  4

  0
STYLE
  5
CEC
330
3
100
AcDbSymbolTableRecord
100
AcDbTextStyleTableRecord
  2
BIGFONT
 70
     0
 40
1.0
 41
1.0
 50
0.0
 71
     0
 42
1.0
  3
TXT
  4
BIGFONT
  0
ENDTAB
  0
TABLE
  2
VIEW
  5
6
330
0
100
AcDbSymbolTable
 70
     0
  0
ENDTAB
  0
TABLE
  2
UCS
  5
7
330
0
100
AcDbSymbolTable
 70
     0
  0
ENDTAB
  0
TABLE
  2
APPID
  5
9
330
0
100
AcDbSymbolTable
 70
    13
  0
APPID
  5
12
330
9
100
AcDbSymbolTableRecord
100
AcDbRegAppTableRecord
  2
ACAD
 70
     0
  0
APPID
  5
A0
330
9
100
AcDbSymbolTableRecord
100
AcDbRegAppTableRecord
  2
ACAD_PSEXT
 70
     0
  0
APPID
  5
12A
330
9
100
AcDbSymbolTableRecord
100
AcDbRegAppTableRecord
  2
AcadAnnoPO
 70
     0
  0
APPID
  5
12B
330
9
100
AcDbSymbolTableRecord
100
AcDbRegAppTableRecord
  2
AcadAnnotative
 70
     0
  0
APPID
  5
12C
330
9
100
AcDbSymbolTableRecord
100
AcDbRegAppTableRecord
  2
ACAD_DSTYLE_DIMJAG
 70
     0
  0
APPID
  5
12D
330
9
100
AcDbSymbolTableRecord
100
AcDbRegAppTableRecord
  2
ACAD_DSTYLE_DIMTALN
 70
     0
  0
APPID
  5
15C
330
9
100
AcDbSymbolTableRecord
100
AcDbRegAppTableRecord
  2
ACAD_MLEADERVER
 70
     0
  0
APPID
  5
20E
330
9
100
AcDbSymbolTableRecord
100
AcDbRegAppTableRecord
  2
ACAD_NAV_VCDISPLAY
 70
     0
  0
APPID
  5
256
330
9
100
AcDbSymbolTableRecord
100
AcDbRegAppTableRecord
  2
AcAecLayerStandard
 70
     0
  0
APPID
  5
257
330
9
100
AcDbSymbolTableRecord
100
AcDbRegAppTableRecord
  2
AcCmTransparency
 70
     0
  0
APPID
  5
264
330
9
100
AcDbSymbolTableRecord
100
AcDbRegAppTableRecord
  2
ACAD_EXEMPT_FROM_CAD_STANDARDS
 70
     0
  0
APPID
  5
26F
330
9
100
AcDbSymbolTableRecord
100
AcDbRegAppTableRecord
  2
ACAD_DSTYLE_DIMRADIAL_EXTENSION
 70
     0
  0
APPID
  5
A2B
330
9
100
AcDbSymbolTableRecord
100
AcDbRegAppTableRecord
  2
AcadAnnoMonitorAlertIconDisabled
 70
     0
  0
ENDTAB
  0
TABLE
  2
DIMSTYLE
  5
A
330
0
100
AcDbSymbolTable
 70
     3
100
AcDbDimStyleTable
 71
     2
340
27
340
12E
  0
DIMSTYLE
105
1A7
330
A
100
AcDbSymbolTableRecord
100
AcDbDimStyleTableRecord
  2
Standard
 70
     0
340
11
  0
DIMSTYLE
105
12E
330
A
100
AcDbSymbolTableRecord
100
AcDbDimStyleTableRecord
  2
Annotative
 70
     0
 40
0.0
 41
2.5
 42
0.625
 43
3.75
 44
1.25
 73
     0
 74
     0
 77
     1
 78
     8
140
2.5
141
2.5
143
0.03937007874016
147
0.625
171
     3
172
     1
271
     2
272
     2
274
     3
278
    44
283
     0
284
     8
340
11
1001
AcadAnnotative
1000
AnnotativeData
1002
{
1070
     1
1070
     1
1002
}
1001
ACAD_DSTYLE_DIMJAG
1070
   388
1040
1.5
1001
ACAD_DSTYLE_DIMTALN
1070
   392
1070
     0
  0
DIMSTYLE
105
27
102
{ACAD_REACTORS
330
27EB
330
27EE
330
27B8
330
27BB
330
27BE
330
27C1
330
27C4
330
27E8
102
}
330
A
100
AcDbSymbolTableRecord
100
AcDbDimStyleTableRecord
  2
ISO-25
 70
     0
 41
2.5
 42
0.625
 43
3.75
 44
1.25
 73
     0
 74
     0
 77
     1
 78
     8
140
20.0
141
2.5
143
0.03937007874016
147
0.625
171
     3
172
     1
271
     2
272
     2
274
     3
278
    44
283
     0
284
     8
340
11
1001
ACAD_DSTYLE_DIMJAG
1070
   388
1040
1.5
1001
ACAD_DSTYLE_DIMTALN
1070
   392
1070
     0
  0
ENDTAB
  0
TABLE
  2
BLOCK_RECORD
  5
1
330
0
100
AcDbSymbolTable
 70
     9
  0
BLOCK_RECORD
  5
1F
102
{ACAD_XDICTIONARY
360
1C5
102
}
330
1
100
AcDbSymbolTableRecord
100
AcDbBlockTableRecord
  2
*Model_Space
340
22
 70
     0
280
     1
281
     0
  0
BLOCK_RECORD
  5
D2
330
1
100
AcDbSymbolTableRecord
100
AcDbBlockTableRecord
  2
*Paper_Space
340
D3
 70
     0
280
     1
281
     0
  0
BLOCK_RECORD
  5
D6
330
1
100
AcDbSymbolTableRecord
100
AcDbBlockTableRecord
  2
*Paper_Space0
340
D7
 70
     0
280
     1
281
     0
  0
BLOCK_RECORD
  5
27F1
330
1
100
AcDbSymbolTableRecord
100
AcDbBlockTableRecord
  2
*D1
340
0
 70
     0
280
     1
281
     0
  0
BLOCK_RECORD
  5
27FE
330
1
100
AcDbSymbolTableRecord
100
AcDbBlockTableRecord
  2
*D2
340
0
 70
     0
280
     1
281
     0
  0
BLOCK_RECORD
  5
280B
330
1
100
AcDbSymbolTableRecord
100
AcDbBlockTableRecord
  2
*D3
340
0
 70
     0
280
     1
281
     0
  0
BLOCK_RECORD
  5
2817
330
1
100
AcDbSymbolTableRecord
100
AcDbBlockTableRecord
  2
*D4
340
0
 70
     0
280
     1
281
     0
  0
BLOCK_RECORD
  5
2823
330
1
100
AcDbSymbolTableRecord
100
AcDbBlockTableRecord
  2
*D5
340
0
 70
     0
280
     1
281
     0
  0
BLOCK_RECORD
  5
282F
330
1
100
AcDbSymbolTableRecord
100
AcDbBlockTableRecord
  2
*D6
340
0
 70
     0
280
     1
281
     0
  0
BLOCK_RECORD
  5
283D
330
1
100
AcDbSymbolTableRecord
100
AcDbBlockTableRecord
  2
*D7
340
0
 70
     0
280
     1
281
     0
  0
BLOCK_RECORD
  5
2849
330
1
100
AcDbSymbolTableRecord
100
AcDbBlockTableRecord
  2
*D8
340
0
 70
     0
280
     1
281
     0
  0
ENDTAB
  0
ENDSEC
  0
SECTION
  2
BLOCKS
  0
BLOCK
  5
20
330
1F
100
AcDbEntity
  8
0
100
AcDbBlockBegin
  2
*Model_Space
 70
     0
 10
0.0
 20
0.0
 30
0.0
  3
*Model_Space
  1

  0
ENDBLK
  5
21
330
1F
100
AcDbEntity
  8
0
100
AcDbBlockEnd
  0
BLOCK
  5
D4
330
D2
100
AcDbEntity
 67
     1
  8
0
100
AcDbBlockBegin
  2
*Paper_Space
 70
     0
 10
0.0
 20
0.0
 30
0.0
  3
*Paper_Space
  1

  0
ENDBLK
  5
D5
330
D2
100
AcDbEntity
 67
     1
  8
0
100
AcDbBlockEnd
  0
BLOCK
  5
D8
330
D6
100
AcDbEntity
 67
     1
  8
0
100
AcDbBlockBegin
  2
*Paper_Space0
 70
     0
 10
0.0
 20
0.0
 30
0.0
  3
*Paper_Space0
  1

  0
ENDBLK
  5
D9
330
D6
100
AcDbEntity
 67
     1
  8
0
100
AcDbBlockEnd
  0
BLOCK
  5
27F2
330
27F1
100
AcDbEntity
  8
0
100
AcDbBlockBegin
  2
*D1
 70
     1
 10
0.0
 20
0.0
 30
0.0
  3
*D1
  1

  0
LINE
  5
27F4
330
27F1
100
AcDbEntity
  8
寸法線
 62
     0
440
 16777216
370
    -2
100
AcDbLine
 10
34475.32906245074
 20
28776.97826060757
 30
0.0
 11
34475.32906245074
 21
28840.45502077574
 31
0.0
  0
LINE
  5
27F5
330
27F1
100
AcDbEntity
  8
寸法線
 62
     0
440
 16777216
370
    -2
100
AcDbLine
 10
34455.12906245074
 20
28710.77826095658
 30
0.0
 11
34455.12906245074
 21
28840.45502077574
 31
0.0
  0
LINE
  5
27F6
330
27F1
100
AcDbEntity
  8
寸法線
 62
     0
440
 16777216
370
    -2
100
AcDbLine
 10
34472.82906245074
 20
28839.20502077574
 30
0.0
 11
34457.62906245074
 21
28839.20502077574
 31
0.0
  0
LINE
  5
27F7
330
27F1
100
AcDbEntity
  8
寸法線
 62
     0
440
 16777216
370
    -2
100
AcDbLine
 10
34455.12906245074
 20
28839.20502077574
 30
0.0
 11
34399.29175003601
 21
28839.20502077574
 31
0.0
  0
SOLID
  5
27F8
330
27F1
100
AcDbEntity
  8
寸法線
 62
     0
440
 16777216
100
AcDbTrace
 10
34472.82906245074
 20
28839.62168744241
 30
0.0
 11
34472.82906245074
 21
28838.78835410908
 31
0.0
 12
34475.32906245074
 22
28839.20502077574
 32
0.0
 13
34475.32906245074
 23
28839.20502077574
 33
0.0
  0
SOLID
  5
27F9
330
27F1
100
AcDbEntity
  8
寸法線
 62
     0
440
 16777216
100
AcDbTrace
 10
34457.62906245074
 20
28839.62168744241
 30
0.0
 11
34457.62906245074
 21
28838.78835410908
 31
0.0
 12
34455.12906245074
 22
28839.20502077574
 32
0.0
 13
34455.12906245074
 23
28839.20502077574
 33
0.0
  0
MTEXT
  5
27FA
330
27F1
100
AcDbEntity
  8
寸法線
 62
     0
440
 16777216
100
AcDbMText
 10
34425.96040624337
 20
28851.84912036646
 30
0.0
 40
20.0
 41
0.0
 46
0.0
 71
     5
 72
     1
  1
20,2
 73
     1
 44
1.0
  0
POINT
  5
27FB
330
27F1
100
AcDbEntity
  8
Defpoints
 62
     0
440
 16777216
100
AcDbPoint
 10
34475.32906245074
 20
28776.35326060756
 30
0.0
  0
POINT
  5
27FC
330
27F1
100
AcDbEntity
  8
Defpoints
 62
     0
440
 16777216
100
AcDbPoint
 10
34455.12906245074
 20
28710.15326095658
 30
0.0
  0
POINT
  5
27FD
330
27F1
100
AcDbEntity
  8
Defpoints
 62
     0
440
 16777216
100
AcDbPoint
 10
34455.12906245074
 20
28839.20502077574
 30
0.0
  0
ENDBLK
  5
27F3
330
27F1
100
AcDbEntity
  8
0
100
AcDbBlockEnd
  0
BLOCK
  5
27FF
330
27FE
100
AcDbEntity
  8
0
100
AcDbBlockBegin
  2
*D2
 70
     1
 10
0.0
 20
0.0
 30
0.0
  3
*D2
  1

  0
LINE
  5
2801
330
27FE
100
AcDbEntity
  8
寸法線
 62
     0
440
 16777216
370
    -2
100
AcDbLine
 10
34475.32906245074
 20
28776.97826060757
 30
0.0
 11
34475.32906245074
 21
28840.45502077574
 31
0.0
  0
LINE
  5
2802
330
27FE
100
AcDbEntity
  8
寸法線
 62
     0
440
 16777216
370
    -2
100
AcDbLine
 10
34500.12906245074
 20
28710.77826095658
 30
0.0
 11
34500.12906245074
 21
28840.45502077574
 31
0.0
  0
LINE
  5
2803
330
27FE
100
AcDbEntity
  8
寸法線
 62
     0
440
 16777216
370
    -2
100
AcDbLine
 10
34477.82906245074
 20
28839.20502077574
 30
0.0
 11
34497.62906245074
 21
28839.20502077574
 31
0.0
  0
LINE
  5
2804
330
27FE
100
AcDbEntity
  8
寸法線
 62
     0
440
 16777216
370
    -2
100
AcDbLine
 10
34500.12906245074
 20
28839.20502077574
 30
0.0
 11
34556.21194103192
 21
28839.20502077574
 31
0.0
  0
SOLID
  5
2805
330
27FE
100
AcDbEntity
  8
寸法線
 62
     0
440
 16777216
100
AcDbTrace
 10
34477.82906245074
 20
28839.62168744241
 30
0.0
 11
34477.82906245074
 21
28838.78835410908
 31
0.0
 12
34475.32906245074
 22
28839.20502077574
 32
0.0
 13
34475.32906245074
 23
28839.20502077574
 33
0.0
  0
SOLID
  5
2806
330
27FE
100
AcDbEntity
  8
寸法線
 62
     0
440
 16777216
100
AcDbTrace
 10
34497.62906245074
 20
28839.62168744241
 30
0.0
 11
34497.62906245074
 21
28838.78835410908
 31
0.0
 12
34500.12906245074
 22
28839.20502077574
 32
0.0
 13
34500.12906245074
 23
28839.20502077574
 33
0.0
  0
MTEXT
  5
2807
330
27FE
100
AcDbEntity
  8
寸法線
 62
     0
440
 16777216
100
AcDbMText
 10
34529.42050174133
 20
28851.84912036646
 30
0.0
 40
20.0
 41
0.0
 46
0.0
 71
     5
 72
     1
  1
24,8
 73
     1
 44
1.0
  0
POINT
  5
2808
330
27FE
100
AcDbEntity
  8
Defpoints
 62
     0
440
 16777216
100
AcDbPoint
 10
34475.32906245074
 20
28776.35326060756
 30
0.0
  0
POINT
  5
2809
330
27FE
100
AcDbEntity
  8
Defpoints
 62
     0
440
 16777216
100
AcDbPoint
 10
34500.12906245074
 20
28710.15326095658
 30
0.0
  0
POINT
  5
280A
330
27FE
100
AcDbEntity
  8
Defpoints
 62
     0
440
 16777216
100
AcDbPoint
 10
34500.12906245074
 20
28839.20502077574
 30
0.0
  0
ENDBLK
  5
2800
330
27FE
100
AcDbEntity
  8
0
100
AcDbBlockEnd
  0
BLOCK
  5
280C
330
280B
100
AcDbEntity
  8
0
100
AcDbBlockBegin
  2
*D3
 70
     1
 10
0.0
 20
0.0
 30
0.0
  3
*D3
  1

  0
LINE
  5
280E
330
280B
100
AcDbEntity
  8
寸法線
 62
     0
440
 16777216
370
    -2
100
AcDbLine
 10
33421.57906368178
 20
29065.89721026549
 30
0.0
 11
33421.57906368178
 21
29154.7544255647
 31
0.0
  0
LINE
  5
280F
330
280B
100
AcDbEntity
  8
寸法線
 62
     0
440
 16777216
370
    -2
100
AcDbLine
 10
34294.57906368178
 20
29065.89721026549
 30
0.0
 11
34294.57906368178
 21
29154.7544255647
 31
0.0
  0
LINE
  5
2810
330
280B
100
AcDbEntity
  8
寸法線
 62
     0
440
 16777216
370
    -2
100
AcDbLine
 10
33424.07906368178
 20
29153.50442556469
 30
0.0
 11
34292.07906368178
 21
29153.50442556469
 31
0.0
  0
SOLID
  5
2811
330
280B
100
AcDbEntity
  8
寸法線
 62
     0
440
 16777216
100
AcDbTrace
 10
33424.07906368178
 20
29153.92109223136
 30
0.0
 11
33424.07906368178
 21
29153.08775889803
 31
0.0
 12
33421.57906368178
 22
29153.50442556469
 32
0.0
 13
33421.57906368178
 23
29153.50442556469
 33
0.0
  0
SOLID
  5
2812
330
280B
100
AcDbEntity
  8
寸法線
 62
     0
440
 16777216
100
AcDbTrace
 10
34292.07906368178
 20
29153.92109223136
 30
0.0
 11
34292.07906368178
 21
29153.08775889803
 31
0.0
 12
34294.57906368178
 22
29153.50442556469
 32
0.0
 13
34294.57906368178
 23
29153.50442556469
 33
0.0
  0
MTEXT
  5
2813
330
280B
100
AcDbEntity
  8
寸法線
 62
     0
440
 16777216
100
AcDbMText
 10
33858.07906368178
 20
29164.34770660153
 30
0.0
 40
20.0
 41
0.0
 46
0.0
 71
     5
 72
     1
  1
873
 73
     1
 44
1.0
  0
POINT
  5
2814
330
280B
100
AcDbEntity
  8
Defpoints
 62
     0
440
 16777216
100
AcDbPoint
 10
33421.57906368178
 20
29065.27221026549
 30
0.0
  0
POINT
  5
2815
330
280B
100
AcDbEntity
  8
Defpoints
 62
     0
440
 16777216
100
AcDbPoint
 10
34294.57906368178
 20
29065.27221026549
 30
0.0
  0
POINT
  5
2816
330
280B
100
AcDbEntity
  8
Defpoints
 62
     0
440
 16777216
100
AcDbPoint
 10
34294.57906368178
 20
29153.50442556469
 30
0.0
  0
ENDBLK
  5
280D
330
280B
100
AcDbEntity
  8
0
100
AcDbBlockEnd
  0
BLOCK
  5
2818
330
2817
100
AcDbEntity
  8
0
100
AcDbBlockBegin
  2
*D4
 70
     1
 10
0.0
 20
0.0
 30
0.0
  3
*D4
  1

  0
LINE
  5
281A
330
2817
100
AcDbEntity
  8
寸法線
 62
     0
440
 16777216
370
    -2
100
AcDbLine
 10
34294.20406368177
 20
28773.35326060755
 30
0.0
 11
34408.6987461933
 21
28773.35326060755
 31
0.0
  0
LINE
  5
281B
330
2817
100
AcDbEntity
  8
寸法線
 62
     0
440
 16777216
370
    -2
100
AcDbLine
 10
34294.20406368181
 20
28678.35326060756
 30
0.0
 11
34408.6987461933
 21
28678.35326060756
 31
0.0
  0
LINE
  5
281C
330
2817
100
AcDbEntity
  8
寸法線
 62
     0
440
 16777216
370
    -2
100
AcDbLine
 10
34407.4487461933
 20
28770.85326060755
 30
0.0
 11
34407.4487461933
 21
28680.85326060755
 31
0.0
  0
SOLID
  5
281D
330
2817
100
AcDbEntity
  8
寸法線
 62
     0
440
 16777216
100
AcDbTrace
 10
34407.03207952663
 20
28770.85326060755
 30
0.0
 11
34407.86541285996
 21
28770.85326060755
 31
0.0
 12
34407.4487461933
 22
28773.35326060755
 32
0.0
 13
34407.4487461933
 23
28773.35326060755
 33
0.0
  0
SOLID
  5
281E
330
2817
100
AcDbEntity
  8
寸法線
 62
     0
440
 16777216
100
AcDbTrace
 10
34407.03207952663
 20
28680.85326060755
 30
0.0
 11
34407.86541285996
 21
28680.85326060755
 31
0.0
 12
34407.4487461933
 22
28678.35326060756
 32
0.0
 13
34407.4487461933
 23
28678.35326060756
 33
0.0
  0
MTEXT
  5
281F
330
2817
100
AcDbEntity
  8
寸法線
 62
     0
440
 16777216
100
AcDbMText
 10
34396.61228643885
 20
28725.85326060756
 30
0.0
 40
20.0
 41
0.0
 46
0.0
 71
     5
 72
     1
  1
95
 11
0.0000000000000001
 21
1.0
 31
0.0
 73
     1
 44
1.0
  0
POINT
  5
2820
330
2817
100
AcDbEntity
  8
Defpoints
 62
     0
440
 16777216
100
AcDbPoint
 10
34293.57906368177
 20
28773.35326060755
 30
0.0
  0
POINT
  5
2821
330
2817
100
AcDbEntity
  8
Defpoints
 62
     0
440
 16777216
100
AcDbPoint
 10
34293.57906368181
 20
28678.35326060756
 30
0.0
  0
POINT
  5
2822
330
2817
100
AcDbEntity
  8
Defpoints
 62
     0
440
 16777216
100
AcDbPoint
 10
34407.4487461933
 20
28678.35326060756
 30
0.0
  0
ENDBLK
  5
2819
330
2817
100
AcDbEntity
  8
0
100
AcDbBlockEnd
  0
BLOCK
  5
2824
330
2823
100
AcDbEntity
  8
0
100
AcDbBlockBegin
  2
*D5
 70
     1
 10
0.0
 20
0.0
 30
0.0
  3
*D5
  1

  0
LINE
  5
2826
330
2823
100
AcDbEntity
  8
寸法線
 62
     0
440
 16777216
370
    -2
100
AcDbLine
 10
34294.20406368177
 20
28757.10326060756
 30
0.0
 11
34360.05939480459
 21
28757.10326060756
 31
0.0
  0
LINE
  5
2827
330
2823
100
AcDbEntity
  8
寸法線
 62
     0
440
 16777216
370
    -2
100
AcDbLine
 10
34294.20406368178
 20
28678.35326060756
 30
0.0
 11
34360.05939480459
 21
28678.35326060756
 31
0.0
  0
LINE
  5
2828
330
2823
100
AcDbEntity
  8
寸法線
 62
     0
440
 16777216
370
    -2
100
AcDbLine
 10
34358.8093948046
 20
28754.60326060757
 30
0.0
 11
34358.8093948046
 21
28680.85326060755
 31
0.0
  0
SOLID
  5
2829
330
2823
100
AcDbEntity
  8
寸法線
 62
     0
440
 16777216
100
AcDbTrace
 10
34358.39272813793
 20
28754.60326060757
 30
0.0
 11
34359.22606147126
 21
28754.60326060757
 31
0.0
 12
34358.8093948046
 22
28757.10326060756
 32
0.0
 13
34358.8093948046
 23
28757.10326060756
 33
0.0
  0
SOLID
  5
282A
330
2823
100
AcDbEntity
  8
寸法線
 62
     0
440
 16777216
100
AcDbTrace
 10
34358.39272813793
 20
28680.85326060755
 30
0.0
 11
34359.22606147126
 21
28680.85326060755
 31
0.0
 12
34358.8093948046
 22
28678.35326060756
 32
0.0
 13
34358.8093948046
 23
28678.35326060756
 33
0.0
  0
MTEXT
  5
282B
330
2823
100
AcDbEntity
  8
寸法線
 62
     0
440
 16777216
100
AcDbMText
 10
34346.16529521386
 20
28717.72826060757
 30
0.0
 40
20.0
 41
0.0
 46
0.0
 71
     5
 72
     1
  1
78,75
 11
0.0000000000000001
 21
1.0
 31
0.0
 73
     1
 44
1.0
  0
POINT
  5
282C
330
2823
100
AcDbEntity
  8
Defpoints
 62
     0
440
 16777216
100
AcDbPoint
 10
34293.57906368177
 20
28757.10326060756
 30
0.0
  0
POINT
  5
282D
330
2823
100
AcDbEntity
  8
Defpoints
 62
     0
440
 16777216
100
AcDbPoint
 10
34293.57906368178
 20
28678.35326060756
 30
0.0
  0
POINT
  5
282E
330
2823
100
AcDbEntity
  8
Defpoints
 62
     0
440
 16777216
100
AcDbPoint
 10
34358.8093948046
 20
28678.35326060756
 30
0.0
  0
ENDBLK
  5
2825
330
2823
100
AcDbEntity
  8
0
100
AcDbBlockEnd
  0
BLOCK
  5
2830
330
282F
100
AcDbEntity
  8
0
100
AcDbBlockBegin
  2
*D6
 70
     1
 10
0.0
 20
0.0
 30
0.0
  3
*D6
  1

  0
LINE
  5
2832
330
282F
100
AcDbEntity
  8
寸法線
 62
     0
440
 16777216
370
    -2
100
AcDbLine
 10
34294.20406368178
 20
28678.35326060756
 30
0.0
 11
34408.6987461933
 21
28678.35326060756
 31
0.0
  0
LINE
  5
2833
330
282F
100
AcDbEntity
  8
寸法線
 62
     0
440
 16777216
370
    -2
100
AcDbLine
 10
34255.20406368178
 20
28674.35326060755
 30
0.0
 11
34408.6987461933
 21
28674.35326060755
 31
0.0
  0
LINE
  5
2834
330
282F
100
AcDbEntity
  8
寸法線
 62
     0
440
 16777216
370
    -2
100
AcDbLine
 10
34407.4487461933
 20
28680.85326060755
 30
0.0
 11
34407.4487461933
 21
28683.35326060755
 31
0.0
  0
LINE
  5
2835
330
282F
100
AcDbEntity
  8
寸法線
 62
     0
440
 16777216
370
    -2
100
AcDbLine
 10
34407.4487461933
 20
28671.85326060755
 30
0.0
 11
34407.4487461933
 21
28654.26969989814
 31
0.0
  0
LINE
  5
2836
330
282F
100
AcDbEntity
  8
寸法線
 62
     0
440
 16777216
370
    -2
100
AcDbLine
 10
34407.4487461933
 20
28678.35326060756
 30
0.0
 11
34407.4487461933
 21
28674.35326060755
 31
0.0
  0
SOLID
  5
2837
330
282F
100
AcDbEntity
  8
寸法線
 62
     0
440
 16777216
100
AcDbTrace
 10
34407.03207952663
 20
28680.85326060755
 30
0.0
 11
34407.86541285996
 21
28680.85326060755
 31
0.0
 12
34407.4487461933
 22
28678.35326060756
 32
0.0
 13
34407.4487461933
 23
28678.35326060756
 33
0.0
  0
SOLID
  5
2838
330
282F
100
AcDbEntity
  8
寸法線
 62
     0
440
 16777216
100
AcDbTrace
 10
34407.03207952663
 20
28671.85326060755
 30
0.0
 11
34407.86541285996
 21
28671.85326060755
 31
0.0
 12
34407.4487461933
 22
28674.35326060755
 32
0.0
 13
34407.4487461933
 23
28674.35326060755
 33
0.0
  0
MTEXT
  5
2839
330
282F
100
AcDbEntity
  8
寸法線
 62
     0
440
 16777216
100
AcDbMText
 10
34396.82374619329
 20
28661.81148025285
 30
0.0
 40
20.0
 41
0.0
 46
0.0
 71
     5
 72
     1
  1
4
 11
0.0000000000000001
 21
1.0
 31
0.0
 73
     1
 44
1.0
  0
POINT
  5
283A
330
282F
100
AcDbEntity
  8
Defpoints
 62
     0
440
 16777216
100
AcDbPoint
 10
34293.57906368178
 20
28678.35326060756
 30
0.0
  0
POINT
  5
283B
330
282F
100
AcDbEntity
  8
Defpoints
 62
     0
440
 16777216
100
AcDbPoint
 10
34254.57906368178
 20
28674.35326060755
 30
0.0
  0
POINT
  5
283C
330
282F
100
AcDbEntity
  8
Defpoints
 62
     0
440
 16777216
100
AcDbPoint
 10
34407.4487461933
 20
28674.35326060755
 30
0.0
  0
ENDBLK
  5
2831
330
282F
100
AcDbEntity
  8
0
100
AcDbBlockEnd
  0
BLOCK
  5
283E
330
283D
100
AcDbEntity
  8
0
100
AcDbBlockBegin
  2
*D7
 70
     1
 10
0.0
 20
0.0
 30
0.0
  3
*D7
  1

  0
LINE
  5
2840
330
283D
100
AcDbEntity
  8
寸法線
 62
     0
440
 16777216
370
    -2
100
AcDbLine
 10
34466.45406245074
 20
28674.35326095658
 30
0.0
 11
34437.66848634375
 21
28674.35326095658
 31
0.0
  0
LINE
  5
2841
330
283D
100
AcDbEntity
  8
寸法線
 62
     0
440
 16777216
370
    -2
100
AcDbLine
 10
34474.70406245074
 20
28773.35326060757
 30
0.0
 11
34437.66848634375
 21
28773.35326060757
 31
0.0
  0
LINE
  5
2842
330
283D
100
AcDbEntity
  8
寸法線
 62
     0
440
 16777216
370
    -2
100
AcDbLine
 10
34438.91848634375
 20
28676.85326095658
 30
0.0
 11
34438.91848634375
 21
28770.85326060757
 31
0.0
  0
SOLID
  5
2843
330
283D
100
AcDbEntity
  8
寸法線
 62
     0
440
 16777216
100
AcDbTrace
 10
34438.50181967708
 20
28676.85326095658
 30
0.0
 11
34439.33515301041
 21
28676.85326095658
 31
0.0
 12
34438.91848634375
 22
28674.35326095658
 32
0.0
 13
34438.91848634375
 23
28674.35326095658
 33
0.0
  0
SOLID
  5
2844
330
283D
100
AcDbEntity
  8
寸法線
 62
     0
440
 16777216
100
AcDbTrace
 10
34438.50181967708
 20
28770.85326060757
 30
0.0
 11
34439.33515301041
 21
28770.85326060757
 31
0.0
 12
34438.91848634375
 22
28773.35326060757
 32
0.0
 13
34438.91848634375
 23
28773.35326060757
 33
0.0
  0
MTEXT
  5
2845
330
283D
100
AcDbEntity
  8
寸法線
 62
     0
440
 16777216
100
AcDbMText
 10
34428.08202658931
 20
28723.85326078207
 30
0.0
 40
20.0
 41
0.0
 46
0.0
 71
     5
 72
     1
  1
99
 11
0.0000000000000001
 21
1.0
 31
0.0
 73
     1
 44
1.0
  0
POINT
  5
2846
330
283D
100
AcDbEntity
  8
Defpoints
 62
     0
440
 16777216
100
AcDbPoint
 10
34467.07906245074
 20
28674.35326095658
 30
0.0
  0
POINT
  5
2847
330
283D
100
AcDbEntity
  8
Defpoints
 62
     0
440
 16777216
100
AcDbPoint
 10
34475.32906245074
 20
28773.35326060757
 30
0.0
  0
POINT
  5
2848
330
283D
100
AcDbEntity
  8
Defpoints
 62
     0
440
 16777216
100
AcDbPoint
 10
34438.91848634375
 20
28773.35326060757
 30
0.0
  0
ENDBLK
  5
283F
330
283D
100
AcDbEntity
  8
0
100
AcDbBlockEnd
  0
BLOCK
  5
284A
330
2849
100
AcDbEntity
  8
0
100
AcDbBlockBegin
  2
*D8
 70
     1
 10
0.0
 20
0.0
 30
0.0
  3
*D8
  1

  0
LINE
  5
284C
330
2849
100
AcDbEntity
  8
寸法線
 62
     0
440
 16777216
370
    -2
100
AcDbLine
 10
34455.12906245074
 20
28710.77826095658
 30
0.0
 11
34455.12906245074
 21
28873.85326060758
 31
0.0
  0
LINE
  5
284D
330
2849
100
AcDbEntity
  8
寸法線
 62
     0
440
 16777216
370
    -2
100
AcDbLine
 10
34500.12906245074
 20
28710.77826095658
 30
0.0
 11
34500.12906245074
 21
28873.85326060758
 31
0.0
  0
LINE
  5
284E
330
2849
100
AcDbEntity
  8
寸法線
 62
     0
440
 16777216
370
    -2
100
AcDbLine
 10
34457.62906245074
 20
28872.60326060757
 30
0.0
 11
34497.62906245074
 21
28872.60326060757
 31
0.0
  0
SOLID
  5
284F
330
2849
100
AcDbEntity
  8
寸法線
 62
     0
440
 16777216
100
AcDbTrace
 10
34457.62906245074
 20
28873.01992727424
 30
0.0
 11
34457.62906245074
 21
28872.18659394091
 31
0.0
 12
34455.12906245074
 22
28872.60326060757
 32
0.0
 13
34455.12906245074
 23
28872.60326060757
 33
0.0
  0
SOLID
  5
2850
330
2849
100
AcDbEntity
  8
寸法線
 62
     0
440
 16777216
100
AcDbTrace
 10
34497.62906245074
 20
28873.01992727424
 30
0.0
 11
34497.62906245074
 21
28872.18659394091
 31
0.0
 12
34500.12906245074
 22
28872.60326060757
 32
0.0
 13
34500.12906245074
 23
28872.60326060757
 33
0.0
  0
MTEXT
  5
2851
330
2849
100
AcDbEntity
  8
寸法線
 62
     0
440
 16777216
100
AcDbMText
 10
34477.62906245074
 20
28883.3987926676
 30
0.0
 40
20.0
 41
0.0
 46
0.0
 71
     5
 72
     1
  1
45
 73
     1
 44
1.0
  0
POINT
  5
2852
330
2849
100
AcDbEntity
  8
Defpoints
 62
     0
440
 16777216
100
AcDbPoint
 10
34455.12906245074
 20
28710.15326095658
 30
0.0
  0
POINT
  5
2853
330
2849
100
AcDbEntity
  8
Defpoints
 62
     0
440
 16777216
100
AcDbPoint
 10
34500.12906245074
 20
28710.15326095658
 30
0.0
  0
POINT
  5
2854
330
2849
100
AcDbEntity
  8
Defpoints
 62
     0
440
 16777216
100
AcDbPoint
 10
34500.12906245074
 20
28872.60326060757
 30
0.0
  0
ENDBLK
  5
284B
330
2849
100
AcDbEntity
  8
0
100
AcDbBlockEnd
  0
ENDSEC
  0
SECTION
  2
ENTITIES
  0
XLINE
  5
7E4
330
1F
100
AcDbEntity
  8
オフセット
100
AcDbXline
 10
32915.44093491146
 20
28102.11527306976
 30
0.0
 11
-1.0
 21
0.0
 31
0.0
  0
XLINE
  5
873
330
1F
100
AcDbEntity
  8
オフセット
100
AcDbXline
 10
32915.44093491146
 20
28273.73237812786
 30
0.0
 11
-1.0
 21
0.0
 31
0.0
  0
XLINE
  5
9A0
330
1F
100
AcDbEntity
  8
オフセット
100
AcDbXline
 10
32915.44093491146
 20
28288.23237812785
 30
0.0
 11
-1.0
 21
0.0
 31
0.0
  0
XLINE
  5
9A1
330
1F
100
AcDbEntity
  8
オフセット
100
AcDbXline
 10
32915.44093491146
 20
28259.23237812785
 30
0.0
 11
-1.0
 21
0.0
 31
0.0
  0
XLINE
  5
9A2
330
1F
100
AcDbEntity
  8
オフセット
100
AcDbXline
 10
32915.44093491146
 20
28288.73237812786
 30
0.0
 11
-1.0
 21
0.0
 31
0.0
  0
XLINE
  5
9A3
330
1F
100
AcDbEntity
  8
オフセット
100
AcDbXline
 10
32915.44093491146
 20
28258.73237812785
 30
0.0
 11
-1.0
 21
0.0
 31
0.0
  0
XLINE
  5
9A6
330
1F
100
AcDbEntity
  8
オフセット
100
AcDbXline
 10
32915.44093491146
 20
28289.23237812785
 30
0.0
 11
-1.0
 21
0.0
 31
0.0
  0
XLINE
  5
9A7
330
1F
100
AcDbEntity
  8
オフセット
100
AcDbXline
 10
32915.44093491146
 20
28258.23237812786
 30
0.0
 11
-1.0
 21
0.0
 31
0.0
  0
XLINE
  5
9C5
330
1F
100
AcDbEntity
  8
オフセット
100
AcDbXline
 10
32930.94093491146
 20
27902.11527306976
 30
0.0
 11
0.0
 21
-1.0
 31
0.0
  0
LINE
  5
B1F
330
1F
100
AcDbEntity
  8
枠線
100
AcDbLine
 10
34528.24093491148
 20
28322.23237812787
 30
0.0
 11
34528.24093491148
 21
28712.23237812787
 31
0.0
  0
LINE
  5
B20
330
1F
100
AcDbEntity
  8
枠線
100
AcDbLine
 10
34528.24093491148
 20
28712.23237812787
 30
0.0
 11
34948.24093491148
 21
28712.23237812787
 31
0.0
  0
LINE
  5
B21
330
1F
100
AcDbEntity
  8
枠線
100
AcDbLine
 10
34528.24093491148
 20
28364.23237812787
 30
0.0
 11
34948.24093491148
 21
28364.23237812787
 31
0.0
  0
LINE
  5
B22
330
1F
100
AcDbEntity
  8
枠線
100
AcDbLine
 10
34528.24093491148
 20
28406.23237812787
 30
0.0
 11
34948.24093491148
 21
28406.23237812787
 31
0.0
  0
LINE
  5
B23
330
1F
100
AcDbEntity
  8
枠線
100
AcDbLine
 10
34528.24093491148
 20
28448.23237812787
 30
0.0
 11
34948.24093491148
 21
28448.23237812787
 31
0.0
  0
LINE
  5
B24
330
1F
100
AcDbEntity
  8
枠線
100
AcDbLine
 10
34528.24093491148
 20
28490.23237812787
 30
0.0
 11
34948.24093491148
 21
28490.23237812787
 31
0.0
  0
LINE
  5
B25
330
1F
100
AcDbEntity
  8
枠線
100
AcDbLine
 10
34528.24093491148
 20
28532.23237812787
 30
0.0
 11
34948.24093491148
 21
28532.23237812787
 31
0.0
  0
LINE
  5
B26
330
1F
100
AcDbEntity
  8
枠線
100
AcDbLine
 10
34528.24093491148
 20
28574.23237812787
 30
0.0
 11
34948.24093491148
 21
28574.23237812787
 31
0.0
  0
LINE
  5
B27
330
1F
100
AcDbEntity
  8
枠線
100
AcDbLine
 10
34528.24093491148
 20
28616.23237812787
 30
0.0
 11
34948.24093491148
 21
28616.23237812787
 31
0.0
  0
LINE
  5
B28
330
1F
100
AcDbEntity
  8
枠線
100
AcDbLine
 10
34528.24093491148
 20
28658.23237812787
 30
0.0
 11
34948.24093491148
 21
28658.23237812787
 31
0.0
  0
LINE
  5
B29
330
1F
100
AcDbEntity
  8
枠線
100
AcDbLine
 10
34630.24093491148
 20
28712.23237812787
 30
0.0
 11
34630.24093491148
 21
28322.23237812787
 31
0.0
  0
LINE
  5
B2A
330
1F
100
AcDbEntity
  8
枠線
100
AcDbLine
 10
34636.24093491147
 20
28712.23237812787
 30
0.0
 11
34636.24093491147
 21
28322.23237812787
 31
0.0
  0
LINE
  5
B2B
330
1F
100
AcDbEntity
  8
枠線
100
AcDbLine
 10
34696.24093491148
 20
28448.23237812787
 30
0.0
 11
34696.24093491148
 21
28406.23237812787
 31
0.0
  0
LINE
  5
B2C
330
1F
100
AcDbEntity
  8
枠線
100
AcDbLine
 10
34702.24093491148
 20
28448.23237812787
 30
0.0
 11
34702.24093491148
 21
28406.23237812787
 31
0.0
  0
LINE
  5
B2D
330
1F
100
AcDbEntity
  8
枠線
100
AcDbLine
 10
34822.24093491148
 20
28448.23237812787
 30
0.0
 11
34822.24093491148
 21
28406.23237812787
 31
0.0
  0
LINE
  5
B2E
330
1F
100
AcDbEntity
  8
枠線
100
AcDbLine
 10
34828.24093491148
 20
28448.23237812787
 30
0.0
 11
34828.24093491148
 21
28406.23237812787
 31
0.0
  0
LINE
  5
B2F
330
1F
100
AcDbEntity
  8
枠線
100
AcDbLine
 10
34888.24093491148
 20
28448.23237812787
 30
0.0
 11
34888.24093491148
 21
28406.23237812787
 31
0.0
  0
LINE
  5
B30
330
1F
100
AcDbEntity
  8
枠線
100
AcDbLine
 10
34762.24093491147
 20
28448.23237812787
 30
0.0
 11
34762.24093491147
 21
28406.23237812787
 31
0.0
  0
LINE
  5
B31
330
1F
100
AcDbEntity
  8
枠線
100
AcDbLine
 10
34468.24093491148
 20
29444.23237812787
 30
0.0
 11
34468.24093491148
 21
29204.23237812787
 31
0.0
  0
LINE
  5
B32
330
1F
100
AcDbEntity
  8
枠線
100
AcDbLine
 10
34528.24093491148
 20
29444.23237812787
 30
0.0
 11
34528.24093491148
 21
29204.23237812787
 31
0.0
  0
LINE
  5
B33
330
1F
100
AcDbEntity
  8
枠線
100
AcDbLine
 10
34534.24093491148
 20
29204.23237812787
 30
0.0
 11
34534.24093491148
 21
29444.23237812787
 31
0.0
  0
LINE
  5
B34
330
1F
100
AcDbEntity
  8
枠線
100
AcDbLine
 10
34468.24093491148
 20
29384.23237812787
 30
0.0
 11
34948.24093491148
 21
29384.23237812787
 31
0.0
  0
LINE
  5
B35
330
1F
100
AcDbEntity
  8
枠線
100
AcDbLine
 10
34468.24093491148
 20
29348.23237812787
 30
0.0
 11
34948.24093491148
 21
29348.23237812787
 31
0.0
  0
LINE
  5
B36
330
1F
100
AcDbEntity
  8
枠線
100
AcDbLine
 10
34468.24093491148
 20
29312.23237812787
 30
0.0
 11
34948.24093491148
 21
29312.23237812787
 31
0.0
  0
LINE
  5
B37
330
1F
100
AcDbEntity
  8
枠線
100
AcDbLine
 10
34468.24093491148
 20
29276.23237812787
 30
0.0
 11
34948.24093491148
 21
29276.23237812787
 31
0.0
  0
LINE
  5
B38
330
1F
100
AcDbEntity
  8
枠線
100
AcDbLine
 10
34468.24093491148
 20
29240.23237812787
 30
0.0
 11
34948.24093491148
 21
29240.23237812787
 31
0.0
  0
LINE
  5
B39
330
1F
100
AcDbEntity
  8
枠線
100
AcDbLine
 10
34468.24093491148
 20
29204.23237812787
 30
0.0
 11
34948.24093491148
 21
29204.23237812787
 31
0.0
  0
LINE
  5
B3A
330
1F
100
AcDbEntity
  8
枠線
100
AcDbLine
 10
34714.24093491147
 20
29444.23237812787
 30
0.0
 11
34714.24093491147
 21
29204.23237812787
 31
0.0
  0
LINE
  5
B3B
330
1F
100
AcDbEntity
  8
枠線
100
AcDbLine
 10
34831.24093491148
 20
29444.23237812787
 30
0.0
 11
34831.24093491148
 21
29204.23237812787
 31
0.0
  0
LINE
  5
B3C
330
1F
100
AcDbEntity
  8
外形線
100
AcDbLine
 10
33346.24093491147
 20
29462.23237812787
 30
0.0
 11
33346.24093491147
 21
28304.23237812787
 31
0.0
  0
LINE
  5
B3D
330
1F
100
AcDbEntity
  8
外形線
100
AcDbLine
 10
34966.24093491148
 20
29462.23237812787
 30
0.0
 11
33346.24093491147
 21
29462.23237812787
 31
0.0
  0
LINE
  5
B3E
330
1F
100
AcDbEntity
  8
枠線
100
AcDbLine
 10
33364.24093491148
 20
29444.23237812787
 30
0.0
 11
33364.24093491148
 21
28322.23237812787
 31
0.0
  0
LINE
  5
B3F
330
1F
100
AcDbEntity
  8
枠線
100
AcDbLine
 10
33364.24093491148
 20
28322.23237812787
 30
0.0
 11
34948.24093491148
 21
28322.23237812787
 31
0.0
  0
LINE
  5
B40
330
1F
100
AcDbEntity
  8
枠線
100
AcDbLine
 10
34948.24093491148
 20
28322.23237812787
 30
0.0
 11
34948.24093491148
 21
29444.23237812787
 31
0.0
  0
LINE
  5
B41
330
1F
100
AcDbEntity
  8
枠線
100
AcDbLine
 10
34948.24093491148
 20
29444.23237812787
 30
0.0
 11
33364.24093491148
 21
29444.23237812787
 31
0.0
  0
LINE
  5
B42
330
1F
100
AcDbEntity
  8
枠線
100
AcDbLine
 10
34462.24093491148
 20
29444.23237812787
 30
0.0
 11
34462.24093491148
 21
29204.23237812787
 31
0.0
  0
LINE
  5
B43
330
1F
100
AcDbEntity
  8
枠線
100
AcDbLine
 10
34468.24093491148
 20
29204.23237812787
 30
0.0
 11
34468.24093491148
 21
29444.23237812787
 31
0.0
  0
LINE
  5
B44
330
1F
100
AcDbEntity
  8
枠線
100
AcDbLine
 10
33982.24093491148
 20
29444.23237812787
 30
0.0
 11
33982.24093491148
 21
29204.23237812787
 31
0.0
  0
LINE
  5
B45
330
1F
100
AcDbEntity
  8
枠線
100
AcDbLine
 10
34042.24093491148
 20
29444.23237812787
 30
0.0
 11
34042.24093491148
 21
29204.23237812787
 31
0.0
  0
LINE
  5
B46
330
1F
100
AcDbEntity
  8
枠線
100
AcDbLine
 10
34048.24093491148
 20
29204.23237812787
 30
0.0
 11
34048.24093491148
 21
29444.23237812787
 31
0.0
  0
LINE
  5
B47
330
1F
100
AcDbEntity
  8
枠線
100
AcDbLine
 10
33982.24093491148
 20
29384.23237812787
 30
0.0
 11
34462.24093491148
 21
29384.23237812787
 31
0.0
  0
LINE
  5
B48
330
1F
100
AcDbEntity
  8
枠線
100
AcDbLine
 10
33982.24093491148
 20
29348.23237812787
 30
0.0
 11
34462.24093491148
 21
29348.23237812787
 31
0.0
  0
LINE
  5
B49
330
1F
100
AcDbEntity
  8
枠線
100
AcDbLine
 10
33982.24093491148
 20
29312.23237812787
 30
0.0
 11
34462.24093491148
 21
29312.23237812787
 31
0.0
  0
LINE
  5
B4A
330
1F
100
AcDbEntity
  8
枠線
100
AcDbLine
 10
33982.24093491148
 20
29276.23237812787
 30
0.0
 11
34462.24093491148
 21
29276.23237812787
 31
0.0
  0
LINE
  5
B4B
330
1F
100
AcDbEntity
  8
枠線
100
AcDbLine
 10
33982.24093491148
 20
29240.23237812787
 30
0.0
 11
34462.24093491148
 21
29240.23237812787
 31
0.0
  0
LINE
  5
B4C
330
1F
100
AcDbEntity
  8
枠線
100
AcDbLine
 10
33982.24093491148
 20
29204.23237812787
 30
0.0
 11
34462.24093491148
 21
29204.23237812787
 31
0.0
  0
LINE
  5
B4D
330
1F
100
AcDbEntity
  8
枠線
100
AcDbLine
 10
34228.24093491148
 20
29444.23237812787
 30
0.0
 11
34228.24093491148
 21
29204.23237812787
 31
0.0
  0
LINE
  5
B4E
330
1F
100
AcDbEntity
  8
枠線
100
AcDbLine
 10
34345.24093491148
 20
29444.23237812787
 30
0.0
 11
34345.24093491148
 21
29204.23237812787
 31
0.0
  0
LINE
  5
B4F
330
1F
100
AcDbEntity
  8
枠線
100
AcDbLine
 10
33982.24093491148
 20
29204.23237812787
 30
0.0
 11
33982.24093491148
 21
29444.23237812787
 31
0.0
  0
LINE
  5
B50
330
1F
100
AcDbEntity
  8
外形線
100
AcDbLine
 10
34966.24093491148
 20
29462.23237812787
 30
0.0
 11
34966.24093491148
 21
28304.23237812787
 31
0.0
  0
LINE
  5
B51
330
1F
100
AcDbEntity
  8
外形線
100
AcDbLine
 10
34966.24093491148
 20
28304.23237812787
 30
0.0
 11
33346.24093491147
 21
28304.23237812787
 31
0.0
  0
MTEXT
  5
B52
330
1F
100
AcDbEntity
  8
寸法線
100
AcDbMText
 10
34137.11638898822
 20
29414.1938412054
 30
0.0
 40
30.00000000000001
 41
174.8674808517826
 46
0.0
 71
     5
 72
     5
  1
{\fMS PGothic|b0|i0|c128|p50;部品名}
 73
     1
 44
1.0
1001
ACAD
1000
ACAD_MTEXT_COLUMN_INFO_BEGIN
1070
    75
1070
     2
1070
    79
1070
     0
1070
    76
1070
     1
1070
    78
1070
     0
1070
    48
1040
174.8674808517826
1070
    49
1040
12.5
1070
    50
1070
     1
1040
0.0
1000
ACAD_MTEXT_COLUMN_INFO_END
  0
MTEXT
  5
B53
330
1F
100
AcDbEntity
  8
寸法線
100
AcDbMText
 10
34285.61638898813
 20
29414.27906847816
 30
0.0
 40
30.00000000000001
 41
109.1764692682045
 46
0.0
 71
     5
 72
     5
  1
{\fMS PGothic|b0|i0|c128|p50;材質}
 73
     1
 44
1.0
1001
ACAD
1000
ACAD_MTEXT_COLUMN_INFO_BEGIN
1070
    75
1070
     2
1070
    79
1070
     0
1070
    76
1070
     1
1070
    78
1070
     0
1070
    48
1040
109.1764692682045
1070
    49
1040
12.5
1070
    50
1070
     1
1040
0.0
1000
ACAD_MTEXT_COLUMN_INFO_END
  0
MTEXT
  5
B54
330
1F
100
AcDbEntity
  8
寸法線
100
AcDbMText
 10
34402.61638898822
 20
29414.10861393269
 30
0.0
 40
30.00000000000001
 41
115.2368875816973
 46
0.0
 71
     5
 72
     5
  1
{\fMS PGothic|b0|i0|c128|p50;摘要}
 73
     1
 44
1.0
1001
ACAD
1000
ACAD_MTEXT_COLUMN_INFO_BEGIN
1070
    75
1070
     2
1070
    79
1070
     0
1070
    76
1070
     1
1070
    78
1070
     0
1070
    48
1040
115.2368875816973
1070
    49
1040
12.5
1070
    50
1070
     1
1040
0.0
1000
ACAD_MTEXT_COLUMN_INFO_END
  0
MTEXT
  5
B55
330
1F
100
AcDbEntity
  8
寸法線
100
AcDbMText
 10
34013.36548083485
 20
29413.02691770291
 30
0.0
 40
18.0
 41
10.0
 46
0.0
 71
     5
 72
     5
  1
{\fMS PGothic|b0|i0|c128|p50;部番}
 73
     1
 44
1.0
1001
ACAD
1000
ACAD_MTEXT_COLUMN_INFO_BEGIN
1070
    75
1070
     2
1070
    79
1070
     0
1070
    76
1070
     1
1070
    78
1070
     0
1070
    48
1040
10.0
1070
    49
1040
12.5
1070
    50
1070
     1
1040
0.0
1000
ACAD_MTEXT_COLUMN_INFO_END
  0
MTEXT
  5
B56
330
1F
100
AcDbEntity
  8
寸法線
100
AcDbMText
 10
34012.24093491148
 20
29366.24465360855
 30
0.0
 40
21.00000000000001
 41
10.0
 46
0.0
 71
     5
 72
     5
  1
{\fMS PGothic|b0|i0|c128|p50;①}
 73
     1
 44
1.0
1001
ACAD
1000
ACAD_MTEXT_COLUMN_INFO_BEGIN
1070
    75
1070
     2
1070
    79
1070
     0
1070
    76
1070
     1
1070
    78
1070
     0
1070
    48
1040
10.0
1070
    49
1040
12.5
1070
    50
1070
     1
1040
0.0
1000
ACAD_MTEXT_COLUMN_INFO_END
  0
MTEXT
  5
B57
330
1F
100
AcDbEntity
  8
寸法線
100
AcDbMText
 10
34012.24093491148
 20
29330.24465360855
 30
0.0
 40
21.00000000000001
 41
10.0
 46
0.0
 71
     5
 72
     5
  1
{\fMS PGothic|b0|i0|c128|p50;②}
 73
     1
 44
1.0
1001
ACAD
1000
ACAD_MTEXT_COLUMN_INFO_BEGIN
1070
    75
1070
     2
1070
    79
1070
     0
1070
    76
1070
     1
1070
    78
1070
     0
1070
    48
1040
10.0
1070
    49
1040
12.5
1070
    50
1070
     1
1040
0.0
1000
ACAD_MTEXT_COLUMN_INFO_END
  0
MTEXT
  5
B58
330
1F
100
AcDbEntity
  8
寸法線
100
AcDbMText
 10
34012.24093491148
 20
29294.24465360858
 30
0.0
 40
21.00000000000001
 41
10.0
 46
0.0
 71
     5
 72
     5
  1
{\fMS PGothic|b0|i0|c128|p50;③}
 73
     1
 44
1.0
1001
ACAD
1000
ACAD_MTEXT_COLUMN_INFO_BEGIN
1070
    75
1070
     2
1070
    79
1070
     0
1070
    76
1070
     1
1070
    78
1070
     0
1070
    48
1040
10.0
1070
    49
1040
12.5
1070
    50
1070
     1
1040
0.0
1000
ACAD_MTEXT_COLUMN_INFO_END
  0
MTEXT
  5
B59
330
1F
100
AcDbEntity
  8
寸法線
100
AcDbMText
 10
34012.24093491148
 20
29258.24465360855
 30
0.0
 40
21.00000000000001
 41
10.0
 46
0.0
 71
     5
 72
     5
  1
{\fMS PGothic|b0|i0|c128|p50;④}
 73
     1
 44
1.0
1001
ACAD
1000
ACAD_MTEXT_COLUMN_INFO_BEGIN
1070
    75
1070
     2
1070
    79
1070
     0
1070
    76
1070
     1
1070
    78
1070
     0
1070
    48
1040
10.0
1070
    49
1040
12.5
1070
    50
1070
     1
1040
0.0
1000
ACAD_MTEXT_COLUMN_INFO_END
  0
MTEXT
  5
B5A
330
1F
100
AcDbEntity
  8
寸法線
100
AcDbMText
 10
34012.24093491148
 20
29222.24465360855
 30
0.0
 40
21.00000000000001
 41
10.0
 46
0.0
 71
     5
 72
     5
  1
{\fMS PGothic|b0|i0|c128|p50;⑤}
 73
     1
 44
1.0
1001
ACAD
1000
ACAD_MTEXT_COLUMN_INFO_BEGIN
1070
    75
1070
     2
1070
    79
1070
     0
1070
    76
1070
     1
1070
    78
1070
     0
1070
    48
1040
10.0
1070
    49
1040
12.5
1070
    50
1070
     1
1040
0.0
1000
ACAD_MTEXT_COLUMN_INFO_END
  0
MTEXT
  5
B5B
330
1F
100
AcDbEntity
  8
寸法線
100
AcDbMText
 10
34623.11638898813
 20
29414.1938412054
 30
0.0
 40
30.00000000000001
 41
208.789682174116
 46
0.0
 71
     5
 72
     5
  1
{\fMS PGothic|b0|i0|c128|p50;部品名}
 73
     1
 44
1.0
1001
ACAD
1000
ACAD_MTEXT_COLUMN_INFO_BEGIN
1070
    75
1070
     2
1070
    79
1070
     0
1070
    76
1070
     1
1070
    78
1070
     0
1070
    48
1040
208.789682174116
1070
    49
1040
12.5
1070
    50
1070
     1
1040
0.0
1000
ACAD_MTEXT_COLUMN_INFO_END
  0
MTEXT
  5
B5C
330
1F
100
AcDbEntity
  8
寸法線
100
AcDbMText
 10
34771.61638898813
 20
29414.27906847816
 30
0.0
 40
30.00000000000001
 41
121.2416595124814
 46
0.0
 71
     5
 72
     5
  1
{\fMS PGothic|b0|i0|c128|p50;材質}
 73
     1
 44
1.0
1001
ACAD
1000
ACAD_MTEXT_COLUMN_INFO_BEGIN
1070
    75
1070
     2
1070
    79
1070
     0
1070
    76
1070
     1
1070
    78
1070
     0
1070
    48
1040
121.2416595124814
1070
    49
1040
12.5
1070
    50
1070
     1
1040
0.0
1000
ACAD_MTEXT_COLUMN_INFO_END
  0
MTEXT
  5
B5D
330
1F
100
AcDbEntity
  8
寸法線
100
AcDbMText
 10
34888.61638898813
 20
29414.10861393269
 30
0.0
 40
30.00000000000001
 41
124.8927565777121
 46
0.0
 71
     5
 72
     5
  1
{\fMS PGothic|b0|i0|c128|p50;摘要}
 73
     1
 44
1.0
1001
ACAD
1000
ACAD_MTEXT_COLUMN_INFO_BEGIN
1070
    75
1070
     2
1070
    79
1070
     0
1070
    76
1070
     1
1070
    78
1070
     0
1070
    48
1040
124.8927565777121
1070
    49
1040
12.5
1070
    50
1070
     1
1040
0.0
1000
ACAD_MTEXT_COLUMN_INFO_END
  0
MTEXT
  5
B5E
330
1F
100
AcDbEntity
  8
寸法線
100
AcDbMText
 10
34499.36548083491
 20
29413.02691770291
 30
0.0
 40
18.0
 41
10.0
 46
0.0
 71
     5
 72
     5
  1
{\fMS PGothic|b0|i0|c128|p50;部番}
 73
     1
 44
1.0
1001
ACAD
1000
ACAD_MTEXT_COLUMN_INFO_BEGIN
1070
    75
1070
     2
1070
    79
1070
     0
1070
    76
1070
     1
1070
    78
1070
     0
1070
    48
1040
10.0
1070
    49
1040
12.5
1070
    50
1070
     1
1040
0.0
1000
ACAD_MTEXT_COLUMN_INFO_END
  0
MTEXT
  5
B5F
330
1F
100
AcDbEntity
  8
寸法線
100
AcDbMText
 10
34498.24093491153
 20
29366.24465360855
 30
0.0
 40
21.00000000000001
 41
10.0
 46
0.0
 71
     5
 72
     5
  1
{\fMS PGothic|b0|i0|c128|p50;⑥}
 73
     1
 44
1.0
1001
ACAD
1000
ACAD_MTEXT_COLUMN_INFO_BEGIN
1070
    75
1070
     2
1070
    79
1070
     0
1070
    76
1070
     1
1070
    78
1070
     0
1070
    48
1040
10.0
1070
    49
1040
12.5
1070
    50
1070
     1
1040
0.0
1000
ACAD_MTEXT_COLUMN_INFO_END
  0
MTEXT
  5
B60
330
1F
100
AcDbEntity
  8
寸法線
100
AcDbMText
 10
34498.24093491153
 20
29330.24465360855
 30
0.0
 40
21.00000000000001
 41
10.0
 46
0.0
 71
     5
 72
     5
  1
{\fMS PGothic|b0|i0|c128|p50;⑦}
 73
     1
 44
1.0
1001
ACAD
1000
ACAD_MTEXT_COLUMN_INFO_BEGIN
1070
    75
1070
     2
1070
    79
1070
     0
1070
    76
1070
     1
1070
    78
1070
     0
1070
    48
1040
10.0
1070
    49
1040
12.5
1070
    50
1070
     1
1040
0.0
1000
ACAD_MTEXT_COLUMN_INFO_END
  0
MTEXT
  5
B61
330
1F
100
AcDbEntity
  8
寸法線
100
AcDbMText
 10
34498.24093491153
 20
29294.24465360858
 30
0.0
 40
21.00000000000001
 41
10.0
 46
0.0
 71
     5
 72
     5
  1
{\fMS PGothic|b0|i0|c128|p50;⑧}
 73
     1
 44
1.0
1001
ACAD
1000
ACAD_MTEXT_COLUMN_INFO_BEGIN
1070
    75
1070
     2
1070
    79
1070
     0
1070
    76
1070
     1
1070
    78
1070
     0
1070
    48
1040
10.0
1070
    49
1040
12.5
1070
    50
1070
     1
1040
0.0
1000
ACAD_MTEXT_COLUMN_INFO_END
  0
MTEXT
  5
B62
330
1F
100
AcDbEntity
  8
寸法線
100
AcDbMText
 10
34498.24093491153
 20
29258.24465360855
 30
0.0
 40
21.00000000000001
 41
10.0
 46
0.0
 71
     5
 72
     5
  1
{\fMS PGothic|b0|i0|c128|p50;⑨}
 73
     1
 44
1.0
1001
ACAD
1000
ACAD_MTEXT_COLUMN_INFO_BEGIN
1070
    75
1070
     2
1070
    79
1070
     0
1070
    76
1070
     1
1070
    78
1070
     0
1070
    48
1040
10.0
1070
    49
1040
12.5
1070
    50
1070
     1
1040
0.0
1000
ACAD_MTEXT_COLUMN_INFO_END
  0
MTEXT
  5
B63
330
1F
100
AcDbEntity
  8
寸法線
100
AcDbMText
 10
34498.24093491153
 20
29222.24465360855
 30
0.0
 40
21.00000000000001
 41
10.0
 46
0.0
 71
     5
 72
     5
  1
{\fMS PGothic|b0|i0|c128|p50;⑩}
 73
     1
 44
1.0
1001
ACAD
1000
ACAD_MTEXT_COLUMN_INFO_BEGIN
1070
    75
1070
     2
1070
    79
1070
     0
1070
    76
1070
     1
1070
    78
1070
     0
1070
    48
1040
10.0
1070
    49
1040
12.5
1070
    50
1070
     1
1040
0.0
1000
ACAD_MTEXT_COLUMN_INFO_END
  0
TEXT
  5
B64
330
1F
100
AcDbEntity
  8
寸法線
100
AcDbText
 10
34642.29498834434
 20
28689.92047589611
 30
0.0
 40
12.9
  1
広告灯内用放電灯器具（LEDランプ用）
100
AcDbText
  0
TEXT
  5
B65
330
1F
100
AcDbEntity
  8
寸法線
100
AcDbText
 10
34642.84125018251
 20
28670.80502638053
 30
0.0
 40
9.0
  1
AC100/200V　　50/60Hz
100
AcDbText
  0
MTEXT
  5
B66
330
1F
100
AcDbEntity
  8
寸法線
100
AcDbMText
 10
34579.24093491147
 20
28635.39930591076
 30
0.0
 40
21.00000000000001
 41
134.5371276319638
 46
0.0
 71
     5
 72
     5
  1
{\fMS PGothic|b0|i0|c128|p50;品名}
 73
     1
 44
1.0
1001
ACAD
1000
ACAD_MTEXT_COLUMN_INFO_BEGIN
1070
    75
1070
     2
1070
    79
1070
     0
1070
    76
1070
     1
1070
    78
1070
     0
1070
    48
1040
134.5371276319638
1070
    49
1040
12.5
1070
    50
1070
     1
1040
0.0
1000
ACAD_MTEXT_COLUMN_INFO_END
  0
MTEXT
  5
B67
330
1F
100
AcDbEntity
  8
寸法線
100
AcDbMText
 10
34579.24093491147
 20
28593.33964681988
 30
0.0
 40
21.00000000000001
 41
107.3977478795059
 46
0.0
 71
     5
 72
     5
  1
{\fMS PGothic|b0|i0|c128|p50;型番}
 73
     1
 44
1.0
1001
ACAD
1000
ACAD_MTEXT_COLUMN_INFO_BEGIN
1070
    75
1070
     2
1070
    79
1070
     0
1070
    76
1070
     1
1070
    78
1070
     0
1070
    48
1040
107.3977478795059
1070
    49
1040
12.5
1070
    50
1070
     1
1040
0.0
1000
ACAD_MTEXT_COLUMN_INFO_END
  0
MTEXT
  5
B68
330
1F
100
AcDbEntity
  8
寸法線
100
AcDbMText
 10
34579.24093491147
 20
28551.33964681988
 30
0.0
 40
21.00000000000001
 41
111.0985654956457
 46
0.0
 71
     5
 72
     5
  1
{\fMS PGothic|b0|i0|c128|p50;図番}
 73
     1
 44
1.0
1001
ACAD
1000
ACAD_MTEXT_COLUMN_INFO_BEGIN
1070
    75
1070
     2
1070
    79
1070
     0
1070
    76
1070
     1
1070
    78
1070
     0
1070
    48
1040
111.0985654956457
1070
    49
1040
12.5
1070
    50
1070
     1
1040
0.0
1000
ACAD_MTEXT_COLUMN_INFO_END
  0
MTEXT
  5
B69
330
1F
100
AcDbEntity
  8
寸法線
100
AcDbMText
 10
34579.24093491147
 20
28509.10101045623
 30
0.0
 40
21.00000000000001
 41
79.75
 46
0.0
 71
     5
 72
     5
  1
{\fMS PGothic|b0|i0|c128|p50;尺度}
 73
     1
 44
1.0
1001
ACAD
1000
ACAD_MTEXT_COLUMN_INFO_BEGIN
1070
    75
1070
     2
1070
    79
1070
     0
1070
    76
1070
     1
1070
    78
1070
     0
1070
    48
1040
79.75
1070
    49
1040
12.5
1070
    50
1070
     1
1040
0.0
1000
ACAD_MTEXT_COLUMN_INFO_END
  0
MTEXT
  5
B6A
330
1F
100
AcDbEntity
  8
寸法線
100
AcDbMText
 10
34579.24093491147
 20
28467.75726045623
 30
0.0
 40
21.00000000000001
 41
79.75
 46
0.0
 71
     5
 72
     5
  1
{\fMS PGothic|b0|i0|c128|p50;日付}
 73
     1
 44
1.0
1001
ACAD
1000
ACAD_MTEXT_COLUMN_INFO_BEGIN
1070
    75
1070
     2
1070
    79
1070
     0
1070
    76
1070
     1
1070
    78
1070
     0
1070
    48
1040
79.75
1070
    49
1040
12.5
1070
    50
1070
     1
1040
0.0
1000
ACAD_MTEXT_COLUMN_INFO_END
  0
MTEXT
  5
B6B
330
1F
100
AcDbEntity
  8
寸法線
100
AcDbMText
 10
34579.24093491147
 20
28425.27998772897
 30
0.0
 40
21.00000000000001
 41
79.75
 46
0.0
 71
     5
 72
     5
  1
{\fMS PGothic|b0|i0|c128|p50;設計}
 73
     1
 44
1.0
1001
ACAD
1000
ACAD_MTEXT_COLUMN_INFO_BEGIN
1070
    75
1070
     2
1070
    79
1070
     0
1070
    76
1070
     1
1070
    78
1070
     0
1070
    48
1040
79.75
1070
    49
1040
12.5
1070
    50
1070
     1
1040
0.0
1000
ACAD_MTEXT_COLUMN_INFO_END
  0
MTEXT
  5
B6C
330
1F
100
AcDbEntity
  8
寸法線
100
AcDbMText
 10
34732.24093491154
 20
28427.61862409259
 30
0.0
 40
16.8
 41
77.95127031754964
 46
0.0
 71
     5
 72
     5
  1
{\fMS PGothic|b0|i0|c128|p50;製図}
 73
     1
 44
1.0
1001
ACAD
1000
ACAD_MTEXT_COLUMN_INFO_BEGIN
1070
    75
1070
     2
1070
    79
1070
     0
1070
    76
1070
     1
1070
    78
1070
     0
1070
    48
1040
77.95127031754964
1070
    49
1040
12.5
1070
    50
1070
     1
1040
0.0
1000
ACAD_MTEXT_COLUMN_INFO_END
  0
MTEXT
  5
B6D
330
1F
100
AcDbEntity
  8
寸法線
100
AcDbMText
 10
34858.24093491153
 20
28428.2390786381
 30
0.0
 40
16.8
 41
64.78344696047134
 46
0.0
 71
     5
 72
     5
  1
{\fMS PGothic|b0|i0|c128|p50;承認}
 73
     1
 44
1.0
1001
ACAD
1000
ACAD_MTEXT_COLUMN_INFO_BEGIN
1070
    75
1070
     2
1070
    79
1070
     0
1070
    76
1070
     1
1070
    78
1070
     0
1070
    48
1040
64.78344696047134
1070
    49
1040
12.5
1070
    50
1070
     1
1040
0.0
1000
ACAD_MTEXT_COLUMN_INFO_END
  0
MTEXT
  5
B6E
330
1F
100
AcDbEntity
  8
寸法線
100
AcDbMText
 10
34792.24093491153
 20
28345.02908009996
 30
0.0
 40
21.00000000000001
 41
479.1527611076308
 46
0.0
 71
     5
 72
     5
  1
{\fMS PGothic|b0|i0|c128|p50;高村電機工業株式会社}
 73
     1
 44
1.0
1001
ACAD
1000
ACAD_MTEXT_COLUMN_INFO_BEGIN
1070
    75
1070
     2
1070
    79
1070
     0
1070
    76
1070
     1
1070
    78
1070
     0
1070
    48
1040
479.1527611076308
1070
    49
1040
12.5
1070
    50
1070
     1
1040
0.0
1000
ACAD_MTEXT_COLUMN_INFO_END
  0
MTEXT
  5
B6F
330
1F
100
AcDbEntity
  8
寸法線
100
AcDbMText
 10
34644.66432509464
 20
28656.2275760284
 30
0.0
 40
24.00000000000002
 41
379.4707622710557
 46
0.0
 71
     1
 72
     5
  1
{\fMS PGothic|b0|i0|c128|p50;ゼブライト・V　}32W
 73
     1
 44
1.0
1001
ACAD
1000
ACAD_MTEXT_COLUMN_INFO_BEGIN
1070
    75
1070
     2
1070
    79
1070
     0
1070
    76
1070
     1
1070
    78
1070
     0
1070
    48
1040
379.4707622710557
1070
    49
1040
12.5
1070
    50
1070
     1
1040
0.0
1000
ACAD_MTEXT_COLUMN_INFO_END
  0
MTEXT
  5
B70
330
1F
100
AcDbEntity
  8
寸法線
100
AcDbMText
 10
34645.6002752264
 20
28609.06489565321
 30
0.0
 40
24.00000000000002
 41
326.790400944592
 46
0.0
 71
     1
 72
     5
  1
CSH{\fMS PGothic|b0|i0|c128|p50;‐}320KB-V
 73
     1
 44
1.0
1001
ACAD
1000
ACAD_MTEXT_COLUMN_INFO_BEGIN
1070
    75
1070
     2
1070
    79
1070
     0
1070
    76
1070
     1
1070
    78
1070
     0
1070
    48
1040
326.790400944592
1070
    49
1040
12.5
1070
    50
1070
     1
1040
0.0
1000
ACAD_MTEXT_COLUMN_INFO_END
  0
LINE
  5
B71
330
1F
100
AcDbEntity
  8
枠線
100
AcDbLine
 10
34789.24093491148
 20
28532.23237812787
 30
0.0
 11
34789.24093491148
 21
28490.23237812787
 31
0.0
  0
LINE
  5
B72
330
1F
100
AcDbEntity
  8
枠線
100
AcDbLine
 10
34795.24093491148
 20
28532.23237812787
 30
0.0
 11
34795.24093491148
 21
28490.23237812787
 31
0.0
  0
CIRCLE
  5
B73
330
1F
100
AcDbEntity
  8
枠線
100
AcDbCircle
 10
34840.24093491147
 20
28511.23237812787
 30
0.0
 40
12.0
  0
CIRCLE
  5
B74
330
1F
100
AcDbEntity
  8
枠線
100
AcDbCircle
 10
34840.24093491147
 20
28511.23237812787
 30
0.0
 40
6.0
  0
LINE
  5
B75
330
1F
100
AcDbEntity
  8
枠線
100
AcDbLine
 10
34885.24093491148
 20
28517.23237812787
 30
0.0
 11
34885.24093491148
 21
28505.23237812787
 31
0.0
  0
LINE
  5
B76
330
1F
100
AcDbEntity
  8
枠線
100
AcDbLine
 10
34885.24093491148
 20
28505.23237812787
 30
0.0
 11
34915.24093491148
 21
28499.23237812787
 31
0.0
  0
LINE
  5
B77
330
1F
100
AcDbEntity
  8
枠線
100
AcDbLine
 10
34915.24093491148
 20
28499.23237812787
 30
0.0
 11
34915.24093491148
 21
28523.23237812787
 31
0.0
  0
LINE
  5
B78
330
1F
100
AcDbEntity
  8
枠線
100
AcDbLine
 10
34915.24093491148
 20
28523.23237812787
 30
0.0
 11
34885.24093491148
 21
28517.23237812787
 31
0.0
  0
LINE
  5
B79
330
1F
100
AcDbEntity
  8
中心線
 48
0.5
100
AcDbLine
 10
34825.24093491148
 20
28511.23237812787
 30
0.0
 11
34918.24093491147
 21
28511.23237812787
 31
0.0
  0
LINE
  5
B7A
330
1F
100
AcDbEntity
  8
中心線
 48
0.5
100
AcDbLine
 10
34840.24093491147
 20
28526.23237812787
 30
0.0
 11
34840.24093491147
 21
28496.23237812787
 31
0.0
  0
MTEXT
  5
B7B
330
1F
100
AcDbEntity
  8
中心線
100
AcDbMText
 10
34712.93231111212
 20
28511.46389548492
 30
0.0
 40
24.00000000000002
 41
137.1373031534895
 46
0.0
 71
     5
 72
     5
  1
1  :  4
 73
     1
 44
1.0
1001
ACAD
1000
ACAD_MTEXT_COLUMN_INFO_BEGIN
1070
    75
1070
     2
1070
    79
1070
     0
1070
    76
1070
     1
1070
    78
1070
     0
1070
    48
1040
137.1373031534895
1070
    49
1040
12.5
1070
    50
1070
     1
1040
0.0
1000
ACAD_MTEXT_COLUMN_INFO_END
  0
MTEXT
  5
B7C
330
1F
100
AcDbEntity
  8
寸法線
100
AcDbMText
 10
34053.8154419997
 20
29377.17287490402
 30
0.0
 40
9.600000000000001
 41
151.6297294085016
 46
0.0
 71
     1
 72
     5
  1
{\fMS PGothic|b0|i0|c128|p50;器具本体}
 73
     1
 44
1.0
1001
ACAD
1000
ACAD_MTEXT_COLUMN_INFO_BEGIN
1070
    75
1070
     2
1070
    79
1070
     0
1070
    76
1070
     1
1070
    78
1070
     0
1070
    48
1040
151.6297294085016
1070
    49
1040
12.5
1070
    50
1070
     1
1040
0.0
1000
ACAD_MTEXT_COLUMN_INFO_END
  0
MTEXT
  5
B7D
330
1F
100
AcDbEntity
  8
寸法線
100
AcDbMText
 10
34234.698096507
 20
29381.69618849504
 30
0.0
 40
8.0
 41
163.0743348696414
 46
0.0
 71
     1
 72
     5
  1
{\fMS PGothic|b0|i0|c128|p50;鋼鈑　}0.6{\fMS PGothic|b0|i0|c128|p50;ｔ}\P{\fMS PGothic|b0|i0|c128|p50;（亜鉛メッキ板）}
 73
     1
 44
1.0
1001
ACAD
1000
ACAD_MTEXT_COLUMN_INFO_BEGIN
1070
    75
1070
     2
1070
    79
1070
     0
1070
    76
1070
     1
1070
    78
1070
     0
1070
    48
1040
163.0743348696414
1070
    49
1040
12.5
1070
    50
1070
     1
1040
0.0
1000
ACAD_MTEXT_COLUMN_INFO_END
  0
MTEXT
  5
B7E
330
1F
100
AcDbEntity
  8
寸法線
100
AcDbMText
 10
34348.57369779563
 20
29373.12563430944
 30
0.0
 40
8.0
 41
127.6574633589698
 46
0.0
 71
     1
 72
     5
  1
{\fMS PGothic|b0|i0|c128|p50;ホーミング加工}
 73
     1
 44
1.0
1001
ACAD
1000
ACAD_MTEXT_COLUMN_INFO_BEGIN
1070
    75
1070
     2
1070
    79
1070
     0
1070
    76
1070
     1
1070
    78
1070
     0
1070
    48
1040
127.6574633589698
1070
    49
1040
12.5
1070
    50
1070
     1
1040
0.0
1000
ACAD_MTEXT_COLUMN_INFO_END
  0
MTEXT
  5
B7F
330
1F
100
AcDbEntity
  8
寸法線
100
AcDbMText
 10
34053.80752779395
 20
29303.57512239933
 30
0.0
 40
9.600000000000001
 41
177.2417588968819
 46
0.0
 71
     1
 72
     5
  1
{\fMS PGothic|b0|i0|c128|p50;絶縁ブッシング}
 73
     1
 44
1.0
1001
ACAD
1000
ACAD_MTEXT_COLUMN_INFO_BEGIN
1070
    75
1070
     2
1070
    79
1070
     0
1070
    76
1070
     1
1070
    78
1070
     0
1070
    48
1040
177.2417588968819
1070
    49
1040
12.5
1070
    50
1070
     1
1040
0.0
1000
ACAD_MTEXT_COLUMN_INFO_END
  0
MTEXT
  5
B80
330
1F
100
AcDbEntity
  8
寸法線
100
AcDbMText
 10
34236.90006209636
 20
29308.52212094796
 30
0.0
 40
8.0
 41
112.0581813088574
 46
0.0
 71
     1
 72
     5
  1
P.P{\fMS PGothic|b0|i0|c128|p50;樹脂}
 73
     1
 44
1.0
1001
ACAD
1000
ACAD_MTEXT_COLUMN_INFO_BEGIN
1070
    75
1070
     2
1070
    79
1070
     0
1070
    76
1070
     1
1070
    78
1070
     0
1070
    48
1040
112.0581813088574
1070
    49
1040
12.5
1070
    50
1070
     1
1040
0.0
1000
ACAD_MTEXT_COLUMN_INFO_END
  0
MTEXT
  5
B81
330
1F
100
AcDbEntity
  8
寸法線
100
AcDbMText
 10
34051.95199683309
 20
29270.04860513708
 30
0.0
 40
9.600000000000001
 41
209.7639475286996
 46
0.0
 71
     1
 72
     5
  1
{\fMS PGothic|b0|i0|c128|p50;ランプソケット（固定側）}
 73
     1
 44
1.0
1001
ACAD
1000
ACAD_MTEXT_COLUMN_INFO_BEGIN
1070
    75
1070
     2
1070
    79
1070
     0
1070
    76
1070
     1
1070
    78
1070
     0
1070
    48
1040
209.7639475286996
1070
    49
1040
12.5
1070
    50
1070
     1
1040
0.0
1000
ACAD_MTEXT_COLUMN_INFO_END
  0
MTEXT
  5
B82
330
1F
100
AcDbEntity
  8
寸法線
100
AcDbMText
 10
34235.66305875464
 20
29272.52213748464
 30
0.0
 40
8.0
 41
114.358547341013
 46
0.0
 71
     1
 72
     5
  1
{\fMS PGothic|b0|i0|c128|p50;P.P樹脂\P黄銅}
 73
     1
 44
1.0
1001
ACAD
1000
ACAD_MTEXT_COLUMN_INFO_BEGIN
1070
    75
1070
     2
1070
    79
1070
     0
1070
    76
1070
     1
1070
    78
1070
     0
1070
    48
1040
114.358547341013
1070
    49
1040
12.5
1070
    50
1070
     1
1040
0.0
1000
ACAD_MTEXT_COLUMN_INFO_END
  0
MTEXT
  5
B83
330
1F
100
AcDbEntity
  8
寸法線
100
AcDbMText
 10
34053.80752779395
 20
29233.43025098923
 30
0.0
 40
9.600000000000001
 41
210.5417588968994
 46
0.0
 71
     1
 72
     5
  1
{\fMS PGothic|b0|i0|c128|p50;ランプソケット（スプリング側）}
 73
     1
 44
1.0
1001
ACAD
1000
ACAD_MTEXT_COLUMN_INFO_BEGIN
1070
    75
1070
     2
1070
    79
1070
     0
1070
    76
1070
     1
1070
    78
1070
     0
1070
    48
1040
210.5417588968994
1070
    49
1040
12.5
1070
    50
1070
     1
1040
0.0
1000
ACAD_MTEXT_COLUMN_INFO_END
  0
MTEXT
  5
B84
330
1F
100
AcDbEntity
  8
寸法線
100
AcDbMText
 10
34232.57049850398
 20
29237.14050816909
 30
0.0
 40
8.0
 41
140.8380455093865
 46
0.0
 71
     1
 72
     5
  1
P.P{\fMS PGothic|b0|i0|c128|p50;樹脂}\P{\fMS PGothic|b0|i0|c128|p50;黄銅}
 73
     1
 44
1.0
1001
ACAD
1000
ACAD_MTEXT_COLUMN_INFO_BEGIN
1070
    75
1070
     2
1070
    79
1070
     0
1070
    76
1070
     1
1070
    78
1070
     0
1070
    48
1040
140.8380455093865
1070
    49
1040
12.5
1070
    50
1070
     1
1040
0.0
1000
ACAD_MTEXT_COLUMN_INFO_END
  0
LINE
  5
B87
330
1F
100
AcDbEntity
  8
外形線
100
AcDbLine
 10
33316.24093491148
 20
29477.23237812787
 30
0.0
 11
33316.24093491148
 21
28289.23237812787
 31
0.0
  0
LINE
  5
B88
330
1F
100
AcDbEntity
  8
外形線
100
AcDbLine
 10
33316.24093491148
 20
28289.23237812787
 30
0.0
 11
34996.24093491148
 21
28289.23237812787
 31
0.0
  0
LINE
  5
B89
330
1F
100
AcDbEntity
  8
外形線
100
AcDbLine
 10
34996.24093491148
 20
28289.23237812787
 30
0.0
 11
34996.24093491148
 21
29477.23237812787
 31
0.0
  0
LINE
  5
B8A
330
1F
100
AcDbEntity
  8
外形線
100
AcDbLine
 10
34996.24093491148
 20
29477.23237812787
 30
0.0
 11
33316.24093491148
 21
29477.23237812787
 31
0.0
  0
XLINE
  5
C17
330
1F
100
AcDbEntity
  8
オフセット
100
AcDbXline
 10
32915.44093491146
 20
29033.35326060758
 30
0.0
 11
-1.0
 21
0.0
 31
0.0
  0
XLINE
  5
C18
330
1F
100
AcDbEntity
  8
オフセット
100
AcDbXline
 10
32915.44093491146
 20
29197.60326060758
 30
0.0
 11
-1.0
 21
0.0
 31
0.0
  0
XLINE
  5
C22
330
1F
100
AcDbEntity
  8
オフセット
100
AcDbXline
 10
32915.44093491146
 20
29049.60326060757
 30
0.0
 11
-1.0
 21
0.0
 31
0.0
  0
XLINE
  5
C23
330
1F
100
AcDbEntity
  8
オフセット
100
AcDbXline
 10
32915.44093491146
 20
29059.60326060758
 30
0.0
 11
-1.0
 21
0.0
 31
0.0
  0
XLINE
  5
C24
330
1F
100
AcDbEntity
  8
オフセット
100
AcDbXline
 10
32915.44093491146
 20
28972.60326060758
 30
0.0
 11
-1.0
 21
0.0
 31
0.0
  0
XLINE
  5
C25
330
1F
100
AcDbEntity
  8
オフセット
100
AcDbXline
 10
32915.44093491146
 20
28962.60326060758
 30
0.0
 11
-1.0
 21
0.0
 31
0.0
  0
XLINE
  5
C27
330
1F
100
AcDbEntity
  8
オフセット
100
AcDbXline
 10
32915.44093491146
 20
29144.60326060757
 30
0.0
 11
-1.0
 21
0.0
 31
0.0
  0
XLINE
  5
C42
330
1F
100
AcDbEntity
  8
オフセット
100
AcDbXline
 10
32915.44093491146
 20
29149.60326060758
 30
0.0
 11
-1.0
 21
0.0
 31
0.0
  0
XLINE
  5
C43
330
1F
100
AcDbEntity
  8
オフセット
100
AcDbXline
 10
32915.44093491146
 20
29134.60326060758
 30
0.0
 11
-1.0
 21
0.0
 31
0.0
  0
XLINE
  5
C44
330
1F
100
AcDbEntity
  8
オフセット
100
AcDbXline
 10
32915.44093491146
 20
29154.60326060757
 30
0.0
 11
-1.0
 21
0.0
 31
0.0
  0
TEXT
  5
D49
330
1F
100
AcDbEntity
  8
1
 62
     3
100
AcDbText
 10
33939.33499018451
 20
28569.20060006948
 30
0.0
 40
13.5
  1
１．左記の様にランプをセットしてください
 41
0.6666666666670002
  7
BIGFONT
100
AcDbText
  0
TEXT
  5
D4A
330
1F
100
AcDbEntity
  8
1
 62
     3
100
AcDbText
 10
33957.01370112201
 20
28549.16497181427
 30
0.0
 40
13.5
  1
器具側の電極はスプリングソケット側になっています。
 41
0.6666666666670002
  7
BIGFONT
100
AcDbText
  0
TEXT
  5
D4B
330
1F
100
AcDbEntity
  8
1
 62
     3
100
AcDbText
 10
33957.60256830951
 20
28530.30754993927
 30
0.0
 40
13.5
  1
ランプの電極はマーク（シール）側になっています。
 41
0.6666666666670002
  7
BIGFONT
100
AcDbText
  0
TEXT
  5
D4C
330
1F
100
AcDbEntity
  8
1
 62
     3
100
AcDbText
 10
33957.60256830951
 20
28512.03997181427
 30
0.0
 40
13.5
  1
セット方向はランプはマーク（シール）が正面方向を
 41
0.6666666666670002
  7
BIGFONT
100
AcDbText
  0
TEXT
  5
D4D
330
1F
100
AcDbEntity
  8
1
 62
     3
100
AcDbText
 10
33941.48863601782
 20
28464.45107207469
 30
0.0
 40
13.5
  1
２．精密部品を使用しておりますので衝撃等を与えますと
 41
0.6666666666670002
  7
BIGFONT
100
AcDbText
  0
TEXT
  5
D4E
330
1F
100
AcDbEntity
  8
1
 62
     3
100
AcDbText
 10
33960.34605789282
 20
28445.00426217886
 30
0.0
 40
13.5
  1
誤動作もしくは不点の恐れがあります。
 41
0.6666666666670002
  7
BIGFONT
100
AcDbText
  0
TEXT
  5
D4F
330
1F
100
AcDbEntity
  8
1
 62
     3
100
AcDbText
 10
33940.89976883032
 20
28418.48668405386
 30
0.0
 40
13.5
  1
３．この製品は定電流式２４Ｖ仕様です。
 41
0.6666666666670002
  7
BIGFONT
100
AcDbText
  0
TEXT
  5
D50
330
1F
100
AcDbEntity
  8
1
 62
     3
100
AcDbText
 10
33957.98863601782
 20
28398.45104766062
 30
0.0
 40
13.5
  1
必ず専用のランプと安定器のセットでご使用下さい。
 41
0.6666666666670002
  7
BIGFONT
100
AcDbText
  0
TEXT
  5
D51
330
1F
100
AcDbEntity
  8
1
 62
     3
100
AcDbText
 10
33958.42431310115
 20
28493.6110004601
 30
0.0
 40
13.5
  1
向く様にして下さい。
 41
0.6666666666670002
  7
BIGFONT
100
AcDbText
  0
TEXT
  5
D52
330
1F
100
AcDbEntity
  8
1
 62
     3
100
AcDbText
 10
33667.5138964345
 20
28563.55186960073
 30
0.0
 40
12.0
  1
取扱い説明及び注意事項
 41
0.6666666666670002
  7
BIGFONT
100
AcDbText
  0
LINE
  5
D53
330
1F
100
AcDbEntity
  8
1
  6
Continuous
 62
     3
100
AcDbLine
 10
33794.57583104157
 20
28520.93279580223
 30
0.0
 11
33794.57583104157
 21
28505.93279580223
 31
0.0
  0
LINE
  5
D54
330
1F
100
AcDbEntity
  8
1
  6
Continuous
 62
     3
100
AcDbLine
 10
33794.57583104157
 20
28505.93279580223
 30
0.0
 11
33647.64725961299
 21
28505.93279580223
 31
0.0
  0
LINE
  5
D55
330
1F
100
AcDbEntity
  8
1
  6
Continuous
 62
     3
100
AcDbLine
 10
33647.64725961299
 20
28505.93279580223
 30
0.0
 11
33644.57583104157
 21
28505.93279580223
 31
0.0
  0
LINE
  5
D56
330
1F
100
AcDbEntity
  8
1
  6
Continuous
 62
     3
100
AcDbLine
 10
33644.57583104157
 20
28505.93279580223
 30
0.0
 11
33644.57583104157
 21
28520.93279580223
 31
0.0
  0
LINE
  5
D57
330
1F
100
AcDbEntity
  8
1
  6
Continuous
 62
     3
100
AcDbLine
 10
33644.57583104157
 20
28520.93279580223
 30
0.0
 11
33794.57583104157
 21
28520.93279580223
 31
0.0
  0
LINE
  5
D58
330
1F
100
AcDbEntity
  8
1
  6
Continuous
 62
     3
100
AcDbLine
 10
33794.57583104157
 20
28520.93279580223
 30
0.0
 11
33799.07583104157
 21
28520.93279580223
 31
0.0
  0
LINE
  5
D59
330
1F
100
AcDbEntity
  8
1
  6
Continuous
 62
     3
100
AcDbLine
 10
33799.07583104157
 20
28520.93279580223
 30
0.0
 11
33799.07583104157
 21
28505.93279580223
 31
0.0
  0
LINE
  5
D5A
330
1F
100
AcDbEntity
  8
1
  6
Continuous
 62
     3
100
AcDbLine
 10
33799.07583104157
 20
28505.93279580223
 30
0.0
 11
33794.57583104157
 21
28505.93279580223
 31
0.0
  0
LINE
  5
D5B
330
1F
100
AcDbEntity
  8
1
  6
Continuous
 62
     3
100
AcDbLine
 10
33644.57583104157
 20
28520.93279580223
 30
0.0
 11
33640.07583104157
 21
28520.93279580223
 31
0.0
  0
LINE
  5
D5C
330
1F
100
AcDbEntity
  8
1
  6
Continuous
 62
     3
100
AcDbLine
 10
33640.07583104157
 20
28520.93279580223
 30
0.0
 11
33640.07583104157
 21
28505.93279580223
 31
0.0
  0
LINE
  5
D5D
330
1F
100
AcDbEntity
  8
1
  6
Continuous
 62
     3
100
AcDbLine
 10
33640.07583104157
 20
28505.93279580223
 30
0.0
 11
33644.57583104157
 21
28505.93279580223
 31
0.0
  0
LINE
  5
D5E
330
1F
100
AcDbEntity
  8
1
  6
Continuous
 62
     3
100
AcDbLine
 10
33640.07583104157
 20
28516.43279580223
 30
0.0
 11
33635.57583104157
 21
28516.43279580223
 31
0.0
  0
LINE
  5
D5F
330
1F
100
AcDbEntity
  8
1
  6
Continuous
 62
     3
100
AcDbLine
 10
33640.07583104157
 20
28510.43279580223
 30
0.0
 11
33635.57583104157
 21
28510.43279580223
 31
0.0
  0
LINE
  5
D60
330
1F
100
AcDbEntity
  8
1
  6
Continuous
 62
     3
100
AcDbLine
 10
33799.07583104157
 20
28516.43279580223
 30
0.0
 11
33803.57583104157
 21
28516.43279580223
 31
0.0
  0
LINE
  5
D61
330
1F
100
AcDbEntity
  8
1
  6
Continuous
 62
     3
100
AcDbLine
 10
33799.07583104157
 20
28510.43279580223
 30
0.0
 11
33803.57583104157
 21
28510.43279580223
 31
0.0
  0
LINE
  5
D62
330
1F
100
AcDbEntity
  8
1
  6
Continuous
 62
     3
100
AcDbLine
 10
33825.75440247015
 20
28516.43279580223
 30
0.0
 11
33863.25440247015
 21
28516.43279580223
 31
0.0
  0
LINE
  5
D63
330
1F
100
AcDbEntity
  8
1
  6
Continuous
 62
     3
100
AcDbLine
 10
33863.25440247015
 20
28516.43279580223
 30
0.0
 11
33863.25440247015
 21
28461.64708151652
 31
0.0
  0
LINE
  5
D64
330
1F
100
AcDbEntity
  8
1
  6
Continuous
 62
     3
100
AcDbLine
 10
33863.25440247015
 20
28461.64708151652
 30
0.0
 11
33754.89725961299
 21
28461.64708151652
 31
0.0
  0
LINE
  5
D65
330
1F
100
AcDbEntity
  8
1
  6
Continuous
 62
     3
100
AcDbLine
 10
33825.75440247015
 20
28510.43279580223
 30
0.0
 11
33848.25440247015
 21
28510.43279580223
 31
0.0
  0
LINE
  5
D66
330
1F
100
AcDbEntity
  8
1
  6
Continuous
 62
     3
100
AcDbLine
 10
33848.25440247015
 20
28510.43279580223
 30
0.0
 11
33848.25440247015
 21
28467.64708151652
 31
0.0
  0
LINE
  5
D67
330
1F
100
AcDbEntity
  8
1
  6
Continuous
 62
     3
100
AcDbLine
 10
33848.25440247015
 20
28467.64708151652
 30
0.0
 11
33754.89725961299
 21
28467.64708151652
 31
0.0
  0
LINE
  5
D68
330
1F
100
AcDbEntity
  8
1
  6
Continuous
 62
     3
100
AcDbLine
 10
33754.89725961299
 20
28472.14708151652
 30
0.0
 11
33754.89725961299
 21
28457.14708151652
 31
0.0
  0
LINE
  5
D69
330
1F
100
AcDbEntity
  8
1
  6
Continuous
 62
     3
100
AcDbLine
 10
33754.89725961299
 20
28457.14708151652
 30
0.0
 11
33694.89725961299
 21
28457.14708151652
 31
0.0
  0
LINE
  5
D6A
330
1F
100
AcDbEntity
  8
1
  6
Continuous
 62
     3
100
AcDbLine
 10
33694.89725961299
 20
28457.14708151652
 30
0.0
 11
33694.89725961299
 21
28472.14708151652
 31
0.0
  0
LINE
  5
D6B
330
1F
100
AcDbEntity
  8
1
  6
Continuous
 62
     3
100
AcDbLine
 10
33694.89725961299
 20
28472.14708151652
 30
0.0
 11
33754.89725961299
 21
28472.14708151652
 31
0.0
  0
LINE
  5
D6C
330
1F
100
AcDbEntity
  8
1
  6
Continuous
 62
     3
100
AcDbLine
 10
33697.67106913681
 20
28457.14708151652
 30
0.0
 11
33697.67106913681
 21
28442.14708151652
 31
0.0
  0
LINE
  5
D6D
330
1F
100
AcDbEntity
  8
1
  6
Continuous
 62
     3
100
AcDbLine
 10
33697.67106913681
 20
28442.14708151652
 30
0.0
 11
33650.02821199396
 21
28442.14708151652
 31
0.0
  0
TEXT
  5
D6E
330
1F
100
AcDbEntity
  8
1
 62
     3
100
AcDbText
 10
33769.78821284075
 20
28469.99983509553
 30
0.0
 40
7.466666666666665
  1
赤
 41
0.6666666666670002
  7
BIGFONT
100
AcDbText
  0
TEXT
  5
D6F
330
1F
100
AcDbEntity
  8
1
 62
     3
100
AcDbText
 10
33771.76352208555
 20
28448.2714252648
 30
0.0
 40
7.466666666666665
  1
白
 41
0.6666666666670002
  7
BIGFONT
100
AcDbText
  0
TEXT
  5
D70
330
1F
100
AcDbEntity
  8
1
 62
     3
100
AcDbText
 10
33828.05982742408
 20
28497.65413197053
 30
0.0
 40
7.466666666666665
  1
赤
 41
0.6666666666670002
  7
BIGFONT
100
AcDbText
  0
TEXT
  5
D71
330
1F
100
AcDbEntity
  8
1
 62
     3
100
AcDbText
 10
33828.05982742408
 20
28520.37018014761
 30
0.0
 40
7.466666666666665
  1
白
 41
0.6666666666670002
  7
BIGFONT
100
AcDbText
  0
LINE
  5
D72
330
1F
100
AcDbEntity
  8
1
  6
Continuous
 62
     3
100
AcDbLine
 10
33790.07583104157
 20
28516.43279580223
 30
0.0
 11
33790.07583104157
 21
28510.43279580223
 31
0.0
  0
LINE
  5
D73
330
1F
100
AcDbEntity
  8
1
  6
Continuous
 62
     3
100
AcDbLine
 10
33790.07583104157
 20
28510.43279580223
 30
0.0
 11
33775.07583104157
 21
28510.43279580223
 31
0.0
  0
LINE
  5
D74
330
1F
100
AcDbEntity
  8
1
  6
Continuous
 62
     3
100
AcDbLine
 10
33775.07583104157
 20
28510.43279580223
 30
0.0
 11
33775.07583104157
 21
28516.43279580223
 31
0.0
  0
LINE
  5
D75
330
1F
100
AcDbEntity
  8
1
  6
Continuous
 62
     3
100
AcDbLine
 10
33775.07583104157
 20
28516.43279580223
 30
0.0
 11
33790.07583104157
 21
28516.43279580223
 31
0.0
  0
TEXT
  5
D76
330
1F
100
AcDbEntity
  8
1
 62
     3
100
AcDbText
 10
33777.29008458553
 20
28510.64706816844
 30
0.0
 40
5.107133992513066
  1
マーク
 41
0.692308381786
  7
BIGFONT
100
AcDbText
  0
TEXT
  5
D77
330
1F
100
AcDbEntity
  8
1
 62
     3
100
AcDbText
 10
33662.33759435116
 20
28469.78997181427
 30
0.0
 40
7.466666666666665
  1
白
 41
0.6666666666670002
  7
BIGFONT
100
AcDbText
  0
TEXT
  5
D78
330
1F
100
AcDbEntity
  8
1
 62
     3
100
AcDbText
 10
33662.33759435116
 20
28451.45661406687
 30
0.0
 40
7.466666666666665
  1
黒
 41
0.6666666666670002
  7
BIGFONT
100
AcDbText
  0
TEXT
  5
D79
330
1F
100
AcDbEntity
  8
1
 62
     3
100
AcDbText
 10
33677.99123949111
 20
28443.11606498819
 30
0.0
 40
7.466666666666665
  1
アース
 41
0.6666666666670002
  7
BIGFONT
100
AcDbText
  0
TEXT
  5
D7A
330
1F
100
AcDbEntity
  8
1
 62
     3
100
AcDbText
 10
33682.76635411677
 20
28431.55183704865
 30
0.0
 40
7.466666666666665
  1
緑
 41
0.6666666666670002
  7
BIGFONT
100
AcDbText
  0
LINE
  5
D7B
330
1F
100
AcDbEntity
  8
1
  6
Continuous
 62
     3
100
AcDbLine
 10
33825.75440247015
 20
28520.93279580223
 30
0.0
 11
33825.75440247015
 21
28505.93279580223
 31
0.0
  0
LINE
  5
D7C
330
1F
100
AcDbEntity
  8
1
  6
Continuous
 62
     3
100
AcDbLine
 10
33825.75440247015
 20
28505.93279580223
 30
0.0
 11
33808.75440247015
 21
28505.93279580223
 31
0.0
  0
LINE
  5
D7D
330
1F
100
AcDbEntity
  8
1
  6
Continuous
 62
     3
100
AcDbLine
 10
33808.75440247015
 20
28505.93279580223
 30
0.0
 11
33808.75440247015
 21
28520.93279580223
 31
0.0
  0
LINE
  5
D7E
330
1F
100
AcDbEntity
  8
1
  6
Continuous
 62
     3
100
AcDbLine
 10
33808.75440247015
 20
28520.93279580223
 30
0.0
 11
33825.75440247015
 21
28520.93279580223
 31
0.0
  0
LINE
  5
D7F
330
1F
100
AcDbEntity
  8
1
  6
Continuous
 62
     3
100
AcDbLine
 10
33613.57877386849
 20
28505.93279580223
 30
0.0
 11
33613.57877386849
 21
28520.93279580223
 31
0.0
  0
TEXT
  5
D80
330
1F
100
AcDbEntity
  8
1
 62
     3
100
AcDbText
 10
33735.71882807512
 20
28528.45663848094
 30
0.0
 40
9.0
  1
防沫ソケット配線接続側
 41
0.6666666666670002
  7
BIGFONT
100
AcDbText
  0
LINE
  5
D81
330
1F
100
AcDbEntity
  8
1
  6
Continuous
 62
     3
100
AcDbLine
 10
33819.71868818444
 20
28520.93279580223
 30
0.0
 11
33816.19304715878
 21
28526.88517675461
 31
0.0
  0
LINE
  5
D82
330
1F
100
AcDbEntity
  8
1
  6
Continuous
 62
     3
100
AcDbLine
 10
33613.57877386849
 20
28516.43279580223
 30
0.0
 11
33602.54305958275
 21
28516.43279580223
 31
0.0
  0
LINE
  5
D83
330
1F
100
AcDbEntity
  8
1
  6
Continuous
 62
     3
100
AcDbLine
 10
33613.57877386849
 20
28510.43279580223
 30
0.0
 11
33602.54305958275
 21
28510.43279580223
 31
0.0
  0
LINE
  5
D84
330
1F
100
AcDbEntity
  8
1
  6
Continuous
 62
     3
100
AcDbLine
 10
33606.07877386849
 20
28519.68279580223
 30
0.0
 11
33600.18591672562
 21
28514.18279580223
 31
0.0
  0
LINE
  5
D85
330
1F
100
AcDbEntity
  8
1
  6
Continuous
 62
     3
100
AcDbLine
 10
33600.57877386849
 20
28520.07565294508
 30
0.0
 11
33606.07877386849
 21
28513.78993865937
 31
0.0
  0
LINE
  5
D86
330
1F
100
AcDbEntity
  8
1
  6
Continuous
 62
     3
100
AcDbLine
 10
33605.68591672562
 20
28513.00422437367
 30
0.0
 11
33600.18591672562
 21
28506.71851008794
 31
0.0
  0
LINE
  5
D87
330
1F
100
AcDbEntity
  8
1
  6
Continuous
 62
     3
100
AcDbLine
 10
33600.97163101133
 20
28512.61136723081
 30
0.0
 11
33604.50734529704
 21
28507.50422437366
 31
0.0
  0
TEXT
  5
D88
330
1F
100
AcDbEntity
  8
1
 62
     3
100
AcDbText
 10
33835.96106440325
 20
28496.6664692101
 30
0.0
 40
7.466666666666665
  1
＋
 41
0.6666666666670002
  7
BIGFONT
100
AcDbText
  0
TEXT
  5
D89
330
1F
100
AcDbEntity
  8
1
 62
     3
100
AcDbText
 10
33834.97340164283
 20
28520.37018014761
 30
0.0
 40
7.466666666666665
  1
－
 41
0.6666666666670002
  7
BIGFONT
100
AcDbText
  0
TEXT
  5
D8A
330
1F
100
AcDbEntity
  8
1
 62
     3
100
AcDbText
 10
33778.67708002824
 20
28447.28376250437
 30
0.0
 40
7.466666666666665
  1
－
 41
0.6666666666670002
  7
BIGFONT
100
AcDbText
  0
TEXT
  5
D8B
330
1F
100
AcDbEntity
  8
1
 62
     3
100
AcDbText
 10
33777.6894498199
 20
28469.99983509553
 30
0.0
 40
7.466666666666665
  1
＋
 41
0.6666666666670002
  7
BIGFONT
100
AcDbText
  0
TEXT
  5
D8C
330
1F
100
AcDbEntity
  8
1
 62
     3
100
AcDbText
 10
33687.76635411677
 20
28507.50416452261
 30
0.0
 40
12.0
  1
ＬＥＤ　ランプ
 41
0.6666666666670002
  7
BIGFONT
100
AcDbText
  0
TEXT
  5
D8D
330
1F
100
AcDbEntity
  8
1
 62
     3
100
AcDbText
 10
33703.08712204524
 20
28459.78637582236
 30
0.0
 40
9.600000000000001
  1
ＬＥＤ用電源
 41
0.6666666666670002
  7
BIGFONT
100
AcDbText
  0
LINE
  5
D8E
330
1F
100
AcDbEntity
  8
1
  6
Continuous
 62
     3
100
AcDbLine
 10
33694.89725961299
 20
28467.64708151652
 30
0.0
 11
33660.48059294633
 21
28467.69470056414
 31
0.0
  0
LINE
  5
D8F
330
1F
100
AcDbEntity
  8
1
  6
Continuous
 62
     3
100
AcDbLine
 10
33694.89725961299
 20
28461.64708151652
 30
0.0
 11
33661.52821199396
 21
28461.64708151652
 31
0.0
  0
TEXT
  5
D90
330
1F
100
AcDbEntity
  8
1
 62
     3
100
AcDbText
 10
33638.71886876521
 20
28458.26620879344
 30
0.0
 40
12.0
  1
電源
 41
0.6666666666670002
  7
BIGFONT
100
AcDbText
  0
LINE
  5
D91
330
1F
100
AcDbEntity
  8
1
  6
Continuous
 62
     3
100
AcDbLine
 10
33824.0825414945
 20
28518.57837316625
 30
0.0
 11
33818.74920816119
 21
28518.57837316625
 31
0.0
  0
LINE
  5
D92
330
1F
100
AcDbEntity
  8
1
  6
Continuous
 62
     3
100
AcDbLine
 10
33818.74920816119
 20
28518.57837316625
 30
0.0
 11
33818.74920816119
 21
28508.19361948053
 31
0.0
  0
LINE
  5
D93
330
1F
100
AcDbEntity
  8
1
  6
Continuous
 62
     3
100
AcDbLine
 10
33818.74920816119
 20
28508.19361948053
 30
0.0
 11
33824.0825414945
 21
28508.19361948053
 31
0.0
  0
LINE
  5
D94
330
1F
100
AcDbEntity
  8
1
  6
Continuous
 62
     3
100
AcDbLine
 10
33824.0825414945
 20
28518.57837316625
 30
0.0
 11
33824.0825414945
 21
28508.19361948053
 31
0.0
  0
LINE
  5
D95
330
1F
100
AcDbEntity
  8
1
  6
Continuous
 62
     3
100
AcDbLine
 10
33613.57877386849
 20
28505.93279580223
 30
0.0
 11
33613.57877386849
 21
28520.93279580223
 31
0.0
  0
LINE
  5
D96
330
1F
100
AcDbEntity
  8
1
  6
Continuous
 62
     3
100
AcDbLine
 10
33613.57877386849
 20
28520.93279580223
 30
0.0
 11
33630.57877386849
 21
28520.93279580223
 31
0.0
  0
LINE
  5
D97
330
1F
100
AcDbEntity
  8
1
  6
Continuous
 62
     3
100
AcDbLine
 10
33630.57877386849
 20
28520.93279580223
 30
0.0
 11
33630.57877386849
 21
28505.93279580223
 31
0.0
  0
LINE
  5
D98
330
1F
100
AcDbEntity
  8
1
  6
Continuous
 62
     3
100
AcDbLine
 10
33630.57877386849
 20
28505.93279580223
 30
0.0
 11
33613.57877386849
 21
28505.93279580223
 31
0.0
  0
LINE
  5
D99
330
1F
100
AcDbEntity
  8
1
  6
Continuous
 62
     3
100
AcDbLine
 10
33615.25063484411
 20
28508.28721843821
 30
0.0
 11
33620.58396817745
 21
28508.28721843821
 31
0.0
  0
LINE
  5
D9A
330
1F
100
AcDbEntity
  8
1
  6
Continuous
 62
     3
100
AcDbLine
 10
33620.58396817745
 20
28508.28721843821
 30
0.0
 11
33620.58396817745
 21
28518.67197212393
 31
0.0
  0
LINE
  5
D9B
330
1F
100
AcDbEntity
  8
1
  6
Continuous
 62
     3
100
AcDbLine
 10
33620.58396817745
 20
28518.67197212393
 30
0.0
 11
33615.25063484411
 21
28518.67197212393
 31
0.0
  0
LINE
  5
D9C
330
1F
100
AcDbEntity
  8
1
  6
Continuous
 62
     3
100
AcDbLine
 10
33615.25063484411
 20
28508.28721843821
 30
0.0
 11
33615.25063484411
 21
28518.67197212393
 31
0.0
  0
XLINE
  5
1123
330
1F
100
AcDbEntity
  8
オフセット
100
AcDbXline
 10
32915.44093491146
 20
27677.44632341185
 30
0.0
 11
-1.0
 21
0.0
 31
0.0
  0
XLINE
  5
1126
330
1F
100
AcDbEntity
  8
オフセット
100
AcDbXline
 10
32915.44093491146
 20
27713.19632341184
 30
0.0
 11
-1.0
 21
0.0
 31
0.0
  0
XLINE
  5
1230
330
1F
100
AcDbEntity
  8
オフセット
100
AcDbXline
 10
32915.44093491146
 20
27877.44632341185
 30
0.0
 11
-1.0
 21
0.0
 31
0.0
  0
XLINE
  5
129A
330
1F
100
AcDbEntity
  8
オフセット
100
AcDbXline
 10
32915.44093491146
 20
27897.44632341184
 30
0.0
 11
-1.0
 21
0.0
 31
0.0
  0
XLINE
  5
129B
330
1F
100
AcDbEntity
  8
オフセット
100
AcDbXline
 10
32915.44093491146
 20
27657.44632341184
 30
0.0
 11
-1.0
 21
0.0
 31
0.0
  0
MTEXT
  5
13B3
330
1F
100
AcDbEntity
  8
寸法線
100
AcDbMText
 10
34053.8154419997
 20
29341.17287490402
 30
0.0
 40
9.600000000000001
 41
206.0602204717434
 46
0.0
 71
     1
 72
     5
  1
{\fMS PGothic|b0|i0|c128|p50;ランプソケット取付金具}
 73
     1
 44
1.0
1001
ACAD
1000
ACAD_MTEXT_COLUMN_INFO_BEGIN
1070
    75
1070
     2
1070
    79
1070
     0
1070
    76
1070
     1
1070
    78
1070
     0
1070
    48
1040
206.0602204717434
1070
    49
1040
12.5
1070
    50
1070
     1
1040
0.0
1000
ACAD_MTEXT_COLUMN_INFO_END
  0
MTEXT
  5
13B4
330
1F
100
AcDbEntity
  8
寸法線
100
AcDbMText
 10
34234.698096507
 20
29345.69618849504
 30
0.0
 40
8.0
 41
163.0743348696414
 46
0.0
 71
     1
 72
     5
  1
{\fMS PGothic|b0|i0|c128|p50;鋼鈑　}1{\fMS PGothic|b0|i0|c128|p50;ｔ}\P{\fMS PGothic|b0|i0|c128|p50;（亜鉛メッキ板）}
 73
     1
 44
1.0
1001
ACAD
1000
ACAD_MTEXT_COLUMN_INFO_BEGIN
1070
    75
1070
     2
1070
    79
1070
     0
1070
    76
1070
     1
1070
    78
1070
     0
1070
    48
1040
163.0743348696414
1070
    49
1040
12.5
1070
    50
1070
     1
1040
0.0
1000
ACAD_MTEXT_COLUMN_INFO_END
  0
XLINE
  5
1755
330
1F
100
AcDbEntity
  8
オフセット
100
AcDbXline
 10
32915.44093491146
 20
27195.21368348996
 30
0.0
 11
-1.0
 21
0.0
 31
0.0
  0
XLINE
  5
1757
330
1F
100
AcDbEntity
  8
オフセット
100
AcDbXline
 10
34666.38138211558
 20
27902.11527306976
 30
0.0
 11
0.0
 21
-1.0
 31
0.0
  0
XLINE
  5
1759
330
1F
100
AcDbEntity
  8
オフセット
100
AcDbXline
 10
32915.44093491146
 20
27324.06696949225
 30
0.0
 11
-1.0
 21
0.0
 31
0.0
  0
XLINE
  5
17D0
330
1F
100
AcDbEntity
  8
オフセット
100
AcDbXline
 10
32915.44093491146
 20
27445.21368348995
 30
0.0
 11
-1.0
 21
0.0
 31
0.0
  0
XLINE
  5
17D2
330
1F
100
AcDbEntity
  8
オフセット
100
AcDbXline
 10
34618.88138211558
 20
27902.11527306976
 30
0.0
 11
0.0
 21
-1.0
 31
0.0
  0
XLINE
  5
17D3
330
1F
100
AcDbEntity
  8
オフセット
100
AcDbXline
 10
32915.44093491146
 20
27475.21368348996
 30
0.0
 11
-1.0
 21
0.0
 31
0.0
  0
XLINE
  5
17D4
330
1F
100
AcDbEntity
  8
オフセット
100
AcDbXline
 10
32915.44093491146
 20
27165.21368348995
 30
0.0
 11
-1.0
 21
0.0
 31
0.0
  0
XLINE
  5
17D7
330
1F
100
AcDbEntity
  8
オフセット
100
AcDbXline
 10
33437.07906368178
 20
27902.11527306976
 30
0.0
 11
0.0
 21
-1.0
 31
0.0
  0
XLINE
  5
17DD
330
1F
100
AcDbEntity
  8
オフセット
100
AcDbXline
 10
32678.26842177908
 20
26638.05684584568
 30
0.0
 11
-1.0
 21
0.0
 31
0.0
  0
XLINE
  5
17DE
330
1F
100
AcDbEntity
  8
オフセット
100
AcDbXline
 10
34640.88138211558
 20
27902.11527306976
 30
0.0
 11
0.0
 21
-1.0
 31
0.0
  0
XLINE
  5
17DF
330
1F
100
AcDbEntity
  8
オフセット
100
AcDbXline
 10
34640.38138211558
 20
27902.11527306976
 30
0.0
 11
0.0
 21
-1.0
 31
0.0
  0
XLINE
  5
1813
330
1F
100
AcDbEntity
  8
オフセット
100
AcDbXline
 10
32915.44093491146
 20
27384.06696949224
 30
0.0
 11
-1.0
 21
0.0
 31
0.0
  0
XLINE
  5
1814
330
1F
100
AcDbEntity
  8
オフセット
100
AcDbXline
 10
34704.41139354637
 20
27902.11527306976
 30
0.0
 11
0.0
 21
-1.0
 31
0.0
  0
XLINE
  5
23A6
330
1F
100
AcDbEntity
  8
オフセット
100
AcDbXline
 10
33782.12178851967
 20
27902.11527306976
 30
0.0
 11
0.0
 21
-1.0
 31
0.0
  0
XLINE
  5
23A7
330
1F
100
AcDbEntity
  8
オフセット
100
AcDbXline
 10
32915.44093491146
 20
27795.29808358001
 30
0.0
 11
-1.0
 21
0.0
 31
0.0
  0
XLINE
  5
23A8
330
1F
100
AcDbEntity
  8
オフセット
100
AcDbXline
 10
32915.44093491146
 20
27796.09808358001
 30
0.0
 11
-1.0
 21
0.0
 31
0.0
  0
XLINE
  5
23AA
330
1F
100
AcDbEntity
  8
オフセット
100
AcDbXline
 10
33945.12178851967
 20
27902.11527306976
 30
0.0
 11
0.0
 21
-1.0
 31
0.0
  0
XLINE
  5
23AB
330
1F
100
AcDbEntity
  8
オフセット
100
AcDbXline
 10
33576.12178851967
 20
27902.11527306976
 30
0.0
 11
0.0
 21
-1.0
 31
0.0
  0
XLINE
  5
23AC
330
1F
100
AcDbEntity
  8
オフセット
100
AcDbXline
 10
34409.12178851966
 20
27902.11527306976
 30
0.0
 11
0.0
 21
-1.0
 31
0.0
  0
XLINE
  5
23AD
330
1F
100
AcDbEntity
  8
オフセット
100
AcDbXline
 10
34407.62178851966
 20
27902.11527306976
 30
0.0
 11
0.0
 21
-1.0
 31
0.0
  0
XLINE
  5
23AE
330
1F
100
AcDbEntity
  8
オフセット
100
AcDbXline
 10
32915.44093491146
 20
27864.04808358001
 30
0.0
 11
-1.0
 21
0.0
 31
0.0
  0
XLINE
  5
23B4
330
1F
100
AcDbEntity
  8
オフセット
100
AcDbXline
 10
32915.44093491146
 20
27997.44632341185
 30
0.0
 11
-1.0
 21
0.0
 31
0.0
  0
XLINE
  5
2418
330
1F
100
AcDbEntity
  8
オフセット
100
AcDbXline
 10
34205.26185305797
 20
27902.11527306976
 30
0.0
 11
0.0
 21
-1.0
 31
0.0
  0
XLINE
  5
2419
330
1F
100
AcDbEntity
  8
オフセット
100
AcDbXline
 10
34207.26185305797
 20
27902.11527306976
 30
0.0
 11
0.0
 21
-1.0
 31
0.0
  0
LINE
  5
2510
102
{ACAD_REACTORS
330
27C0
102
}
330
1F
100
AcDbEntity
  8
中心線
100
AcDbLine
 10
33409.92477239607
 20
28757.10326060757
 30
0.0
 11
34498.68068870491
 21
28757.10326060756
 31
0.0
  0
LINE
  5
2511
330
1F
100
AcDbEntity
  8
点線
100
AcDbLine
 10
33448.29020929977
 20
28741.99768779856
 30
0.0
 11
33449.07906368177
 21
28741.60326060756
 31
0.0
  0
ARC
  5
2512
330
1F
100
AcDbEntity
  8
点線
100
AcDbCircle
 10
33446.83141305103
 20
28741.10326060757
 30
0.0
 40
1.0
100
AcDbArc
 50
63.43494882293075
 51
90.0
  0
LINE
  5
2513
330
1F
100
AcDbEntity
  8
点線
100
AcDbLine
 10
33448.06748102853
 20
28741.60326060756
 30
0.0
 11
33448.06748102853
 21
28772.60326060757
 31
0.0
  0
LINE
  5
2514
330
1F
100
AcDbEntity
  8
点線
100
AcDbLine
 10
33448.06748102853
 20
28772.60326060757
 30
0.0
 11
33447.27862664653
 21
28772.20883341657
 31
0.0
  0
ARC
  5
2515
330
1F
100
AcDbEntity
  8
点線
100
AcDbCircle
 10
33446.83141305103
 20
28773.10326060757
 30
0.0
 40
1.0
100
AcDbArc
 50
270.0
 51
296.5650511770692
  0
LINE
  5
2516
330
1F
100
AcDbEntity
  8
点線
100
AcDbLine
 10
33446.83141305103
 20
28772.10326060756
 30
0.0
 11
33438.06748102853
 21
28772.10326060756
 31
0.0
  0
LINE
  5
2517
330
1F
100
AcDbEntity
  8
点線
100
AcDbLine
 10
33437.06748102853
 20
28771.10326060757
 30
0.0
 11
33437.06748102853
 21
28743.10326060756
 31
0.0
  0
ARC
  5
2518
330
1F
100
AcDbEntity
  8
点線
100
AcDbCircle
 10
33438.06748102853
 20
28771.10326060757
 30
0.0
 40
1.0
100
AcDbArc
 50
90.0
 51
180.0
  0
LINE
  5
2519
330
1F
100
AcDbEntity
  8
点線
100
AcDbLine
 10
33438.06748102853
 20
28742.10326060757
 30
0.0
 11
33446.83141305103
 21
28742.10326060757
 31
0.0
  0
ARC
  5
251A
330
1F
100
AcDbEntity
  8
点線
100
AcDbCircle
 10
33438.06748102853
 20
28743.10326060756
 30
0.0
 40
1.0
100
AcDbArc
 50
180.0
 51
270.0
  0
LINE
  5
251B
330
1F
100
AcDbEntity
  8
点線
100
AcDbLine
 10
34256.84321004105
 20
28741.99768779856
 30
0.0
 11
34256.05435565904
 21
28741.60326060756
 31
0.0
  0
ARC
  5
251C
330
1F
100
AcDbEntity
  8
点線
100
AcDbCircle
 10
34257.29042363654
 20
28741.10326060757
 30
0.0
 40
1.0
100
AcDbArc
 50
90.0
 51
116.5650511770983
  0
LINE
  5
251D
330
1F
100
AcDbEntity
  8
点線
100
AcDbLine
 10
34256.05435565904
 20
28741.60326060756
 30
0.0
 11
34256.05435565904
 21
28772.60326060757
 31
0.0
  0
LINE
  5
251E
330
1F
100
AcDbEntity
  8
点線
100
AcDbLine
 10
34256.05435565904
 20
28772.60326060757
 30
0.0
 11
34256.84321004105
 21
28772.20883341657
 31
0.0
  0
ARC
  5
251F
330
1F
100
AcDbEntity
  8
点線
100
AcDbCircle
 10
34257.29042363654
 20
28773.10326060757
 30
0.0
 40
1.0
100
AcDbArc
 50
243.4349488229016
 51
270.0
  0
LINE
  5
2520
330
1F
100
AcDbEntity
  8
点線
100
AcDbLine
 10
34257.29042363654
 20
28772.10326060756
 30
0.0
 11
34266.05435565904
 21
28772.10326060756
 31
0.0
  0
LINE
  5
2521
330
1F
100
AcDbEntity
  8
点線
100
AcDbLine
 10
34267.05435565904
 20
28771.10326060757
 30
0.0
 11
34267.05435565904
 21
28743.10326060756
 31
0.0
  0
ARC
  5
2522
330
1F
100
AcDbEntity
  8
点線
100
AcDbCircle
 10
34266.05435565904
 20
28771.10326060757
 30
0.0
 40
1.0
100
AcDbArc
 50
0.0
 51
90.0
  0
LINE
  5
2523
330
1F
100
AcDbEntity
  8
点線
100
AcDbLine
 10
34266.05435565904
 20
28742.10326060757
 30
0.0
 11
34257.29042363654
 21
28742.10326060757
 31
0.0
  0
ARC
  5
2524
330
1F
100
AcDbEntity
  8
点線
100
AcDbCircle
 10
34266.05435565904
 20
28743.10326060756
 30
0.0
 40
1.0
100
AcDbArc
 50
270.0
 51
0.0
  0
LINE
  5
2525
330
1F
100
AcDbEntity
  8
点線
100
AcDbLine
 10
33448.06748102853
 20
28771.60326060757
 30
0.0
 11
33852.06748102853
 21
28771.60326060757
 31
0.0
  0
LINE
  5
2526
330
1F
100
AcDbEntity
  8
点線
100
AcDbLine
 10
33852.06748102853
 20
28771.60326060757
 30
0.0
 11
34256.05435565904
 21
28771.60326060757
 31
0.0
  0
LINE
  5
2527
330
1F
100
AcDbEntity
  8
点線
100
AcDbLine
 10
34256.05435565904
 20
28742.60326060757
 30
0.0
 11
33852.06748102853
 21
28742.60326060757
 31
0.0
  0
LINE
  5
2528
330
1F
100
AcDbEntity
  8
点線
100
AcDbLine
 10
33852.06748102853
 20
28742.60326060757
 30
0.0
 11
33448.06748102853
 21
28742.60326060757
 31
0.0
  0
LINE
  5
2529
330
1F
100
AcDbEntity
  8
外形線
100
AcDbLine
 10
33422.57906368178
 20
28688.35326060756
 30
0.0
 11
33422.57906368178
 21
28678.35326060756
 31
0.0
  0
LINE
  5
252A
330
1F
100
AcDbEntity
  8
外形線
100
AcDbLine
 10
33422.57906368178
 20
28678.35326060756
 30
0.0
 11
34066.21912822008
 21
28678.35326060756
 31
0.0
  0
LINE
  5
252B
102
{ACAD_REACTORS
330
27BD
102
}
330
1F
100
AcDbEntity
  8
外形線
100
AcDbLine
 10
34066.21912822008
 20
28678.35326060756
 30
0.0
 11
34293.57906368178
 21
28678.35326060756
 31
0.0
  0
LINE
  5
252C
102
{ACAD_REACTORS
330
27C0
330
27C3
102
}
330
1F
100
AcDbEntity
  8
外形線
100
AcDbLine
 10
34293.57906368178
 20
28678.35326060756
 30
0.0
 11
34293.57906368178
 21
28688.35326060755
 31
0.0
  0
LINE
  5
252D
330
1F
100
AcDbEntity
  8
外形線
100
AcDbLine
 10
34293.57906368178
 20
28688.35326060755
 30
0.0
 11
34066.21912822008
 21
28688.35326060755
 31
0.0
  0
LINE
  5
252E
330
1F
100
AcDbEntity
  8
外形線
100
AcDbLine
 10
34066.21912822008
 20
28688.35326060756
 30
0.0
 11
33969.07906368178
 21
28688.35326060756
 31
0.0
  0
LINE
  5
252F
330
1F
100
AcDbEntity
  8
外形線
100
AcDbLine
 10
33947.07906368178
 20
28688.35326060756
 30
0.0
 11
33828.07906368178
 21
28688.35326060756
 31
0.0
  0
LINE
  5
2530
330
1F
100
AcDbEntity
  8
外形線
100
AcDbLine
 10
33806.07906368178
 20
28688.35326060756
 30
0.0
 11
33738.07906368178
 21
28688.35326060756
 31
0.0
  0
LINE
  5
2531
330
1F
100
AcDbEntity
  8
外形線
100
AcDbLine
 10
33643.07906368178
 20
28688.35326060756
 30
0.0
 11
33422.57906368178
 21
28688.35326060756
 31
0.0
  0
LINE
  5
2532
330
1F
100
AcDbEntity
  8
外形線
100
AcDbLine
 10
33461.07906368178
 20
28678.35326060756
 30
0.0
 11
33461.07906368178
 21
28674.85326060756
 31
0.0
  0
LINE
  5
2533
330
1F
100
AcDbEntity
  8
外形線
100
AcDbLine
 10
33461.57906368178
 20
28674.35326060757
 30
0.0
 11
33480.57906368178
 21
28674.35326060757
 31
0.0
  0
ARC
  5
2534
330
1F
100
AcDbEntity
  8
外形線
100
AcDbCircle
 10
33461.57906368178
 20
28674.85326060756
 30
0.0
 40
0.5
100
AcDbArc
 50
180.0
 51
270.0
  0
LINE
  5
2535
330
1F
100
AcDbEntity
  8
外形線
100
AcDbLine
 10
33481.07906368178
 20
28674.85326060756
 30
0.0
 11
33481.07906368178
 21
28678.35326060756
 31
0.0
  0
ARC
  5
2536
330
1F
100
AcDbEntity
  8
外形線
100
AcDbCircle
 10
33480.57906368178
 20
28674.85326060756
 30
0.0
 40
0.5
100
AcDbArc
 50
270.0
 51
0.0
  0
LINE
  5
2537
330
1F
100
AcDbEntity
  8
外形線
100
AcDbLine
 10
33481.07906368178
 20
28676.35326060756
 30
0.0
 11
33481.57906368178
 21
28676.35326060756
 31
0.0
  0
ARC
  5
2538
330
1F
100
AcDbEntity
  8
外形線
100
AcDbCircle
 10
33482.04828727537
 20
28678.32923111557
 30
0.0
 40
2.030918567864959
100
AcDbArc
 50
256.6416865202809
 51
0.6779299878933172
  0
ARC
  5
2539
330
1F
100
AcDbEntity
  8
外形線
100
AcDbCircle
 10
33482.08867991779
 20
28678.31011074344
 30
0.0
 40
1.617898346868975
100
AcDbArc
 50
251.6399975157831
 51
1.371947721248656
  0
LINE
  5
253A
330
1F
100
AcDbEntity
  8
外形線
100
AcDbLine
 10
33481.57906368178
 20
28678.35326060756
 30
0.0
 11
33481.57906368178
 21
28676.77456968154
 31
0.0
  0
LINE
  5
253B
330
1F
100
AcDbEntity
  8
外形線
100
AcDbLine
 10
34255.07906368178
 20
28678.35326060756
 30
0.0
 11
34255.07906368178
 21
28674.85326060755
 31
0.0
  0
LINE
  5
253C
330
1F
100
AcDbEntity
  8
外形線
100
AcDbLine
 10
34254.57906368178
 20
28674.35326060755
 30
0.0
 11
34235.57906368178
 21
28674.35326060755
 31
0.0
  0
ARC
  5
253D
102
{ACAD_REACTORS
330
27C3
102
}
330
1F
100
AcDbEntity
  8
外形線
100
AcDbCircle
 10
34254.57906368178
 20
28674.85326060755
 30
0.0
 40
0.5
100
AcDbArc
 50
270.0
 51
0.0
  0
LINE
  5
253E
330
1F
100
AcDbEntity
  8
外形線
100
AcDbLine
 10
34235.07906368178
 20
28674.85326060755
 30
0.0
 11
34235.07906368178
 21
28678.35326060756
 31
0.0
  0
ARC
  5
253F
330
1F
100
AcDbEntity
  8
外形線
100
AcDbCircle
 10
34235.57906368178
 20
28674.85326060755
 30
0.0
 40
0.5
100
AcDbArc
 50
180.0
 51
270.0
  0
LINE
  5
2540
330
1F
100
AcDbEntity
  8
外形線
100
AcDbLine
 10
34235.07906368178
 20
28676.35326060756
 30
0.0
 11
34234.57906368178
 21
28676.35326060756
 31
0.0
  0
ARC
  5
2541
330
1F
100
AcDbEntity
  8
外形線
100
AcDbCircle
 10
34234.10984008818
 20
28678.32923111556
 30
0.0
 40
2.030918567864959
100
AcDbArc
 50
179.3220700121067
 51
283.3583134801235
  0
ARC
  5
2542
330
1F
100
AcDbEntity
  8
外形線
100
AcDbCircle
 10
34234.06944744576
 20
28678.31011074343
 30
0.0
 40
1.617898346868975
100
AcDbArc
 50
178.6280522787448
 51
288.3600024838205
  0
LINE
  5
2543
330
1F
100
AcDbEntity
  8
外形線
100
AcDbLine
 10
34234.57906368178
 20
28678.35326060756
 30
0.0
 11
34234.57906368178
 21
28676.77456968153
 31
0.0
  0
LINE
  5
2544
330
1F
100
AcDbEntity
  8
外形線
100
AcDbLine
 10
34293.57906368178
 20
29053.27221026549
 30
0.0
 11
34293.57906368178
 21
29077.27221026549
 31
0.0
  0
LINE
  5
2545
330
1F
100
AcDbEntity
  8
外形線
100
AcDbLine
 10
34277.07906368178
 20
29077.27221026549
 30
0.0
 11
34268.57906368178
 21
29077.27221026549
 31
0.0
  0
ARC
  5
2546
330
1F
100
AcDbEntity
  8
外形線
100
AcDbCircle
 10
34268.57906368178
 20
29076.77221026549
 30
0.0
 40
0.5
100
AcDbArc
 50
90.0
 51
180.0
  0
LINE
  5
2547
330
1F
100
AcDbEntity
  8
外形線
100
AcDbLine
 10
33422.57906368178
 20
29077.27221026549
 30
0.0
 11
33422.57906368178
 21
29053.27221026549
 31
0.0
  0
LINE
  5
2548
330
1F
100
AcDbEntity
  8
外形線
100
AcDbLine
 10
34268.57906368178
 20
29053.27221026549
 30
0.0
 11
34277.07906368178
 21
29053.27221026549
 31
0.0
  0
LINE
  5
2549
330
1F
100
AcDbEntity
  8
外形線
100
AcDbLine
 10
34268.07906368178
 20
29076.27221026549
 30
0.0
 11
34066.21912822008
 21
29076.27221026549
 31
0.0
  0
LINE
  5
254A
330
1F
100
AcDbEntity
  8
外形線
100
AcDbLine
 10
34066.21912822008
 20
29076.27221026549
 30
0.0
 11
33969.07906368178
 21
29076.27221026549
 31
0.0
  0
LINE
  5
254B
330
1F
100
AcDbEntity
  8
外形線
100
AcDbLine
 10
33806.07906368178
 20
29076.27221026549
 30
0.0
 11
33738.07906368178
 21
29076.27221026549
 31
0.0
  0
LINE
  5
254C
330
1F
100
AcDbEntity
  8
外形線
100
AcDbLine
 10
33643.07906368178
 20
29076.27221026549
 30
0.0
 11
33437.07906368178
 21
29076.27221026549
 31
0.0
  0
LINE
  5
254D
330
1F
100
AcDbEntity
  8
外形線
100
AcDbLine
 10
33437.07906368178
 20
29054.27221026549
 30
0.0
 11
33643.07906368178
 21
29054.27221026549
 31
0.0
  0
LINE
  5
254E
330
1F
100
AcDbEntity
  8
外形線
100
AcDbLine
 10
33738.07906368178
 20
29054.27221026549
 30
0.0
 11
33806.07906368178
 21
29054.27221026549
 31
0.0
  0
LINE
  5
254F
330
1F
100
AcDbEntity
  8
外形線
100
AcDbLine
 10
33969.07906368178
 20
29054.27221026549
 30
0.0
 11
34066.21912822008
 21
29054.27221026549
 31
0.0
  0
LINE
  5
2550
330
1F
100
AcDbEntity
  8
外形線
100
AcDbLine
 10
34066.21912822008
 20
29054.27221026549
 30
0.0
 11
34268.07906368178
 21
29054.27221026549
 31
0.0
  0
LINE
  5
2551
330
1F
100
AcDbEntity
  8
外形線
100
AcDbLine
 10
33422.57906368178
 20
29074.27221026549
 30
0.0
 11
33421.58200501307
 21
29068.45603082857
 31
0.0
  0
ARC
  5
2552
330
1F
100
AcDbEntity
  8
外形線
100
AcDbCircle
 10
33421.82860349403
 20
29068.41493108174
 30
0.0
 40
0.25
100
AcDbArc
 50
170.537677792045
 51
176.5230231830233
  0
ARC
  5
2553
330
1F
100
AcDbEntity
  8
外形線
100
AcDbCircle
 10
33421.82860349403
 20
29068.41493108174
 30
0.0
 40
0.25
100
AcDbArc
 50
183.4769768169767
 51
243.4349488229205
  0
LINE
  5
2554
102
{ACAD_REACTORS
330
27BA
102
}
330
1F
100
AcDbEntity
  8
外形線
100
AcDbLine
 10
33421.57906368178
 20
29068.43009294518
 30
0.0
 11
33421.57906368178
 21
29062.1143275858
 31
0.0
  0
LINE
  5
2555
330
1F
100
AcDbEntity
  8
外形線
100
AcDbLine
 10
33421.71680009515
 20
29068.19132428399
 30
0.0
 11
33422.57906368178
 21
29067.77221026549
 31
0.0
  0
LINE
  5
2556
330
1F
100
AcDbEntity
  8
外形線
100
AcDbLine
 10
33422.57906368178
 20
29056.27221026549
 30
0.0
 11
33421.58200501307
 21
29062.08838970241
 31
0.0
  0
ARC
  5
2557
330
1F
100
AcDbEntity
  8
外形線
100
AcDbCircle
 10
33421.82860349403
 20
29062.12948944924
 30
0.0
 40
0.25
100
AcDbArc
 50
183.4769768169767
 51
189.4623222084368
  0
ARC
  5
2558
330
1F
100
AcDbEntity
  8
外形線
100
AcDbCircle
 10
33421.82860349403
 20
29062.12948944924
 30
0.0
 40
0.25
100
AcDbArc
 50
116.5650511770794
 51
176.5230231830233
  0
LINE
  5
2559
330
1F
100
AcDbEntity
  8
外形線
100
AcDbLine
 10
33421.71680009515
 20
29062.35309624699
 30
0.0
 11
33422.57906368178
 21
29062.77221026549
 31
0.0
  0
LINE
  5
255A
330
1F
100
AcDbEntity
  8
外形線
100
AcDbLine
 10
33422.57906368178
 20
29077.27221026549
 30
0.0
 11
33422.57906368178
 21
29081.27221026549
 31
0.0
  0
LINE
  5
255B
330
1F
100
AcDbEntity
  8
外形線
100
AcDbLine
 10
33422.57906368178
 20
29081.27221026549
 30
0.0
 11
33423.57906368178
 21
29081.27221026549
 31
0.0
  0
LINE
  5
255C
330
1F
100
AcDbEntity
  8
外形線
100
AcDbLine
 10
33423.57906368178
 20
29081.27221026549
 30
0.0
 11
33423.57906368178
 21
29049.27221026549
 31
0.0
  0
LINE
  5
255D
330
1F
100
AcDbEntity
  8
外形線
100
AcDbLine
 10
33423.57906368178
 20
29049.27221026549
 30
0.0
 11
33422.57906368178
 21
29049.27221026549
 31
0.0
  0
LINE
  5
255E
330
1F
100
AcDbEntity
  8
外形線
100
AcDbLine
 10
33422.57906368178
 20
29049.27221026549
 30
0.0
 11
33422.57906368178
 21
29056.27221026549
 31
0.0
  0
LINE
  5
255F
330
1F
100
AcDbEntity
  8
外形線
100
AcDbLine
 10
33423.57906368178
 20
29049.27221026549
 30
0.0
 11
33424.07906368178
 21
29049.27221026549
 31
0.0
  0
LINE
  5
2560
330
1F
100
AcDbEntity
  8
外形線
100
AcDbLine
 10
33424.07906368178
 20
29049.27221026549
 30
0.0
 11
33424.07906368178
 21
29081.27221026549
 31
0.0
  0
LINE
  5
2561
330
1F
100
AcDbEntity
  8
外形線
100
AcDbLine
 10
33424.07906368178
 20
29081.27221026549
 30
0.0
 11
33423.57906368178
 21
29081.27221026549
 31
0.0
  0
LINE
  5
2562
330
1F
100
AcDbEntity
  8
外形線
100
AcDbLine
 10
33424.07906368178
 20
29049.27221026549
 30
0.0
 11
33436.07906368178
 21
29049.27221026549
 31
0.0
  0
LINE
  5
2563
330
1F
100
AcDbEntity
  8
外形線
100
AcDbLine
 10
33437.07906368178
 20
29050.27221026549
 30
0.0
 11
33437.07906368178
 21
29080.27221026549
 31
0.0
  0
ARC
  5
2564
330
1F
100
AcDbEntity
  8
外形線
100
AcDbCircle
 10
33436.07906368178
 20
29050.27221026549
 30
0.0
 40
1.0
100
AcDbArc
 50
270.0
 51
0.0
  0
LINE
  5
2565
330
1F
100
AcDbEntity
  8
外形線
100
AcDbLine
 10
33436.07906368178
 20
29081.27221026549
 30
0.0
 11
33424.07906368178
 21
29081.27221026549
 31
0.0
  0
ARC
  5
2566
330
1F
100
AcDbEntity
  8
外形線
100
AcDbCircle
 10
33436.07906368178
 20
29080.27221026549
 30
0.0
 40
1.0
100
AcDbArc
 50
0.0
 51
90.0
  0
LINE
  5
2567
330
1F
100
AcDbEntity
  8
外形線
100
AcDbLine
 10
34293.57906368178
 20
29077.27221026549
 30
0.0
 11
34293.57906368178
 21
29053.27221026549
 31
0.0
  0
LINE
  5
2568
330
1F
100
AcDbEntity
  8
外形線
100
AcDbLine
 10
34293.57906368178
 20
29074.27221026549
 30
0.0
 11
34294.57612235049
 21
29068.45603082857
 31
0.0
  0
ARC
  5
2569
330
1F
100
AcDbEntity
  8
外形線
100
AcDbCircle
 10
34294.32952386953
 20
29068.41493108174
 30
0.0
 40
0.25
100
AcDbArc
 50
3.476976816976713
 51
9.46232220795494
  0
ARC
  5
256A
330
1F
100
AcDbEntity
  8
外形線
100
AcDbCircle
 10
34294.32952386953
 20
29068.41493108174
 30
0.0
 40
0.25
100
AcDbArc
 50
296.5650511770795
 51
356.5230231830168
  0
LINE
  5
256B
330
1F
100
AcDbEntity
  8
外形線
100
AcDbLine
 10
34294.57906368178
 20
29068.43009294518
 30
0.0
 11
34294.57906368178
 21
29062.1143275858
 31
0.0
  0
LINE
  5
256C
330
1F
100
AcDbEntity
  8
外形線
100
AcDbLine
 10
34294.4413272684
 20
29068.19132428399
 30
0.0
 11
34293.57906368178
 21
29067.77221026549
 31
0.0
  0
LINE
  5
256D
330
1F
100
AcDbEntity
  8
外形線
100
AcDbLine
 10
34293.57906368178
 20
29056.27221026549
 30
0.0
 11
34294.57612235049
 21
29062.08838970241
 31
0.0
  0
ARC
  5
256E
330
1F
100
AcDbEntity
  8
外形線
100
AcDbCircle
 10
34294.32952386953
 20
29062.12948944924
 30
0.0
 40
0.25
100
AcDbArc
 50
350.5376777915632
 51
356.5230231830168
  0
ARC
  5
256F
330
1F
100
AcDbEntity
  8
外形線
100
AcDbCircle
 10
34294.32952386953
 20
29062.12948944924
 30
0.0
 40
0.25
100
AcDbArc
 50
3.476976816976713
 51
63.43494882292056
  0
LINE
  5
2570
330
1F
100
AcDbEntity
  8
外形線
100
AcDbLine
 10
34294.4413272684
 20
29062.35309624699
 30
0.0
 11
34293.57906368178
 21
29062.77221026549
 31
0.0
  0
LINE
  5
2571
330
1F
100
AcDbEntity
  8
外形線
100
AcDbLine
 10
34293.57906368178
 20
29077.27221026549
 30
0.0
 11
34293.57906368178
 21
29081.27221026549
 31
0.0
  0
LINE
  5
2572
330
1F
100
AcDbEntity
  8
外形線
100
AcDbLine
 10
34293.57906368178
 20
29081.27221026549
 30
0.0
 11
34292.57906368178
 21
29081.27221026549
 31
0.0
  0
LINE
  5
2573
330
1F
100
AcDbEntity
  8
外形線
100
AcDbLine
 10
34292.57906368178
 20
29081.27221026549
 30
0.0
 11
34292.57906368178
 21
29049.27221026549
 31
0.0
  0
LINE
  5
2574
330
1F
100
AcDbEntity
  8
外形線
100
AcDbLine
 10
34292.57906368178
 20
29049.27221026549
 30
0.0
 11
34293.57906368178
 21
29049.27221026549
 31
0.0
  0
LINE
  5
2575
330
1F
100
AcDbEntity
  8
外形線
100
AcDbLine
 10
34293.57906368178
 20
29049.27221026549
 30
0.0
 11
34293.57906368178
 21
29056.27221026549
 31
0.0
  0
LINE
  5
2576
330
1F
100
AcDbEntity
  8
外形線
100
AcDbLine
 10
34292.57906368178
 20
29049.27221026549
 30
0.0
 11
34292.07906368178
 21
29049.27221026549
 31
0.0
  0
LINE
  5
2577
330
1F
100
AcDbEntity
  8
外形線
100
AcDbLine
 10
34292.07906368178
 20
29049.27221026549
 30
0.0
 11
34292.07906368178
 21
29081.27221026549
 31
0.0
  0
LINE
  5
2578
330
1F
100
AcDbEntity
  8
外形線
100
AcDbLine
 10
34292.07906368178
 20
29081.27221026549
 30
0.0
 11
34292.57906368178
 21
29081.27221026549
 31
0.0
  0
LINE
  5
2579
330
1F
100
AcDbEntity
  8
外形線
100
AcDbLine
 10
34292.07906368178
 20
29081.27221026549
 30
0.0
 11
34278.07906368178
 21
29081.27221026549
 31
0.0
  0
LINE
  5
257A
330
1F
100
AcDbEntity
  8
外形線
100
AcDbLine
 10
34277.07906368178
 20
29080.27221026549
 30
0.0
 11
34277.07906368178
 21
29050.27221026549
 31
0.0
  0
ARC
  5
257B
330
1F
100
AcDbEntity
  8
外形線
100
AcDbCircle
 10
34278.07906368178
 20
29080.27221026549
 30
0.0
 40
1.0
100
AcDbArc
 50
90.0
 51
180.0
  0
ARC
  5
257C
330
1F
100
AcDbEntity
  8
外形線
100
AcDbCircle
 10
34278.07906368178
 20
29050.27221026549
 30
0.0
 40
1.0
100
AcDbArc
 50
180.0
 51
270.0
  0
LINE
  5
257D
330
1F
100
AcDbEntity
  8
外形線
100
AcDbLine
 10
34278.07906368178
 20
29049.27221026549
 30
0.0
 11
34292.07906368178
 21
29049.27221026549
 31
0.0
  0
LINE
  5
257E
330
1F
100
AcDbEntity
  8
外形線
100
AcDbLine
 10
34268.07906368178
 20
29076.77221026549
 30
0.0
 11
34268.07906368178
 21
29068.52221026549
 31
0.0
  0
ARC
  5
257F
330
1F
100
AcDbEntity
  8
外形線
100
AcDbCircle
 10
34268.57906368178
 20
29068.52221026549
 30
0.0
 40
0.5
100
AcDbArc
 50
180.0
 51
270.0
  0
ARC
  5
2580
330
1F
100
AcDbEntity
  8
外形線
100
AcDbCircle
 10
34268.57906368178
 20
29053.77221026549
 30
0.0
 40
0.5
100
AcDbArc
 50
180.0
 51
270.0
  0
LINE
  5
2581
330
1F
100
AcDbEntity
  8
外形線
100
AcDbLine
 10
34268.57906368178
 20
29077.27221026549
 30
0.0
 11
34066.21912822008
 21
29077.27221026549
 31
0.0
  0
LINE
  5
2582
330
1F
100
AcDbEntity
  8
外形線
100
AcDbLine
 10
34066.21912822008
 20
29077.27221026549
 30
0.0
 11
33969.07906368178
 21
29077.27221026549
 31
0.0
  0
LINE
  5
2583
330
1F
100
AcDbEntity
  8
外形線
100
AcDbLine
 10
33806.07906368178
 20
29077.27221026549
 30
0.0
 11
33738.07906368178
 21
29077.27221026549
 31
0.0
  0
LINE
  5
2584
330
1F
100
AcDbEntity
  8
外形線
100
AcDbLine
 10
33643.07906368178
 20
29077.27221026549
 30
0.0
 11
33437.07906368178
 21
29077.27221026549
 31
0.0
  0
LINE
  5
2585
330
1F
100
AcDbEntity
  8
外形線
100
AcDbLine
 10
33437.07906368178
 20
29053.27221026549
 30
0.0
 11
33643.07906368178
 21
29053.27221026549
 31
0.0
  0
LINE
  5
2586
330
1F
100
AcDbEntity
  8
外形線
100
AcDbLine
 10
33738.07906368178
 20
29053.27221026549
 30
0.0
 11
33806.07906368178
 21
29053.27221026549
 31
0.0
  0
LINE
  5
2587
330
1F
100
AcDbEntity
  8
外形線
100
AcDbLine
 10
33969.07906368178
 20
29053.27221026549
 30
0.0
 11
34066.21912822008
 21
29053.27221026549
 31
0.0
  0
LINE
  5
2588
330
1F
100
AcDbEntity
  8
外形線
100
AcDbLine
 10
34066.21912822008
 20
29053.27221026549
 30
0.0
 11
34268.57906368178
 21
29053.27221026549
 31
0.0
  0
LINE
  5
2589
330
1F
100
AcDbEntity
  8
外形線
100
AcDbLine
 10
34277.07906368178
 20
29068.02221026549
 30
0.0
 11
34268.57906368178
 21
29068.02221026549
 31
0.0
  0
LINE
  5
258A
330
1F
100
AcDbEntity
  8
外形線
100
AcDbLine
 10
34277.07906368178
 20
29062.52221026549
 30
0.0
 11
34268.57906368178
 21
29062.52221026549
 31
0.0
  0
LINE
  5
258B
330
1F
100
AcDbEntity
  8
外形線
100
AcDbLine
 10
34269.57906368178
 20
29068.02221026549
 30
0.0
 11
34269.57906368178
 21
29062.52221026549
 31
0.0
  0
LINE
  5
258C
330
1F
100
AcDbEntity
  8
外形線
100
AcDbLine
 10
34268.07906368178
 20
29062.02221026549
 30
0.0
 11
34268.07906368178
 21
29053.77221026549
 31
0.0
  0
ARC
  5
258D
330
1F
100
AcDbEntity
  8
外形線
100
AcDbCircle
 10
34268.57906368178
 20
29062.02221026549
 30
0.0
 40
0.5
100
AcDbArc
 50
90.0
 51
180.0
  0
ARC
  5
258E
330
1F
100
AcDbEntity
  8
孔
100
AcDbCircle
 10
33490.57906368178
 20
29065.27221026549
 30
0.0
 40
5.0
100
AcDbArc
 50
270.0
 51
90.0
  0
ARC
  5
258F
330
1F
100
AcDbEntity
  8
孔
100
AcDbCircle
 10
33446.57906368178
 20
29065.27221026549
 30
0.0
 40
5.0
100
AcDbArc
 50
90.0
 51
143.1301023543243
  0
ARC
  5
2590
330
1F
100
AcDbEntity
  8
孔
100
AcDbCircle
 10
33446.57906368178
 20
29065.27221026549
 30
0.0
 40
5.0
100
AcDbArc
 50
216.8698976456756
 51
270.0
  0
LINE
  5
2591
330
1F
100
AcDbEntity
  8
孔
100
AcDbLine
 10
33437.07906368178
 20
29068.27221026549
 30
0.0
 11
33442.57906368178
 21
29068.27221026549
 31
0.0
  0
LINE
  5
2592
330
1F
100
AcDbEntity
  8
孔
100
AcDbLine
 10
33437.07906368178
 20
29062.27221026549
 30
0.0
 11
33442.57906368178
 21
29062.27221026549
 31
0.0
  0
LINE
  5
2593
330
1F
100
AcDbEntity
  8
孔
100
AcDbLine
 10
33446.57906368178
 20
29070.27221026549
 30
0.0
 11
33461.07906368178
 21
29070.27221026549
 31
0.0
  0
LINE
  5
2594
330
1F
100
AcDbEntity
  8
孔
100
AcDbLine
 10
33481.07906368178
 20
29070.27221026549
 30
0.0
 11
33490.57906368178
 21
29070.27221026549
 31
0.0
  0
LINE
  5
2595
330
1F
100
AcDbEntity
  8
孔
100
AcDbLine
 10
33446.57906368178
 20
29060.27221026549
 30
0.0
 11
33461.07906368178
 21
29060.27221026549
 31
0.0
  0
LINE
  5
2596
330
1F
100
AcDbEntity
  8
孔
100
AcDbLine
 10
33481.07906368178
 20
29060.27221026549
 30
0.0
 11
33490.57906368178
 21
29060.27221026549
 31
0.0
  0
LINE
  5
2597
330
1F
100
AcDbEntity
  8
外形線
100
AcDbLine
 10
33461.07906368178
 20
29069.27221026549
 30
0.0
 11
33461.07906368178
 21
29061.27221026549
 31
0.0
  0
LINE
  5
2598
330
1F
100
AcDbEntity
  8
外形線
100
AcDbLine
 10
33464.57906368178
 20
29057.77221026549
 30
0.0
 11
33473.57906368178
 21
29057.77221026549
 31
0.0
  0
ARC
  5
2599
330
1F
100
AcDbEntity
  8
外形線
100
AcDbCircle
 10
33477.57906368178
 20
29061.27221026549
 30
0.0
 40
3.5
100
AcDbArc
 50
270.0
 51
0.0
  0
ARC
  5
259A
330
1F
100
AcDbEntity
  8
外形線
100
AcDbCircle
 10
33464.57906368178
 20
29061.27221026549
 30
0.0
 40
3.5
100
AcDbArc
 50
180.0
 51
270.0
  0
LINE
  5
259B
330
1F
100
AcDbEntity
  8
外形線
100
AcDbLine
 10
33481.07906368178
 20
29061.27221026549
 30
0.0
 11
33481.07906368178
 21
29069.27221026549
 31
0.0
  0
ARC
  5
259C
330
1F
100
AcDbEntity
  8
外形線
100
AcDbCircle
 10
33477.57906368178
 20
29069.27221026549
 30
0.0
 40
3.5
100
AcDbArc
 50
0.0
 51
90.0
  0
LINE
  5
259D
330
1F
100
AcDbEntity
  8
外形線
100
AcDbLine
 10
33473.57906368178
 20
29072.77221026549
 30
0.0
 11
33464.57906368178
 21
29072.77221026549
 31
0.0
  0
ARC
  5
259E
330
1F
100
AcDbEntity
  8
外形線
100
AcDbCircle
 10
33464.57906368178
 20
29069.27221026549
 30
0.0
 40
3.5
100
AcDbArc
 50
90.0
 51
180.0
  0
LINE
  5
259F
330
1F
100
AcDbEntity
  8
外形線
100
AcDbLine
 10
33461.07906368178
 20
29069.27221026549
 30
0.0
 11
33463.07906368178
 21
29069.27221026549
 31
0.0
  0
LINE
  5
25A0
330
1F
100
AcDbEntity
  8
外形線
100
AcDbLine
 10
33463.07906368178
 20
29069.27221026549
 30
0.0
 11
33463.07906368178
 21
29061.27221026549
 31
0.0
  0
LINE
  5
25A1
330
1F
100
AcDbEntity
  8
外形線
100
AcDbLine
 10
33463.07906368178
 20
29061.27221026549
 30
0.0
 11
33461.07906368178
 21
29061.27221026549
 31
0.0
  0
LINE
  5
25A2
330
1F
100
AcDbEntity
  8
外形線
100
AcDbLine
 10
33473.57906368178
 20
29058.77221026549
 30
0.0
 11
33473.57906368178
 21
29056.27221026549
 31
0.0
  0
LINE
  5
25A3
330
1F
100
AcDbEntity
  8
外形線
100
AcDbLine
 10
33473.57906368178
 20
29056.27221026549
 30
0.0
 11
33477.57906368178
 21
29056.27221026549
 31
0.0
  0
LINE
  5
25A4
330
1F
100
AcDbEntity
  8
外形線
100
AcDbLine
 10
33477.57906368178
 20
29056.27221026549
 30
0.0
 11
33477.57906368178
 21
29058.77221026549
 31
0.0
  0
LINE
  5
25A5
330
1F
100
AcDbEntity
  8
外形線
100
AcDbLine
 10
33477.57906368178
 20
29058.77221026549
 30
0.0
 11
33473.57906368178
 21
29058.77221026549
 31
0.0
  0
LINE
  5
25A6
330
1F
100
AcDbEntity
  8
外形線
100
AcDbLine
 10
33473.57906368178
 20
29071.77221026549
 30
0.0
 11
33473.57906368178
 21
29074.27221026549
 31
0.0
  0
LINE
  5
25A7
330
1F
100
AcDbEntity
  8
外形線
100
AcDbLine
 10
33473.57906368178
 20
29074.27221026549
 30
0.0
 11
33477.57906368178
 21
29074.27221026549
 31
0.0
  0
LINE
  5
25A8
330
1F
100
AcDbEntity
  8
外形線
100
AcDbLine
 10
33477.57906368178
 20
29074.27221026549
 30
0.0
 11
33477.57906368178
 21
29071.77221026549
 31
0.0
  0
LINE
  5
25A9
330
1F
100
AcDbEntity
  8
外形線
100
AcDbLine
 10
33477.57906368178
 20
29071.77221026549
 30
0.0
 11
33473.57906368178
 21
29071.77221026549
 31
0.0
  0
LINE
  5
25AA
330
1F
100
AcDbEntity
  8
外形線
100
AcDbLine
 10
33481.07906368178
 20
29068.27221026549
 30
0.0
 11
33484.07906368178
 21
29068.27221026549
 31
0.0
  0
LINE
  5
25AB
330
1F
100
AcDbEntity
  8
外形線
100
AcDbLine
 10
33484.07906368178
 20
29068.27221026549
 30
0.0
 11
33484.07906368178
 21
29062.27221026549
 31
0.0
  0
LINE
  5
25AC
330
1F
100
AcDbEntity
  8
外形線
100
AcDbLine
 10
33484.07906368178
 20
29062.27221026549
 30
0.0
 11
33481.07906368178
 21
29062.27221026549
 31
0.0
  0
LINE
  5
25AD
330
1F
100
AcDbEntity
  8
外形線
100
AcDbLine
 10
33477.07906368178
 20
29067.27221026549
 30
0.0
 11
33466.07906368178
 21
29067.27221026549
 31
0.0
  0
LINE
  5
25AE
330
1F
100
AcDbEntity
  8
外形線
100
AcDbLine
 10
33466.07906368178
 20
29067.27221026549
 30
0.0
 11
33466.07906368178
 21
29063.27221026549
 31
0.0
  0
LINE
  5
25AF
330
1F
100
AcDbEntity
  8
外形線
100
AcDbLine
 10
33466.07906368178
 20
29063.27221026549
 30
0.0
 11
33477.07906368178
 21
29063.27221026549
 31
0.0
  0
ARC
  5
25B0
330
1F
100
AcDbEntity
  8
外形線
100
AcDbCircle
 10
33477.07906368178
 20
29065.27221026549
 30
0.0
 40
2.0
100
AcDbArc
 50
270.0
 51
90.0
  0
LINE
  5
25B1
330
1F
100
AcDbEntity
  8
外形線
100
AcDbLine
 10
33461.07906368178
 20
29062.02221026549
 30
0.0
 11
33462.07906368178
 21
29062.02221026549
 31
0.0
  0
LINE
  5
25B2
330
1F
100
AcDbEntity
  8
外形線
100
AcDbLine
 10
33462.07906368178
 20
29062.02221026549
 30
0.0
 11
33462.07906368178
 21
29068.52221026549
 31
0.0
  0
LINE
  5
25B3
330
1F
100
AcDbEntity
  8
外形線
100
AcDbLine
 10
33462.07906368178
 20
29068.52221026549
 30
0.0
 11
33461.07906368178
 21
29068.52221026549
 31
0.0
  0
LINE
  5
25B4
330
1F
100
AcDbEntity
  8
外形線
100
AcDbLine
 10
33437.07906368178
 20
29074.77221026549
 30
0.0
 11
33506.57906368178
 21
29074.77221026549
 31
0.0
  0
LINE
  5
25B5
330
1F
100
AcDbEntity
  8
外形線
100
AcDbLine
 10
33506.57906368178
 20
29074.77221026549
 30
0.0
 11
33506.57906368178
 21
29067.57480388873
 31
0.0
  0
LINE
  5
25B6
330
1F
100
AcDbEntity
  8
外形線
100
AcDbLine
 10
33506.57906368178
 20
29062.96961664224
 30
0.0
 11
33506.57906368178
 21
29055.77221026549
 31
0.0
  0
LINE
  5
25B7
330
1F
100
AcDbEntity
  8
外形線
100
AcDbLine
 10
33506.57906368178
 20
29055.77221026549
 30
0.0
 11
33437.07906368178
 21
29055.77221026549
 31
0.0
  0
LINE
  5
25B8
330
1F
100
AcDbEntity
  8
外形線
100
AcDbLine
 10
33437.07906368178
 20
29056.77221026549
 30
0.0
 11
33473.57906368178
 21
29056.77221026549
 31
0.0
  0
LINE
  5
25B9
330
1F
100
AcDbEntity
  8
外形線
100
AcDbLine
 10
33477.57906368178
 20
29056.77221026549
 30
0.0
 11
33506.57906368178
 21
29056.77221026549
 31
0.0
  0
LINE
  5
25BA
330
1F
100
AcDbEntity
  8
外形線
100
AcDbLine
 10
33506.57906368178
 20
29073.77221026549
 30
0.0
 11
33477.57906368178
 21
29073.77221026549
 31
0.0
  0
LINE
  5
25BB
330
1F
100
AcDbEntity
  8
外形線
100
AcDbLine
 10
33437.07906368178
 20
29073.77221026549
 30
0.0
 11
33473.57906368178
 21
29073.77221026549
 31
0.0
  0
LINE
  5
25BC
330
1F
100
AcDbEntity
  8
外形線
100
AcDbLine
 10
33502.57906368178
 20
29068.77221026549
 30
0.0
 11
33498.57906368178
 21
29068.77221026549
 31
0.0
  0
LINE
  5
25BD
330
1F
100
AcDbEntity
  8
外形線
100
AcDbLine
 10
33498.57906368178
 20
29068.77221026549
 30
0.0
 11
33498.57906368178
 21
29061.77221026549
 31
0.0
  0
LINE
  5
25BE
330
1F
100
AcDbEntity
  8
外形線
100
AcDbLine
 10
33498.57906368178
 20
29061.77221026549
 30
0.0
 11
33502.57906368178
 21
29061.77221026549
 31
0.0
  0
LINE
  5
25BF
330
1F
100
AcDbEntity
  8
外形線
100
AcDbLine
 10
33502.07906368178
 20
29061.77221026549
 30
0.0
 11
33502.07906368178
 21
29068.77221026549
 31
0.0
  0
LINE
  5
25C0
330
1F
100
AcDbEntity
  8
外形線
100
AcDbLine
 10
33502.07906368178
 20
29068.77221026549
 30
0.0
 11
33509.68029193281
 21
29066.64644626784
 31
0.0
  0
LINE
  5
25C1
330
1F
100
AcDbEntity
  8
外形線
100
AcDbLine
 10
33509.68029193281
 20
29063.89797426314
 30
0.0
 11
33502.07906368178
 21
29061.77221026549
 31
0.0
  0
ARC
  5
25C2
330
1F
100
AcDbEntity
  8
外形線
100
AcDbCircle
 10
33509.07906368178
 20
29065.27221026549
 30
0.0
 40
1.5
100
AcDbArc
 50
293.6293777308601
 51
66.37062226913991
  0
LINE
  5
25C3
330
1F
100
AcDbEntity
  8
外形線
100
AcDbLine
 10
33502.57906368178
 20
29068.77221026549
 30
0.0
 11
33502.57906368178
 21
29068.63237996916
 31
0.0
  0
LINE
  5
25C4
330
1F
100
AcDbEntity
  8
外形線
100
AcDbLine
 10
33502.57906368178
 20
29061.77221026549
 30
0.0
 11
33502.57906368178
 21
29061.91204056182
 31
0.0
  0
LINE
  5
25C5
330
1F
100
AcDbEntity
  8
孔
100
AcDbLine
 10
33523.57906368178
 20
29060.77221026549
 30
0.0
 11
33524.60325881663
 21
29068.90528350716
 31
0.0
  0
LINE
  5
25C6
330
1F
100
AcDbEntity
  8
孔
100
AcDbLine
 10
33527.55486854693
 20
29068.90528350716
 30
0.0
 11
33528.57906368178
 21
29060.77221026549
 31
0.0
  0
ARC
  5
25C7
330
1F
100
AcDbEntity
  8
孔
100
AcDbCircle
 10
33526.07906368178
 20
29068.63695534987
 30
0.0
 40
1.5
100
AcDbArc
 50
10.30484646891518
 51
169.6951535310848
  0
LINE
  5
25C8
330
1F
100
AcDbEntity
  8
孔
100
AcDbLine
 10
33523.57906368178
 20
29060.77221026549
 30
0.0
 11
33528.57906368178
 21
29060.77221026549
 31
0.0
  0
LINE
  5
25C9
330
1F
100
AcDbEntity
  8
孔
100
AcDbLine
 10
33523.57906368178
 20
29060.77221026549
 30
0.0
 11
33523.57906368178
 21
29060.27221026549
 31
0.0
  0
LINE
  5
25CA
330
1F
100
AcDbEntity
  8
孔
100
AcDbLine
 10
33523.57906368178
 20
29060.27221026549
 30
0.0
 11
33528.57906368178
 21
29060.27221026549
 31
0.0
  0
LINE
  5
25CB
330
1F
100
AcDbEntity
  8
孔
100
AcDbLine
 10
33528.57906368178
 20
29060.27221026549
 30
0.0
 11
33528.57906368178
 21
29060.77221026549
 31
0.0
  0
CIRCLE
  5
25CC
330
1F
100
AcDbEntity
  8
孔
100
AcDbCircle
 10
33536.07906368178
 20
29065.27221026549
 30
0.0
 40
2.1
  0
CIRCLE
  5
25CD
330
1F
100
AcDbEntity
  8
孔
100
AcDbCircle
 10
33564.07906368178
 20
29065.27221026549
 30
0.0
 40
2.1
  0
LINE
  5
25CE
330
1F
100
AcDbEntity
  8
孔
100
AcDbLine
 10
33543.07906368178
 20
29068.77221026549
 30
0.0
 11
33543.07906368178
 21
29061.77221026549
 31
0.0
  0
LINE
  5
25CF
330
1F
100
AcDbEntity
  8
孔
100
AcDbLine
 10
33543.07906368178
 20
29061.77221026549
 30
0.0
 11
33557.07906368178
 21
29061.77221026549
 31
0.0
  0
LINE
  5
25D0
330
1F
100
AcDbEntity
  8
孔
100
AcDbLine
 10
33557.07906368178
 20
29061.77221026549
 30
0.0
 11
33557.07906368178
 21
29068.77221026549
 31
0.0
  0
LINE
  5
25D1
330
1F
100
AcDbEntity
  8
孔
100
AcDbLine
 10
33557.07906368178
 20
29068.77221026549
 30
0.0
 11
33543.07906368178
 21
29068.77221026549
 31
0.0
  0
LINE
  5
25D2
330
1F
100
AcDbEntity
  8
孔
100
AcDbLine
 10
33573.07906368178
 20
29060.77221026549
 30
0.0
 11
33574.10325881663
 21
29068.90528350716
 31
0.0
  0
LINE
  5
25D3
330
1F
100
AcDbEntity
  8
孔
100
AcDbLine
 10
33577.05486854693
 20
29068.90528350716
 30
0.0
 11
33578.07906368178
 21
29060.77221026549
 31
0.0
  0
ARC
  5
25D4
330
1F
100
AcDbEntity
  8
孔
100
AcDbCircle
 10
33575.57906368178
 20
29068.63695534987
 30
0.0
 40
1.5
100
AcDbArc
 50
10.30484646891518
 51
169.6951535310848
  0
LINE
  5
25D5
330
1F
100
AcDbEntity
  8
孔
100
AcDbLine
 10
33573.07906368178
 20
29060.77221026549
 30
0.0
 11
33578.07906368178
 21
29060.77221026549
 31
0.0
  0
LINE
  5
25D6
330
1F
100
AcDbEntity
  8
孔
100
AcDbLine
 10
33573.07906368178
 20
29060.77221026549
 30
0.0
 11
33573.07906368178
 21
29060.27221026549
 31
0.0
  0
LINE
  5
25D7
330
1F
100
AcDbEntity
  8
孔
100
AcDbLine
 10
33573.07906368178
 20
29060.27221026549
 30
0.0
 11
33578.07906368178
 21
29060.27221026549
 31
0.0
  0
LINE
  5
25D8
330
1F
100
AcDbEntity
  8
孔
100
AcDbLine
 10
33578.07906368178
 20
29060.27221026549
 30
0.0
 11
33578.07906368178
 21
29060.77221026549
 31
0.0
  0
LINE
  5
25D9
330
1F
100
AcDbEntity
  8
孔
100
AcDbLine
 10
34154.57906368178
 20
29060.77221026549
 30
0.0
 11
34155.60325881663
 21
29068.90528350716
 31
0.0
  0
LINE
  5
25DA
330
1F
100
AcDbEntity
  8
孔
100
AcDbLine
 10
34158.55486854693
 20
29068.90528350716
 30
0.0
 11
34159.57906368178
 21
29060.77221026549
 31
0.0
  0
ARC
  5
25DB
330
1F
100
AcDbEntity
  8
孔
100
AcDbCircle
 10
34157.07906368178
 20
29068.63695534987
 30
0.0
 40
1.5
100
AcDbArc
 50
10.30484646891518
 51
169.6951535310848
  0
LINE
  5
25DC
330
1F
100
AcDbEntity
  8
孔
100
AcDbLine
 10
34154.57906368178
 20
29060.77221026549
 30
0.0
 11
34159.57906368178
 21
29060.77221026549
 31
0.0
  0
LINE
  5
25DD
330
1F
100
AcDbEntity
  8
孔
100
AcDbLine
 10
34154.57906368178
 20
29060.77221026549
 30
0.0
 11
34154.57906368178
 21
29060.27221026549
 31
0.0
  0
LINE
  5
25DE
330
1F
100
AcDbEntity
  8
孔
100
AcDbLine
 10
34154.57906368178
 20
29060.27221026549
 30
0.0
 11
34159.57906368178
 21
29060.27221026549
 31
0.0
  0
LINE
  5
25DF
330
1F
100
AcDbEntity
  8
孔
100
AcDbLine
 10
34159.57906368178
 20
29060.27221026549
 30
0.0
 11
34159.57906368178
 21
29060.77221026549
 31
0.0
  0
CIRCLE
  5
25E0
330
1F
100
AcDbEntity
  8
孔
100
AcDbCircle
 10
33595.07906368178
 20
29065.27221026549
 30
0.0
 40
4.0
  0
CIRCLE
  5
25E1
330
1F
100
AcDbEntity
  8
孔
100
AcDbCircle
 10
33595.07906368178
 20
29065.27221026549
 30
0.0
 40
5.0
  0
LINE
  5
25E2
330
1F
100
AcDbEntity
  8
孔
100
AcDbLine
 10
33612.17906368181
 20
29067.3722102655
 30
0.0
 11
33621.97906368181
 21
29067.3722102655
 31
0.0
  0
LINE
  5
25E3
330
1F
100
AcDbEntity
  8
孔
100
AcDbLine
 10
33612.17906368181
 20
29063.1722102655
 30
0.0
 11
33621.97906368181
 21
29063.1722102655
 31
0.0
  0
ARC
  5
25E4
330
1F
100
AcDbEntity
  8
孔
100
AcDbCircle
 10
33612.17906368179
 20
29065.27221026549
 30
0.0
 40
2.100000000013096
100
AcDbArc
 50
89.99999999958312
 51
270.0000000004169
  0
ARC
  5
25E5
330
1F
100
AcDbEntity
  8
孔
100
AcDbCircle
 10
33621.97906368182
 20
29065.2722102655
 30
0.0
 40
2.099999999998544
100
AcDbArc
 50
270.0
 51
90.0
  0
CIRCLE
  5
25E6
330
1F
100
AcDbEntity
  8
孔
100
AcDbCircle
 10
33787.07906368178
 20
29065.27221026549
 30
0.0
 40
4.0
  0
CIRCLE
  5
25E7
330
1F
100
AcDbEntity
  8
孔
100
AcDbCircle
 10
33787.07906368178
 20
29065.27221026549
 30
0.0
 40
5.0
  0
CIRCLE
  5
25E8
330
1F
100
AcDbEntity
  8
孔
100
AcDbCircle
 10
34119.57906368176
 20
29069.27221026549
 30
0.0
 40
2.1
  0
CIRCLE
  5
25E9
330
1F
100
AcDbEntity
  8
孔
100
AcDbCircle
 10
34119.57906368176
 20
29060.27221026549
 30
0.0
 40
1.5
  0
LINE
  5
25EA
330
1F
100
AcDbEntity
  8
孔
100
AcDbLine
 10
34137.67906368178
 20
29067.37221026549
 30
0.0
 11
34147.47906368178
 21
29067.37221026549
 31
0.0
  0
LINE
  5
25EB
330
1F
100
AcDbEntity
  8
孔
100
AcDbLine
 10
34137.67906368178
 20
29063.17221026549
 30
0.0
 11
34147.47906368178
 21
29063.17221026549
 31
0.0
  0
ARC
  5
25EC
330
1F
100
AcDbEntity
  8
孔
100
AcDbCircle
 10
34137.67906368176
 20
29065.27221026549
 30
0.0
 40
2.099999999998544
100
AcDbArc
 50
89.99999999958312
 51
270.0000000004169
  0
ARC
  5
25ED
330
1F
100
AcDbEntity
  8
孔
100
AcDbCircle
 10
34147.47906368178
 20
29065.27221026547
 30
0.0
 40
2.100000000013096
100
AcDbArc
 50
270.0
 51
90.0
  0
LINE
  5
25EE
330
1F
100
AcDbEntity
  8
孔
100
AcDbLine
 10
34175.07906368178
 20
29068.77221026549
 30
0.0
 11
34181.07906368178
 21
29068.77221026549
 31
0.0
  0
LINE
  5
25EF
330
1F
100
AcDbEntity
  8
孔
100
AcDbLine
 10
34175.07906368178
 20
29061.77221026549
 30
0.0
 11
34181.07906368178
 21
29061.77221026549
 31
0.0
  0
ARC
  5
25F0
330
1F
100
AcDbEntity
  8
孔
100
AcDbCircle
 10
34181.07906368179
 20
29065.27221026549
 30
0.0
 40
3.5
100
AcDbArc
 50
269.9999999995831
 51
90.00000000041687
  0
ARC
  5
25F1
330
1F
100
AcDbEntity
  8
孔
100
AcDbCircle
 10
34175.07906368179
 20
29065.27221026549
 30
0.0
 40
3.5
100
AcDbArc
 50
90.00000000041687
 51
269.9999999995831
  0
CIRCLE
  5
25F2
330
1F
100
AcDbEntity
  8
孔
100
AcDbCircle
 10
34194.57906368178
 20
29065.27221026549
 30
0.0
 40
2.75
  0
ARC
  5
25F3
330
1F
100
AcDbEntity
  8
孔
100
AcDbCircle
 10
34225.57906368178
 20
29065.27221026549
 30
0.0
 40
5.0
100
AcDbArc
 50
90.0
 51
270.0
  0
LINE
  5
25F4
330
1F
100
AcDbEntity
  8
孔
100
AcDbLine
 10
34268.07906368178
 20
29070.27221026549
 30
0.0
 11
34255.07906368178
 21
29070.27221026549
 31
0.0
  0
LINE
  5
25F5
330
1F
100
AcDbEntity
  8
孔
100
AcDbLine
 10
34235.07906368178
 20
29070.27221026549
 30
0.0
 11
34225.57906368178
 21
29070.27221026549
 31
0.0
  0
LINE
  5
25F6
330
1F
100
AcDbEntity
  8
孔
100
AcDbLine
 10
34268.07906368178
 20
29060.27221026549
 30
0.0
 11
34255.07906368178
 21
29060.27221026549
 31
0.0
  0
LINE
  5
25F7
330
1F
100
AcDbEntity
  8
孔
100
AcDbLine
 10
34235.07906368178
 20
29060.27221026549
 30
0.0
 11
34225.57906368178
 21
29060.27221026549
 31
0.0
  0
LINE
  5
25F8
330
1F
100
AcDbEntity
  8
外形線
100
AcDbLine
 10
34255.07906368178
 20
29069.27221026549
 30
0.0
 11
34255.07906368178
 21
29061.27221026549
 31
0.0
  0
LINE
  5
25F9
330
1F
100
AcDbEntity
  8
外形線
100
AcDbLine
 10
34251.57906368178
 20
29057.77221026549
 30
0.0
 11
34242.57906368178
 21
29057.77221026549
 31
0.0
  0
ARC
  5
25FA
330
1F
100
AcDbEntity
  8
外形線
100
AcDbCircle
 10
34238.57906368178
 20
29061.27221026549
 30
0.0
 40
3.5
100
AcDbArc
 50
180.0
 51
270.0
  0
ARC
  5
25FB
330
1F
100
AcDbEntity
  8
外形線
100
AcDbCircle
 10
34251.57906368178
 20
29061.27221026549
 30
0.0
 40
3.5
100
AcDbArc
 50
270.0
 51
0.0
  0
LINE
  5
25FC
330
1F
100
AcDbEntity
  8
外形線
100
AcDbLine
 10
34235.07906368178
 20
29061.27221026549
 30
0.0
 11
34235.07906368178
 21
29069.27221026549
 31
0.0
  0
ARC
  5
25FD
330
1F
100
AcDbEntity
  8
外形線
100
AcDbCircle
 10
34238.57906368178
 20
29069.27221026549
 30
0.0
 40
3.5
100
AcDbArc
 50
90.0
 51
180.0
  0
LINE
  5
25FE
330
1F
100
AcDbEntity
  8
外形線
100
AcDbLine
 10
34242.57906368178
 20
29072.77221026549
 30
0.0
 11
34251.57906368178
 21
29072.77221026549
 31
0.0
  0
ARC
  5
25FF
330
1F
100
AcDbEntity
  8
外形線
100
AcDbCircle
 10
34251.57906368178
 20
29069.27221026549
 30
0.0
 40
3.5
100
AcDbArc
 50
0.0
 51
90.0
  0
LINE
  5
2600
330
1F
100
AcDbEntity
  8
外形線
100
AcDbLine
 10
34255.07906368178
 20
29069.27221026549
 30
0.0
 11
34253.07906368178
 21
29069.27221026549
 31
0.0
  0
LINE
  5
2601
330
1F
100
AcDbEntity
  8
外形線
100
AcDbLine
 10
34253.07906368178
 20
29069.27221026549
 30
0.0
 11
34253.07906368178
 21
29061.27221026549
 31
0.0
  0
LINE
  5
2602
330
1F
100
AcDbEntity
  8
外形線
100
AcDbLine
 10
34253.07906368178
 20
29061.27221026549
 30
0.0
 11
34255.07906368178
 21
29061.27221026549
 31
0.0
  0
LINE
  5
2603
330
1F
100
AcDbEntity
  8
外形線
100
AcDbLine
 10
34242.57906368178
 20
29058.77221026549
 30
0.0
 11
34242.57906368178
 21
29056.27221026549
 31
0.0
  0
LINE
  5
2604
330
1F
100
AcDbEntity
  8
外形線
100
AcDbLine
 10
34242.57906368178
 20
29056.27221026549
 30
0.0
 11
34238.57906368178
 21
29056.27221026549
 31
0.0
  0
LINE
  5
2605
330
1F
100
AcDbEntity
  8
外形線
100
AcDbLine
 10
34238.57906368178
 20
29056.27221026549
 30
0.0
 11
34238.57906368178
 21
29058.77221026549
 31
0.0
  0
LINE
  5
2606
330
1F
100
AcDbEntity
  8
外形線
100
AcDbLine
 10
34238.57906368178
 20
29058.77221026549
 30
0.0
 11
34242.57906368178
 21
29058.77221026549
 31
0.0
  0
LINE
  5
2607
330
1F
100
AcDbEntity
  8
外形線
100
AcDbLine
 10
34242.57906368178
 20
29071.77221026549
 30
0.0
 11
34242.57906368178
 21
29074.27221026549
 31
0.0
  0
LINE
  5
2608
330
1F
100
AcDbEntity
  8
外形線
100
AcDbLine
 10
34242.57906368178
 20
29074.27221026549
 30
0.0
 11
34238.57906368178
 21
29074.27221026549
 31
0.0
  0
LINE
  5
2609
330
1F
100
AcDbEntity
  8
外形線
100
AcDbLine
 10
34238.57906368178
 20
29074.27221026549
 30
0.0
 11
34238.57906368178
 21
29071.77221026549
 31
0.0
  0
LINE
  5
260A
330
1F
100
AcDbEntity
  8
外形線
100
AcDbLine
 10
34238.57906368178
 20
29071.77221026549
 30
0.0
 11
34242.57906368178
 21
29071.77221026549
 31
0.0
  0
LINE
  5
260B
330
1F
100
AcDbEntity
  8
外形線
100
AcDbLine
 10
34235.07906368178
 20
29068.27221026549
 30
0.0
 11
34232.07906368178
 21
29068.27221026549
 31
0.0
  0
LINE
  5
260C
330
1F
100
AcDbEntity
  8
外形線
100
AcDbLine
 10
34232.07906368178
 20
29068.27221026549
 30
0.0
 11
34232.07906368178
 21
29062.27221026549
 31
0.0
  0
LINE
  5
260D
330
1F
100
AcDbEntity
  8
外形線
100
AcDbLine
 10
34232.07906368178
 20
29062.27221026549
 30
0.0
 11
34235.07906368178
 21
29062.27221026549
 31
0.0
  0
LINE
  5
260E
330
1F
100
AcDbEntity
  8
外形線
100
AcDbLine
 10
34239.07906368178
 20
29067.27221026549
 30
0.0
 11
34250.07906368178
 21
29067.27221026549
 31
0.0
  0
LINE
  5
260F
330
1F
100
AcDbEntity
  8
外形線
100
AcDbLine
 10
34250.07906368178
 20
29067.27221026549
 30
0.0
 11
34250.07906368178
 21
29063.27221026549
 31
0.0
  0
LINE
  5
2610
330
1F
100
AcDbEntity
  8
外形線
100
AcDbLine
 10
34250.07906368178
 20
29063.27221026549
 30
0.0
 11
34239.07906368178
 21
29063.27221026549
 31
0.0
  0
ARC
  5
2611
330
1F
100
AcDbEntity
  8
外形線
100
AcDbCircle
 10
34239.07906368178
 20
29065.27221026549
 30
0.0
 40
2.0
100
AcDbArc
 50
90.0
 51
270.0
  0
LINE
  5
2612
330
1F
100
AcDbEntity
  8
外形線
100
AcDbLine
 10
34255.07906368178
 20
29062.02221026549
 30
0.0
 11
34254.07906368178
 21
29062.02221026549
 31
0.0
  0
LINE
  5
2613
330
1F
100
AcDbEntity
  8
外形線
100
AcDbLine
 10
34254.07906368178
 20
29062.02221026549
 30
0.0
 11
34254.07906368178
 21
29068.52221026549
 31
0.0
  0
LINE
  5
2614
330
1F
100
AcDbEntity
  8
外形線
100
AcDbLine
 10
34254.07906368178
 20
29068.52221026549
 30
0.0
 11
34255.07906368178
 21
29068.52221026549
 31
0.0
  0
LINE
  5
2615
330
1F
100
AcDbEntity
  8
外形線
100
AcDbLine
 10
34268.07906368178
 20
29074.77221026549
 30
0.0
 11
34209.57906368178
 21
29074.77221026549
 31
0.0
  0
LINE
  5
2616
330
1F
100
AcDbEntity
  8
外形線
100
AcDbLine
 10
34209.57906368178
 20
29074.77221026549
 30
0.0
 11
34209.57906368178
 21
29067.57480388873
 31
0.0
  0
LINE
  5
2617
330
1F
100
AcDbEntity
  8
外形線
100
AcDbLine
 10
34209.57906368178
 20
29062.96961664224
 30
0.0
 11
34209.57906368178
 21
29055.77221026549
 31
0.0
  0
LINE
  5
2618
330
1F
100
AcDbEntity
  8
外形線
100
AcDbLine
 10
34209.57906368178
 20
29055.77221026549
 30
0.0
 11
34268.07906368178
 21
29055.77221026549
 31
0.0
  0
LINE
  5
2619
330
1F
100
AcDbEntity
  8
外形線
100
AcDbLine
 10
34268.07906368178
 20
29056.77221026549
 30
0.0
 11
34242.57906368178
 21
29056.77221026549
 31
0.0
  0
LINE
  5
261A
330
1F
100
AcDbEntity
  8
外形線
100
AcDbLine
 10
34238.57906368178
 20
29056.77221026549
 30
0.0
 11
34209.57906368178
 21
29056.77221026549
 31
0.0
  0
LINE
  5
261B
330
1F
100
AcDbEntity
  8
外形線
100
AcDbLine
 10
34209.57906368178
 20
29073.77221026549
 30
0.0
 11
34238.57906368178
 21
29073.77221026549
 31
0.0
  0
LINE
  5
261C
330
1F
100
AcDbEntity
  8
外形線
100
AcDbLine
 10
34268.07906368178
 20
29073.77221026549
 30
0.0
 11
34242.57906368178
 21
29073.77221026549
 31
0.0
  0
LINE
  5
261D
330
1F
100
AcDbEntity
  8
外形線
100
AcDbLine
 10
34213.57906368178
 20
29068.77221026549
 30
0.0
 11
34217.57906368178
 21
29068.77221026549
 31
0.0
  0
LINE
  5
261E
330
1F
100
AcDbEntity
  8
外形線
100
AcDbLine
 10
34217.57906368178
 20
29068.77221026549
 30
0.0
 11
34217.57906368178
 21
29061.77221026549
 31
0.0
  0
LINE
  5
261F
330
1F
100
AcDbEntity
  8
外形線
100
AcDbLine
 10
34217.57906368178
 20
29061.77221026549
 30
0.0
 11
34213.57906368178
 21
29061.77221026549
 31
0.0
  0
LINE
  5
2620
330
1F
100
AcDbEntity
  8
外形線
100
AcDbLine
 10
34214.07906368178
 20
29061.77221026549
 30
0.0
 11
34214.07906368178
 21
29068.77221026549
 31
0.0
  0
LINE
  5
2621
330
1F
100
AcDbEntity
  8
外形線
100
AcDbLine
 10
34214.07906368178
 20
29068.77221026549
 30
0.0
 11
34206.47783543075
 21
29066.64644626784
 31
0.0
  0
LINE
  5
2622
330
1F
100
AcDbEntity
  8
外形線
100
AcDbLine
 10
34206.47783543075
 20
29063.89797426314
 30
0.0
 11
34214.07906368178
 21
29061.77221026549
 31
0.0
  0
ARC
  5
2623
330
1F
100
AcDbEntity
  8
外形線
100
AcDbCircle
 10
34207.07906368178
 20
29065.27221026549
 30
0.0
 40
1.5
100
AcDbArc
 50
113.6293777308601
 51
246.3706222691399
  0
LINE
  5
2624
330
1F
100
AcDbEntity
  8
外形線
100
AcDbLine
 10
34213.57906368178
 20
29068.77221026549
 30
0.0
 11
34213.57906368178
 21
29068.63237996916
 31
0.0
  0
LINE
  5
2625
330
1F
100
AcDbEntity
  8
外形線
100
AcDbLine
 10
34213.57906368178
 20
29061.77221026549
 30
0.0
 11
34213.57906368178
 21
29061.91204056182
 31
0.0
  0
CIRCLE
  5
2626
330
1F
100
AcDbEntity
  8
孔
100
AcDbCircle
 10
33641.07906368178
 20
29065.27221026549
 30
0.0
 40
2.1
  0
CIRCLE
  5
2627
330
1F
100
AcDbEntity
  8
孔
100
AcDbCircle
 10
33698.07906368178
 20
29065.27221026549
 30
0.0
 40
2.1
  0
CIRCLE
  5
2628
330
1F
100
AcDbEntity
  8
孔
100
AcDbCircle
 10
33756.07906368178
 20
29065.27221026549
 30
0.0
 40
2.1
  0
CIRCLE
  5
2629
330
1F
100
AcDbEntity
  8
孔
100
AcDbCircle
 10
33771.07906368178
 20
29065.27221026549
 30
0.0
 40
2.1
  0
CIRCLE
  5
262A
330
1F
100
AcDbEntity
  8
孔
100
AcDbCircle
 10
33817.07906368178
 20
29065.27221026549
 30
0.0
 40
2.1
  0
CIRCLE
  5
262B
330
1F
100
AcDbEntity
  8
孔
100
AcDbCircle
 10
33958.07906368178
 20
29065.27221026549
 30
0.0
 40
2.1
  0
CIRCLE
  5
262C
330
1F
100
AcDbEntity
  8
孔
100
AcDbCircle
 10
33973.07906368178
 20
29065.27221026549
 30
0.0
 40
2.1
  0
CIRCLE
  5
262D
330
1F
100
AcDbEntity
  8
孔
100
AcDbCircle
 10
34033.07906368178
 20
29065.27221026549
 30
0.0
 40
2.1
  0
LINE
  5
262E
330
1F
100
AcDbEntity
  8
孔
100
AcDbLine
 10
33629.07906368178
 20
29060.77221026549
 30
0.0
 11
33630.10325881663
 21
29068.90528350716
 31
0.0
  0
LINE
  5
262F
330
1F
100
AcDbEntity
  8
孔
100
AcDbLine
 10
33633.05486854692
 20
29068.90528350716
 30
0.0
 11
33634.07906368178
 21
29060.77221026549
 31
0.0
  0
ARC
  5
2630
330
1F
100
AcDbEntity
  8
孔
100
AcDbCircle
 10
33631.57906368178
 20
29068.63695534987
 30
0.0
 40
1.5
100
AcDbArc
 50
10.30484646891518
 51
169.6951535310848
  0
LINE
  5
2631
330
1F
100
AcDbEntity
  8
孔
100
AcDbLine
 10
33629.07906368178
 20
29060.77221026549
 30
0.0
 11
33634.07906368178
 21
29060.77221026549
 31
0.0
  0
LINE
  5
2632
330
1F
100
AcDbEntity
  8
孔
100
AcDbLine
 10
33629.07906368178
 20
29060.77221026549
 30
0.0
 11
33629.07906368178
 21
29060.27221026549
 31
0.0
  0
LINE
  5
2633
330
1F
100
AcDbEntity
  8
孔
100
AcDbLine
 10
33629.07906368178
 20
29060.27221026549
 30
0.0
 11
33634.07906368178
 21
29060.27221026549
 31
0.0
  0
LINE
  5
2634
330
1F
100
AcDbEntity
  8
孔
100
AcDbLine
 10
33634.07906368178
 20
29060.27221026549
 30
0.0
 11
33634.07906368178
 21
29060.77221026549
 31
0.0
  0
LINE
  5
2635
330
1F
100
AcDbEntity
  8
孔
100
AcDbLine
 10
33761.07906368178
 20
29060.77221026549
 30
0.0
 11
33762.10325881663
 21
29068.90528350716
 31
0.0
  0
LINE
  5
2636
330
1F
100
AcDbEntity
  8
孔
100
AcDbLine
 10
33765.05486854693
 20
29068.90528350716
 30
0.0
 11
33766.07906368178
 21
29060.77221026549
 31
0.0
  0
ARC
  5
2637
330
1F
100
AcDbEntity
  8
孔
100
AcDbCircle
 10
33763.57906368178
 20
29068.63695534987
 30
0.0
 40
1.5
100
AcDbArc
 50
10.30484646891518
 51
169.6951535310848
  0
LINE
  5
2638
330
1F
100
AcDbEntity
  8
孔
100
AcDbLine
 10
33761.07906368178
 20
29060.77221026549
 30
0.0
 11
33766.07906368178
 21
29060.77221026549
 31
0.0
  0
LINE
  5
2639
330
1F
100
AcDbEntity
  8
孔
100
AcDbLine
 10
33761.07906368178
 20
29060.77221026549
 30
0.0
 11
33761.07906368178
 21
29060.27221026549
 31
0.0
  0
LINE
  5
263A
330
1F
100
AcDbEntity
  8
孔
100
AcDbLine
 10
33761.07906368178
 20
29060.27221026549
 30
0.0
 11
33766.07906368178
 21
29060.27221026549
 31
0.0
  0
LINE
  5
263B
330
1F
100
AcDbEntity
  8
孔
100
AcDbLine
 10
33766.07906368178
 20
29060.27221026549
 30
0.0
 11
33766.07906368178
 21
29060.77221026549
 31
0.0
  0
LINE
  5
263C
330
1F
100
AcDbEntity
  8
孔
100
AcDbLine
 10
33802.07906368178
 20
29060.77221026549
 30
0.0
 11
33803.10325881663
 21
29068.90528350716
 31
0.0
  0
LINE
  5
263D
330
1F
100
AcDbEntity
  8
孔
100
AcDbLine
 10
33806.05486854693
 20
29068.90528350716
 30
0.0
 11
33807.07906368178
 21
29060.77221026549
 31
0.0
  0
ARC
  5
263E
330
1F
100
AcDbEntity
  8
孔
100
AcDbCircle
 10
33804.57906368178
 20
29068.63695534987
 30
0.0
 40
1.5
100
AcDbArc
 50
10.30484646891518
 51
169.6951535310848
  0
LINE
  5
263F
330
1F
100
AcDbEntity
  8
孔
100
AcDbLine
 10
33802.07906368178
 20
29060.77221026549
 30
0.0
 11
33807.07906368178
 21
29060.77221026549
 31
0.0
  0
LINE
  5
2640
330
1F
100
AcDbEntity
  8
孔
100
AcDbLine
 10
33802.07906368178
 20
29060.77221026549
 30
0.0
 11
33802.07906368178
 21
29060.27221026549
 31
0.0
  0
LINE
  5
2641
330
1F
100
AcDbEntity
  8
孔
100
AcDbLine
 10
33802.07906368178
 20
29060.27221026549
 30
0.0
 11
33807.07906368178
 21
29060.27221026549
 31
0.0
  0
LINE
  5
2642
330
1F
100
AcDbEntity
  8
孔
100
AcDbLine
 10
33807.07906368178
 20
29060.27221026549
 30
0.0
 11
33807.07906368178
 21
29060.77221026549
 31
0.0
  0
LINE
  5
2643
330
1F
100
AcDbEntity
  8
孔
100
AcDbLine
 10
34043.07906368178
 20
29060.77221026549
 30
0.0
 11
34044.10325881663
 21
29068.90528350716
 31
0.0
  0
LINE
  5
2644
330
1F
100
AcDbEntity
  8
孔
100
AcDbLine
 10
34047.05486854693
 20
29068.90528350716
 30
0.0
 11
34048.07906368178
 21
29060.77221026549
 31
0.0
  0
ARC
  5
2645
330
1F
100
AcDbEntity
  8
孔
100
AcDbCircle
 10
34045.57906368178
 20
29068.63695534987
 30
0.0
 40
1.5
100
AcDbArc
 50
10.30484646891518
 51
169.6951535310848
  0
LINE
  5
2646
330
1F
100
AcDbEntity
  8
孔
100
AcDbLine
 10
34043.07906368178
 20
29060.77221026549
 30
0.0
 11
34048.07906368178
 21
29060.77221026549
 31
0.0
  0
LINE
  5
2647
330
1F
100
AcDbEntity
  8
孔
100
AcDbLine
 10
34043.07906368178
 20
29060.77221026549
 30
0.0
 11
34043.07906368178
 21
29060.27221026549
 31
0.0
  0
LINE
  5
2648
330
1F
100
AcDbEntity
  8
孔
100
AcDbLine
 10
34043.07906368178
 20
29060.27221026549
 30
0.0
 11
34048.07906368178
 21
29060.27221026549
 31
0.0
  0
LINE
  5
2649
330
1F
100
AcDbEntity
  8
孔
100
AcDbLine
 10
34048.07906368178
 20
29060.27221026549
 30
0.0
 11
34048.07906368178
 21
29060.77221026549
 31
0.0
  0
LINE
  5
264A
330
1F
100
AcDbEntity
  8
孔
100
AcDbLine
 10
33741.17906368178
 20
29067.37221026549
 30
0.0
 11
33744.97906368178
 21
29067.37221026549
 31
0.0
  0
LINE
  5
264B
330
1F
100
AcDbEntity
  8
孔
100
AcDbLine
 10
33741.17906368178
 20
29063.17221026549
 30
0.0
 11
33744.97906368178
 21
29063.17221026549
 31
0.0
  0
ARC
  5
264C
330
1F
100
AcDbEntity
  8
孔
100
AcDbCircle
 10
33741.17906368176
 20
29065.27221026549
 30
0.0
 40
2.099999999998544
100
AcDbArc
 50
89.99999999958312
 51
270.0000000004169
  0
ARC
  5
264D
330
1F
100
AcDbEntity
  8
孔
100
AcDbCircle
 10
33744.97906368178
 20
29065.27221026547
 30
0.0
 40
2.100000000013096
100
AcDbArc
 50
270.0
 51
90.0
  0
LINE
  5
264E
330
1F
100
AcDbEntity
  8
孔
100
AcDbLine
 10
33989.07906368178
 20
29069.27221026549
 30
0.0
 11
34016.07906368178
 21
29069.27221026549
 31
0.0
  0
LINE
  5
264F
330
1F
100
AcDbEntity
  8
孔
100
AcDbLine
 10
33989.07906368178
 20
29061.27221026549
 30
0.0
 11
34016.07906368178
 21
29061.27221026549
 31
0.0
  0
ARC
  5
2650
330
1F
100
AcDbEntity
  8
孔
100
AcDbCircle
 10
33989.07906368178
 20
29065.27221026549
 30
0.0
 40
4.0
100
AcDbArc
 50
90.0
 51
270.0
  0
ARC
  5
2651
330
1F
100
AcDbEntity
  8
孔
100
AcDbCircle
 10
34016.07906368178
 20
29065.27221026549
 30
0.0
 40
4.0
100
AcDbArc
 50
270.0
 51
90.0
  0
LINE
  5
2652
330
1F
100
AcDbEntity
  8
外形線
100
AcDbLine
 10
34465.57906245073
 20
28695.02447692824
 30
0.0
 11
34465.57906245073
 21
28680.35326095658
 31
0.0
  0
LINE
  5
2653
330
1F
100
AcDbEntity
  8
外形線
100
AcDbLine
 10
34465.57906245073
 20
28680.35326095658
 30
0.0
 11
34472.32906245074
 21
28680.35326095658
 31
0.0
  0
LINE
  5
2654
330
1F
100
AcDbEntity
  8
外形線
100
AcDbLine
 10
34478.32906245074
 20
28680.35326095658
 30
0.0
 11
34485.07906245074
 21
28680.35326095658
 31
0.0
  0
LINE
  5
2655
330
1F
100
AcDbEntity
  8
外形線
100
AcDbLine
 10
34485.07906245074
 20
28680.35326095658
 30
0.0
 11
34485.07906245074
 21
28695.02447692824
 31
0.0
  0
LINE
  5
2656
330
1F
100
AcDbEntity
  8
外形線
100
AcDbLine
 10
34463.52906245073
 20
28688.35326095658
 30
0.0
 11
34463.52906245073
 21
28678.35326095658
 31
0.0
  0
LINE
  5
2657
330
1F
100
AcDbEntity
  8
外形線
100
AcDbLine
 10
34463.52906245073
 20
28678.35326095658
 30
0.0
 11
34487.12906245074
 21
28678.35326095658
 31
0.0
  0
LINE
  5
2658
330
1F
100
AcDbEntity
  8
外形線
100
AcDbLine
 10
34487.12906245074
 20
28678.35326095658
 30
0.0
 11
34487.12906245074
 21
28688.35326095658
 31
0.0
  0
LINE
  5
2659
330
1F
100
AcDbEntity
  8
外形線
100
AcDbLine
 10
34463.52906245073
 20
28688.35326095658
 30
0.0
 11
34465.57906245073
 21
28688.35326095658
 31
0.0
  0
LINE
  5
265A
330
1F
100
AcDbEntity
  8
外形線
100
AcDbLine
 10
34465.57906245073
 20
28688.35326095658
 30
0.0
 11
34465.57906245073
 21
28684.05326095658
 31
0.0
  0
LINE
  5
265B
330
1F
100
AcDbEntity
  8
外形線
100
AcDbLine
 10
34465.57906245073
 20
28684.05326095658
 30
0.0
 11
34464.97906245074
 21
28684.05326095658
 31
0.0
  0
LINE
  5
265C
330
1F
100
AcDbEntity
  8
外形線
100
AcDbLine
 10
34464.97906245074
 20
28684.05326095658
 30
0.0
 11
34464.97906245074
 21
28687.75326095658
 31
0.0
  0
LINE
  5
265D
330
1F
100
AcDbEntity
  8
外形線
100
AcDbLine
 10
34464.97906245074
 20
28687.75326095658
 30
0.0
 11
34464.12906245073
 21
28687.75326095658
 31
0.0
  0
LINE
  5
265E
330
1F
100
AcDbEntity
  8
外形線
100
AcDbLine
 10
34464.12906245073
 20
28687.75326095658
 30
0.0
 11
34464.12906245073
 21
28678.95326095658
 31
0.0
  0
LINE
  5
265F
330
1F
100
AcDbEntity
  8
外形線
100
AcDbLine
 10
34464.12906245073
 20
28678.95326095658
 30
0.0
 11
34472.32906245074
 21
28678.95326095658
 31
0.0
  0
LINE
  5
2660
330
1F
100
AcDbEntity
  8
外形線
100
AcDbLine
 10
34478.32906245074
 20
28678.95326095658
 30
0.0
 11
34486.52906245074
 21
28678.95326095658
 31
0.0
  0
LINE
  5
2661
330
1F
100
AcDbEntity
  8
外形線
100
AcDbLine
 10
34486.52906245074
 20
28678.95326095658
 30
0.0
 11
34486.52906245074
 21
28687.75326095658
 31
0.0
  0
LINE
  5
2662
330
1F
100
AcDbEntity
  8
外形線
100
AcDbLine
 10
34486.52906245074
 20
28687.75326095658
 30
0.0
 11
34485.67906245073
 21
28687.75326095658
 31
0.0
  0
LINE
  5
2663
330
1F
100
AcDbEntity
  8
外形線
100
AcDbLine
 10
34485.67906245073
 20
28687.75326095658
 30
0.0
 11
34485.67906245073
 21
28684.05326095658
 31
0.0
  0
LINE
  5
2664
330
1F
100
AcDbEntity
  8
外形線
100
AcDbLine
 10
34485.67906245073
 20
28684.05326095658
 30
0.0
 11
34485.07906245074
 21
28684.05326095658
 31
0.0
  0
LINE
  5
2665
330
1F
100
AcDbEntity
  8
外形線
100
AcDbLine
 10
34485.07906245074
 20
28684.05326095658
 30
0.0
 11
34485.07906245074
 21
28688.35326095658
 31
0.0
  0
LINE
  5
2666
330
1F
100
AcDbEntity
  8
外形線
100
AcDbLine
 10
34485.07906245074
 20
28688.35326095658
 30
0.0
 11
34487.12906245074
 21
28688.35326095658
 31
0.0
  0
LINE
  5
2667
330
1F
100
AcDbEntity
  8
外形線
100
AcDbLine
 10
34472.32906245074
 20
28680.35326095658
 30
0.0
 11
34472.32906245074
 21
28678.35326095658
 31
0.0
  0
LINE
  5
2668
330
1F
100
AcDbEntity
  8
外形線
100
AcDbLine
 10
34478.32906245074
 20
28680.35326095658
 30
0.0
 11
34478.32906245074
 21
28678.35326095658
 31
0.0
  0
LINE
  5
2669
330
1F
100
AcDbEntity
  8
外形線
100
AcDbLine
 10
34467.07906245074
 20
28678.35326095658
 30
0.0
 11
34467.07906245074
 21
28674.35326095658
 31
0.0
  0
LINE
  5
266A
102
{ACAD_REACTORS
330
27C6
102
}
330
1F
100
AcDbEntity
  8
外形線
100
AcDbLine
 10
34467.07906245074
 20
28674.35326095658
 30
0.0
 11
34483.57906245074
 21
28674.35326095658
 31
0.0
  0
LINE
  5
266B
330
1F
100
AcDbEntity
  8
外形線
100
AcDbLine
 10
34483.57906245074
 20
28674.35326095658
 30
0.0
 11
34483.57906245074
 21
28678.35326095658
 31
0.0
  0
LINE
  5
266C
330
1F
100
AcDbEntity
  8
外形線
100
AcDbLine
 10
34465.57906245073
 20
28684.35326095658
 30
0.0
 11
34485.07906245074
 21
28684.35326095658
 31
0.0
  0
LINE
  5
266D
330
1F
100
AcDbEntity
  8
外形線
100
AcDbLine
 10
33424.07906368178
 20
28772.85326060756
 30
0.0
 11
33436.07906368178
 21
28772.85326060756
 31
0.0
  0
LINE
  5
266E
330
1F
100
AcDbEntity
  8
外形線
100
AcDbLine
 10
33437.07906368178
 20
28771.85326060756
 30
0.0
 11
33437.07906368178
 21
28742.35326060756
 31
0.0
  0
ARC
  5
266F
330
1F
100
AcDbEntity
  8
外形線
100
AcDbCircle
 10
33436.07906368178
 20
28771.85326060756
 30
0.0
 40
1.0
100
AcDbArc
 50
0.0
 51
90.0
  0
ARC
  5
2670
330
1F
100
AcDbEntity
  8
外形線
100
AcDbCircle
 10
33436.07906368178
 20
28742.35326060756
 30
0.0
 40
1.0
100
AcDbArc
 50
270.0
 51
0.0
  0
LINE
  5
2671
330
1F
100
AcDbEntity
  8
外形線
100
AcDbLine
 10
33436.07906368178
 20
28741.35326060756
 30
0.0
 11
33428.47849117135
 21
28741.35326060756
 31
0.0
  0
LINE
  5
2672
330
1F
100
AcDbEntity
  8
外形線
100
AcDbLine
 10
34293.57906368177
 20
28690.35326060755
 30
0.0
 11
34294.26234525477
 21
28691.71982375356
 31
0.0
  0
ARC
  5
2673
330
1F
100
AcDbEntity
  8
外形線
100
AcDbCircle
 10
34291.57906368177
 20
28693.06146454006
 30
0.0
 40
3.0
100
AcDbArc
 50
333.4349488229205
 51
0.0
  0
LINE
  5
2674
330
1F
100
AcDbEntity
  8
外形線
100
AcDbLine
 10
34294.57906368177
 20
28693.06146454006
 30
0.0
 11
34294.57906368177
 21
28735.93904739419
 31
0.0
  0
ARC
  5
2675
330
1F
100
AcDbEntity
  8
外形線
100
AcDbCircle
 10
34294.07906368177
 20
28735.93904739419
 30
0.0
 40
0.5
100
AcDbArc
 50
0.0
 51
44.99999999955782
  0
LINE
  5
2676
330
1F
100
AcDbEntity
  8
外形線
100
AcDbLine
 10
34294.43261707237
 20
28736.29260078478
 30
0.0
 11
34293.72551029117
 21
28736.99970756597
 31
0.0
  0
ARC
  5
2677
330
1F
100
AcDbEntity
  8
外形線
100
AcDbCircle
 10
34294.07906368177
 20
28737.35326095657
 30
0.0
 40
0.5
100
AcDbArc
 50
180.0
 51
224.9999999995578
  0
LINE
  5
2678
102
{ACAD_REACTORS
330
27C0
102
}
330
1F
100
AcDbEntity
  8
外形線
100
AcDbLine
 10
34293.57906368177
 20
28737.35326095657
 30
0.0
 11
34293.57906368177
 21
28773.35326060755
 31
0.0
  0
LINE
  5
2679
330
1F
100
AcDbEntity
  8
外形線
100
AcDbLine
 10
34292.57906368177
 20
28753.35326060755
 30
0.0
 11
34290.30316176122
 21
28752.89808022344
 31
0.0
  0
LINE
  5
267A
330
1F
100
AcDbEntity
  8
外形線
100
AcDbLine
 10
34292.57906368177
 20
28753.35326060755
 30
0.0
 11
34292.57906368177
 21
28773.35326060755
 31
0.0
  0
LINE
  5
267B
102
{ACAD_REACTORS
330
27BD
102
}
330
1F
100
AcDbEntity
  8
外形線
100
AcDbLine
 10
34292.57906368177
 20
28773.35326060755
 30
0.0
 11
34293.57906368177
 21
28773.35326060755
 31
0.0
  0
ELLIPSE
  5
267C
330
1F
100
AcDbEntity
  8
外形線
100
AcDbEllipse
 10
34290.22192082463
 20
28750.85326060755
 30
0.0
 11
2.35714285713766
 21
1.5
 31
0.0
210
0.0
220
0.0
230
-1.0
 40
0.6753514169109462
 41
3.682438273673346
 42
4.822127997503216
  0
ARC
  5
267D
330
1F
100
AcDbEntity
  8
外形線
100
AcDbCircle
 10
34290.89151016672
 20
28749.95633819627
 30
0.0
 40
3.0
100
AcDbArc
 50
101.3099324747151
 51
118.2155792741908
  0
LINE
  5
267E
330
1F
100
AcDbEntity
  8
外形線
100
AcDbLine
 10
34292.57906368177
 20
28772.85326060755
 30
0.0
 11
34292.07906368177
 21
28772.85326060755
 31
0.0
  0
LINE
  5
267F
330
1F
100
AcDbEntity
  8
外形線
100
AcDbLine
 10
34292.07906368177
 20
28772.85326060755
 30
0.0
 11
34292.07906368177
 21
28753.25326060755
 31
0.0
  0
LINE
  5
2680
330
1F
100
AcDbEntity
  8
外形線
100
AcDbLine
 10
34292.07906368177
 20
28772.85326060755
 30
0.0
 11
34278.07906368177
 21
28772.85326060755
 31
0.0
  0
LINE
  5
2681
330
1F
100
AcDbEntity
  8
外形線
100
AcDbLine
 10
34277.07906368177
 20
28771.85326060756
 30
0.0
 11
34277.07906368177
 21
28742.35326060755
 31
0.0
  0
ARC
  5
2682
330
1F
100
AcDbEntity
  8
外形線
100
AcDbCircle
 10
34278.07906368177
 20
28771.85326060756
 30
0.0
 40
1.0
100
AcDbArc
 50
90.0
 51
180.0
  0
ARC
  5
2683
330
1F
100
AcDbEntity
  8
外形線
100
AcDbCircle
 10
34278.07906368177
 20
28742.35326060755
 30
0.0
 40
1.0
100
AcDbArc
 50
180.0
 51
270.0
  0
LINE
  5
2684
330
1F
100
AcDbEntity
  8
外形線
100
AcDbLine
 10
34278.07906368177
 20
28741.35326060756
 30
0.0
 11
34287.67963619219
 21
28741.35326060756
 31
0.0
  0
LINE
  5
2685
330
1F
100
AcDbEntity
  8
外形線
100
AcDbLine
 10
34287.6796361922
 20
28750.38695746233
 30
0.0
 11
34287.6796361922
 21
28741.35326060756
 31
0.0
  0
LINE
  5
2686
330
1F
100
AcDbEntity
  8
外形線
100
AcDbLine
 10
34287.6796361922
 20
28741.35326060756
 30
0.0
 11
34287.6796361922
 21
28736.39213249565
 31
0.0
  0
ARC
  5
2687
330
1F
100
AcDbEntity
  8
外形線
100
AcDbCircle
 10
34297.12704754351
 20
28737.81121108009
 30
0.0
 40
9.559246875214904
100
AcDbArc
 50
189.0121675995525
 51
216.8643310199848
  0
ARC
  5
2688
330
1F
100
AcDbEntity
  8
外形線
100
AcDbCircle
 10
34289.07906368178
 20
28731.77644482832
 30
0.0
 40
0.5
100
AcDbArc
 50
359.9999999991662
 51
36.86433102115112
  0
ARC
  5
2689
330
1F
100
AcDbEntity
  8
外形線
100
AcDbCircle
 10
34288.17963619219
 20
28736.39213249565
 30
0.0
 40
0.5
100
AcDbArc
 50
180.0
 51
189.0121675991434
  0
LINE
  5
268A
330
1F
100
AcDbEntity
  8
外形線
100
AcDbLine
 10
34289.50672735802
 20
28688.35326060755
 30
0.0
 11
34289.57906368177
 21
28731.77644482831
 31
0.0
  0
LINE
  5
268B
330
1F
100
AcDbEntity
  8
外形線
100
AcDbLine
 10
34277.07906368177
 20
28768.40326060756
 30
0.0
 11
34268.57906368177
 21
28768.40326060756
 31
0.0
  0
ARC
  5
268C
330
1F
100
AcDbEntity
  8
外形線
100
AcDbCircle
 10
34268.57906368177
 20
28767.90326060756
 30
0.0
 40
0.5
100
AcDbArc
 50
90.0
 51
180.0
  0
LINE
  5
268D
330
1F
100
AcDbEntity
  8
外形線
100
AcDbLine
 10
34268.07906368177
 20
28767.90326060756
 30
0.0
 11
34268.07906368177
 21
28746.30326060755
 31
0.0
  0
LINE
  5
268E
330
1F
100
AcDbEntity
  8
外形線
100
AcDbLine
 10
34268.57906368177
 20
28745.80326060755
 30
0.0
 11
34277.07906368177
 21
28745.80326060755
 31
0.0
  0
ARC
  5
268F
330
1F
100
AcDbEntity
  8
外形線
100
AcDbCircle
 10
34268.57906368177
 20
28746.30326060755
 30
0.0
 40
0.5
100
AcDbArc
 50
180.0
 51
270.0
  0
LINE
  5
2690
330
1F
100
AcDbEntity
  8
外形線
100
AcDbLine
 10
34459.32906245075
 20
28757.10326060756
 30
0.0
 11
34459.32906245075
 21
28755.08769617049
 31
0.0
  0
LINE
  5
2691
330
1F
100
AcDbEntity
  8
外形線
100
AcDbLine
 10
34491.32906245075
 20
28754.26380643467
 30
0.0
 11
34491.32906245075
 21
28757.10326060866
 31
0.0
  0
ARC
  5
2692
102
{ACAD_REACTORS
330
27C6
102
}
330
1F
100
AcDbEntity
  8
外形線
100
AcDbCircle
 10
34475.32906245074
 20
28757.35133753065
 30
0.0
 40
16.00192307691588
100
AcDbArc
 50
359.1117111338804
 51
180.8882888661196
  0
ARC
  5
2693
330
1F
100
AcDbEntity
  8
外形線
100
AcDbCircle
 10
34475.32906245075
 20
28757.10326060756
 30
0.0
 40
16.24999999999987
100
AcDbArc
 50
194.1411102338126
 51
217.6271906288075
  0
ARC
  5
2694
330
1F
100
AcDbEntity
  8
外形線
100
AcDbCircle
 10
34450.57906245075
 20
28738.02447657923
 30
0.0
 40
15.0
100
AcDbArc
 50
0.0
 51
37.62719062880754
  0
ARC
  5
2695
330
1F
100
AcDbEntity
  8
外形線
100
AcDbCircle
 10
34467.32906245075
 20
28755.08769617049
 30
0.0
 40
8.0
100
AcDbArc
 50
180.0
 51
194.1411102338126
  0
ARC
  5
2696
330
1F
100
AcDbEntity
  8
外形線
100
AcDbCircle
 10
34475.32906245075
 20
28757.10326060756
 30
0.0
 40
16.24999999999987
100
AcDbArc
 50
322.3728093711924
 51
349.9367255563637
  0
ARC
  5
2697
330
1F
100
AcDbEntity
  8
外形線
100
AcDbCircle
 10
34500.07906245075
 20
28738.02447657923
 30
0.0
 40
15.0
100
AcDbArc
 50
142.3728093711924
 51
180.0
  0
LINE
  5
2698
330
1F
100
AcDbEntity
  8
外形線
100
AcDbLine
 10
34463.52906245073
 20
28688.35326095658
 30
0.0
 11
34465.57906245073
 21
28688.35326095658
 31
0.0
  0
LINE
  5
2699
330
1F
100
AcDbEntity
  8
外形線
100
AcDbLine
 10
34465.57906245073
 20
28688.35326095658
 30
0.0
 11
34465.57906245073
 21
28684.05326095658
 31
0.0
  0
LINE
  5
269A
330
1F
100
AcDbEntity
  8
外形線
100
AcDbLine
 10
34465.57906245073
 20
28684.05326095658
 30
0.0
 11
34464.97906245074
 21
28684.05326095658
 31
0.0
  0
LINE
  5
269B
330
1F
100
AcDbEntity
  8
外形線
100
AcDbLine
 10
34464.97906245074
 20
28684.05326095658
 30
0.0
 11
34464.97906245074
 21
28687.75326095658
 31
0.0
  0
LINE
  5
269C
330
1F
100
AcDbEntity
  8
外形線
100
AcDbLine
 10
34464.97906245074
 20
28687.75326095658
 30
0.0
 11
34464.12906245073
 21
28687.75326095658
 31
0.0
  0
LINE
  5
269D
330
1F
100
AcDbEntity
  8
外形線
100
AcDbLine
 10
34486.52906245074
 20
28687.75326095658
 30
0.0
 11
34485.67906245073
 21
28687.75326095658
 31
0.0
  0
LINE
  5
269E
330
1F
100
AcDbEntity
  8
外形線
100
AcDbLine
 10
34485.67906245073
 20
28687.75326095658
 30
0.0
 11
34485.67906245073
 21
28684.05326095658
 31
0.0
  0
LINE
  5
269F
330
1F
100
AcDbEntity
  8
外形線
100
AcDbLine
 10
34485.67906245073
 20
28684.05326095658
 30
0.0
 11
34485.07906245074
 21
28684.05326095658
 31
0.0
  0
LINE
  5
26A0
330
1F
100
AcDbEntity
  8
外形線
100
AcDbLine
 10
34485.07906245074
 20
28684.05326095658
 30
0.0
 11
34485.07906245074
 21
28688.35326095658
 31
0.0
  0
LINE
  5
26A1
330
1F
100
AcDbEntity
  8
外形線
100
AcDbLine
 10
34485.07906245074
 20
28688.35326095658
 30
0.0
 11
34487.12906245074
 21
28688.35326095658
 31
0.0
  0
LINE
  5
26A2
330
1F
100
AcDbEntity
  8
孔
100
AcDbLine
 10
34473.67906245075
 20
28769.70326060756
 30
0.0
 11
34473.67906245075
 21
28768.00326060757
 31
0.0
  0
LINE
  5
26A3
330
1F
100
AcDbEntity
  8
孔
100
AcDbLine
 10
34476.97906245075
 20
28769.70326060756
 30
0.0
 11
34476.97906245075
 21
28768.00326060757
 31
0.0
  0
ARC
  5
26A4
330
1F
100
AcDbEntity
  8
孔
100
AcDbCircle
 10
34475.32906245075
 20
28769.70326060757
 30
0.0
 40
1.650000000001455
100
AcDbArc
 50
359.9999999995831
 51
180.0000000004169
  0
ARC
  5
26A5
330
1F
100
AcDbEntity
  8
孔
100
AcDbCircle
 10
34475.32906245075
 20
28768.00326060757
 30
0.0
 40
1.650000000001455
100
AcDbArc
 50
180.0
 51
0.0
  0
CIRCLE
  5
26A6
330
1F
100
AcDbEntity
  8
孔
100
AcDbCircle
 10
34475.32906245075
 20
28758.35326060757
 30
0.0
 40
1.6
  0
LINE
  5
26A7
330
1F
100
AcDbEntity
  8
孔
100
AcDbLine
 10
34473.67906245075
 20
28749.70326060756
 30
0.0
 11
34473.67906245075
 21
28746.00326060757
 31
0.0
  0
LINE
  5
26A8
330
1F
100
AcDbEntity
  8
孔
100
AcDbLine
 10
34476.97906245075
 20
28749.70326060756
 30
0.0
 11
34476.97906245075
 21
28746.00326060757
 31
0.0
  0
ARC
  5
26A9
330
1F
100
AcDbEntity
  8
孔
100
AcDbCircle
 10
34475.32906245076
 20
28749.70326060757
 30
0.0
 40
1.650000000008731
100
AcDbArc
 50
359.9999999995831
 51
180.0000000004169
  0
ARC
  5
26AA
330
1F
100
AcDbEntity
  8
孔
100
AcDbCircle
 10
34475.32906245075
 20
28746.00326060756
 30
0.0
 40
1.650000000001455
100
AcDbArc
 50
179.9999999995831
 51
0.0000000004168817
  0
LINE
  5
26AB
330
1F
100
AcDbEntity
  8
孔
100
AcDbLine
 10
34472.82906245075
 20
28737.85326060756
 30
0.0
 11
34472.82906245075
 21
28730.85326060757
 31
0.0
  0
LINE
  5
26AC
330
1F
100
AcDbEntity
  8
孔
100
AcDbLine
 10
34477.82906245075
 20
28737.85326060756
 30
0.0
 11
34477.82906245075
 21
28730.85326060757
 31
0.0
  0
ARC
  5
26AD
330
1F
100
AcDbEntity
  8
孔
100
AcDbCircle
 10
34475.32906245076
 20
28737.85326060756
 30
0.0
 40
2.500000000007275
100
AcDbArc
 50
0.0
 51
180.0
  0
ARC
  5
26AE
330
1F
100
AcDbEntity
  8
孔
100
AcDbCircle
 10
34475.32906245076
 20
28730.85326060757
 30
0.0
 40
2.499999999992724
100
AcDbArc
 50
180.0
 51
0.0
  0
LINE
  5
26AF
330
1F
100
AcDbEntity
  8
外形線
100
AcDbLine
 10
34465.57906245075
 20
28737.35326060756
 30
0.0
 11
34472.82906245075
 21
28737.35326060756
 31
0.0
  0
LINE
  5
26B0
330
1F
100
AcDbEntity
  8
外形線
100
AcDbLine
 10
34477.82906245075
 20
28737.35326060756
 30
0.0
 11
34485.07906245075
 21
28737.35326060756
 31
0.0
  0
LINE
  5
26B1
330
1F
100
AcDbEntity
  8
外形線
100
AcDbLine
 10
34465.57906245073
 20
28690.35326060756
 30
0.0
 11
34472.37906245075
 21
28690.35326060756
 31
0.0
  0
LINE
  5
26B2
330
1F
100
AcDbEntity
  8
外形線
100
AcDbLine
 10
34478.27906245074
 20
28690.35326060756
 30
0.0
 11
34485.07906245074
 21
28690.35326060756
 31
0.0
  0
LINE
  5
26B3
330
1F
100
AcDbEntity
  8
外形線
100
AcDbLine
 10
34466.32906245075
 20
28763.10326060757
 30
0.0
 11
34466.32906245075
 21
28752.60326060756
 31
0.0
  0
LINE
  5
26B4
330
1F
100
AcDbEntity
  8
外形線
100
AcDbLine
 10
34470.82906245075
 20
28763.10326060757
 30
0.0
 11
34470.82906245075
 21
28752.60326060756
 31
0.0
  0
ARC
  5
26B5
330
1F
100
AcDbEntity
  8
外形線
100
AcDbCircle
 10
34468.57906245076
 20
28763.10326060757
 30
0.0
 40
2.250000000007275
100
AcDbArc
 50
0.0
 51
180.0
  0
ARC
  5
26B6
330
1F
100
AcDbEntity
  8
外形線
100
AcDbCircle
 10
34468.57906245076
 20
28752.60326060756
 30
0.0
 40
2.250000000007275
100
AcDbArc
 50
180.0
 51
0.0
  0
LINE
  5
26B7
330
1F
100
AcDbEntity
  8
外形線
100
AcDbLine
 10
34479.82906245075
 20
28763.10326060757
 30
0.0
 11
34479.82906245075
 21
28752.60326060756
 31
0.0
  0
LINE
  5
26B8
330
1F
100
AcDbEntity
  8
外形線
100
AcDbLine
 10
34484.32906245074
 20
28763.10326060757
 30
0.0
 11
34484.32906245074
 21
28752.60326060756
 31
0.0
  0
ARC
  5
26B9
330
1F
100
AcDbEntity
  8
外形線
100
AcDbCircle
 10
34482.07906245075
 20
28763.10326060757
 30
0.0
 40
2.250000000007275
100
AcDbArc
 50
0.0
 51
180.0
  0
ARC
  5
26BA
330
1F
100
AcDbEntity
  8
外形線
100
AcDbCircle
 10
34482.07906245075
 20
28752.60326060756
 30
0.0
 40
2.250000000007275
100
AcDbArc
 50
180.0
 51
0.0
  0
CIRCLE
  5
26BB
330
1F
100
AcDbEntity
  8
孔
100
AcDbCircle
 10
34475.32906245074
 20
28690.35326060756
 30
0.0
 40
2.95
  0
LINE
  5
26BC
330
1F
100
AcDbEntity
  8
外形線
100
AcDbLine
 10
33422.57906368178
 20
28690.35326060756
 30
0.0
 11
33421.89578210878
 21
28691.71982375356
 31
0.0
  0
ARC
  5
26BD
330
1F
100
AcDbEntity
  8
外形線
100
AcDbCircle
 10
33424.57906368178
 20
28693.06146454006
 30
0.0
 40
3.0
100
AcDbArc
 50
180.0
 51
206.5650511770794
  0
LINE
  5
26BE
330
1F
100
AcDbEntity
  8
外形線
100
AcDbLine
 10
33421.57906368178
 20
28693.06146454006
 30
0.0
 11
33421.57906368178
 21
28735.93904739419
 31
0.0
  0
ARC
  5
26BF
330
1F
100
AcDbEntity
  8
外形線
100
AcDbCircle
 10
33422.07906368178
 20
28735.93904739419
 30
0.0
 40
0.5
100
AcDbArc
 50
135.0000000004422
 51
180.0
  0
LINE
  5
26C0
330
1F
100
AcDbEntity
  8
外形線
100
AcDbLine
 10
33421.72551029118
 20
28736.29260078478
 30
0.0
 11
33422.43261707237
 21
28736.99970756597
 31
0.0
  0
ARC
  5
26C1
330
1F
100
AcDbEntity
  8
外形線
100
AcDbCircle
 10
33422.07906368178
 20
28737.35326095657
 30
0.0
 40
0.5
100
AcDbArc
 50
315.0000000004422
 51
0.0
  0
LINE
  5
26C2
330
1F
100
AcDbEntity
  8
外形線
100
AcDbLine
 10
33422.57906368178
 20
28737.35326095657
 30
0.0
 11
33422.57906368178
 21
28773.35326060756
 31
0.0
  0
LINE
  5
26C3
330
1F
100
AcDbEntity
  8
外形線
100
AcDbLine
 10
33423.57906368178
 20
28753.35326060756
 30
0.0
 11
33425.85496560233
 21
28752.89808022345
 31
0.0
  0
LINE
  5
26C4
330
1F
100
AcDbEntity
  8
外形線
100
AcDbLine
 10
33423.57906368178
 20
28753.35326060756
 30
0.0
 11
33423.57906368178
 21
28773.35326060756
 31
0.0
  0
LINE
  5
26C5
330
1F
100
AcDbEntity
  8
外形線
100
AcDbLine
 10
33423.57906368178
 20
28773.35326060756
 30
0.0
 11
33422.57906368178
 21
28773.35326060756
 31
0.0
  0
ELLIPSE
  5
26C6
330
1F
100
AcDbEntity
  8
外形線
100
AcDbEllipse
 10
33425.93620653892
 20
28750.85326060755
 30
0.0
 11
-2.35714285713766
 21
1.5
 31
0.0
210
0.0
220
0.0
230
1.0
 40
0.6753514169109462
 41
3.682438273673346
 42
4.822127997503216
  0
ARC
  5
26C7
330
1F
100
AcDbEntity
  8
外形線
100
AcDbCircle
 10
33425.26661719683
 20
28749.95633819627
 30
0.0
 40
3.0
100
AcDbArc
 50
61.78442072580916
 51
78.69006752528486
  0
LINE
  5
26C8
330
1F
100
AcDbEntity
  8
外形線
100
AcDbLine
 10
33423.57906368178
 20
28772.85326060756
 30
0.0
 11
33424.07906368178
 21
28772.85326060756
 31
0.0
  0
LINE
  5
26C9
330
1F
100
AcDbEntity
  8
外形線
100
AcDbLine
 10
33424.07906368178
 20
28772.85326060756
 30
0.0
 11
33424.07906368178
 21
28753.25326060756
 31
0.0
  0
LINE
  5
26CA
330
1F
100
AcDbEntity
  8
外形線
100
AcDbLine
 10
33428.47849117135
 20
28750.38695746233
 30
0.0
 11
33428.47849117135
 21
28741.35326060756
 31
0.0
  0
LINE
  5
26CB
330
1F
100
AcDbEntity
  8
外形線
100
AcDbLine
 10
33428.47849117135
 20
28741.35326060756
 30
0.0
 11
33428.47849117134
 21
28736.39213249565
 31
0.0
  0
ARC
  5
26CC
330
1F
100
AcDbEntity
  8
外形線
100
AcDbCircle
 10
33419.03107982004
 20
28737.8112110801
 30
0.0
 40
9.559246875214904
100
AcDbArc
 50
323.1356689800152
 51
350.987832400441
  0
ARC
  5
26CD
330
1F
100
AcDbEntity
  8
外形線
100
AcDbCircle
 10
33427.07906368177
 20
28731.77644482833
 30
0.0
 40
0.5
100
AcDbArc
 50
143.1356689786808
 51
180.0000000008337
  0
ARC
  5
26CE
330
1F
100
AcDbEntity
  8
外形線
100
AcDbCircle
 10
33427.97849117135
 20
28736.39213249565
 30
0.0
 40
0.5
100
AcDbArc
 50
350.987832400441
 51
0.0
  0
LINE
  5
26CF
330
1F
100
AcDbEntity
  8
外形線
100
AcDbLine
 10
33426.65140000554
 20
28688.35326060756
 30
0.0
 11
33426.57906368178
 21
28731.77644482831
 31
0.0
  0
LINE
  5
26D0
330
1F
100
AcDbEntity
  8
外形線
100
AcDbLine
 10
33422.57906368178
 20
28690.35326060756
 30
0.0
 11
33422.57906368178
 21
28688.35326060756
 31
0.0
  0
LINE
  5
26D1
102
{ACAD_REACTORS
330
27BD
102
}
330
1F
100
AcDbEntity
  8
外形線
100
AcDbLine
 10
34293.57906368177
 20
28690.35326060755
 30
0.0
 11
34293.57906368178
 21
28688.35326060755
 31
0.0
  0
LINE
  5
26D2
330
1F
100
AcDbEntity
  8
外形線
100
AcDbLine
 10
34465.57906245075
 20
28738.02447657923
 30
0.0
 11
34465.57906245073
 21
28688.35326095658
 31
0.0
  0
LINE
  5
26D3
330
1F
100
AcDbEntity
  8
外形線
100
AcDbLine
 10
34485.07906245075
 20
28738.02447657923
 30
0.0
 11
34485.07906245074
 21
28688.35326095658
 31
0.0
  0
LINE
  5
26D4
330
1F
100
AcDbEntity
  8
中心線
100
AcDbLine
 10
34244.57906368178
 20
29094.44654405834
 30
0.0
 11
34244.57906368178
 21
28653.44996754965
 31
0.0
  0
LINE
  5
26D5
330
1F
100
AcDbEntity
  8
中心線
100
AcDbLine
 10
33471.57906368178
 20
29095.94654405835
 30
0.0
 11
33471.57906368178
 21
28654.94996754966
 31
0.0
  0
LINE
  5
26D6
330
1F
100
AcDbEntity
  8
外形線
100
AcDbLine
 10
33947.07906368178
 20
28688.35326060756
 30
0.0
 11
33828.07906368178
 21
28688.35326060756
 31
0.0
  0
LINE
  5
26D7
330
1F
100
AcDbEntity
  8
外形線
100
AcDbLine
 10
33643.07906368178
 20
28689.15326060756
 30
0.0
 11
33643.07906368178
 21
28681.45326060757
 31
0.0
  0
LINE
  5
26D8
330
1F
100
AcDbEntity
  8
外形線
100
AcDbLine
 10
33643.07906368178
 20
28681.45326060757
 30
0.0
 11
33738.07906368178
 21
28681.45326060757
 31
0.0
  0
LINE
  5
26D9
330
1F
100
AcDbEntity
  8
外形線
100
AcDbLine
 10
33738.07906368178
 20
28681.45326060757
 30
0.0
 11
33738.07906368178
 21
28689.15326060756
 31
0.0
  0
LINE
  5
26DA
330
1F
100
AcDbEntity
  8
外形線
100
AcDbLine
 10
33738.07906368178
 20
28689.15326060756
 30
0.0
 11
33643.07906368178
 21
28689.15326060756
 31
0.0
  0
LINE
  5
26DB
330
1F
100
AcDbEntity
  8
外形線
100
AcDbLine
 10
33647.07906368178
 20
28708.65326060756
 30
0.0
 11
33647.07906368178
 21
28689.65326060756
 31
0.0
  0
LINE
  5
26DC
330
1F
100
AcDbEntity
  8
外形線
100
AcDbLine
 10
33647.57906368178
 20
28689.15326060756
 30
0.0
 11
33669.07906368178
 21
28689.15326060756
 31
0.0
  0
ARC
  5
26DD
330
1F
100
AcDbEntity
  8
外形線
100
AcDbCircle
 10
33647.57906368178
 20
28689.65326060756
 30
0.0
 40
0.5
100
AcDbArc
 50
180.0
 51
270.0
  0
LINE
  5
26DE
330
1F
100
AcDbEntity
  8
外形線
100
AcDbLine
 10
33669.07906368178
 20
28698.15326060757
 30
0.0
 11
33669.07906368178
 21
28708.65326060756
 31
0.0
  0
ARC
  5
26DF
330
1F
100
AcDbEntity
  8
外形線
100
AcDbCircle
 10
33668.57906368178
 20
28708.65326060756
 30
0.0
 40
0.5
100
AcDbArc
 50
0.0
 51
90.0
  0
LINE
  5
26E0
330
1F
100
AcDbEntity
  8
外形線
100
AcDbLine
 10
33668.57906368178
 20
28709.15326060756
 30
0.0
 11
33647.57906368178
 21
28709.15326060756
 31
0.0
  0
ARC
  5
26E1
330
1F
100
AcDbEntity
  8
外形線
100
AcDbCircle
 10
33647.57906368178
 20
28708.65326060756
 30
0.0
 40
0.5
100
AcDbArc
 50
90.0
 51
180.0
  0
LINE
  5
26E2
330
1F
100
AcDbEntity
  8
外形線
100
AcDbLine
 10
33669.07906368178
 20
28689.15326060756
 30
0.0
 11
33680.57906368178
 21
28689.15326060756
 31
0.0
  0
LINE
  5
26E3
330
1F
100
AcDbEntity
  8
外形線
100
AcDbLine
 10
33681.07906368178
 20
28689.65326060756
 30
0.0
 11
33681.07906368178
 21
28697.65326060756
 31
0.0
  0
ARC
  5
26E4
330
1F
100
AcDbEntity
  8
外形線
100
AcDbCircle
 10
33680.57906368178
 20
28689.65326060756
 30
0.0
 40
0.5
100
AcDbArc
 50
270.0
 51
0.0
  0
ARC
  5
26E5
330
1F
100
AcDbEntity
  8
外形線
100
AcDbCircle
 10
33680.57906368178
 20
28697.65326060756
 30
0.0
 40
0.5
100
AcDbArc
 50
0.0
 51
90.0
  0
LINE
  5
26E6
330
1F
100
AcDbEntity
  8
外形線
100
AcDbLine
 10
33681.07906368178
 20
28698.15326060757
 30
0.0
 11
33669.07906368178
 21
28698.15326060757
 31
0.0
  0
LINE
  5
26E7
330
1F
100
AcDbEntity
  8
外形線
100
AcDbLine
 10
33669.57906368178
 20
28698.15326060757
 30
0.0
 11
33669.57906368178
 21
28699.65326060756
 31
0.0
  0
LINE
  5
26E8
330
1F
100
AcDbEntity
  8
外形線
100
AcDbLine
 10
33670.07906368178
 20
28700.15326060757
 30
0.0
 11
33680.57906368178
 21
28700.15326060757
 31
0.0
  0
ARC
  5
26E9
330
1F
100
AcDbEntity
  8
外形線
100
AcDbCircle
 10
33670.07906368178
 20
28699.65326060756
 30
0.0
 40
0.5
100
AcDbArc
 50
90.0
 51
180.0
  0
LINE
  5
26EA
330
1F
100
AcDbEntity
  8
外形線
100
AcDbLine
 10
33681.07906368178
 20
28699.65326060756
 30
0.0
 11
33681.07906368178
 21
28698.15326060757
 31
0.0
  0
ARC
  5
26EB
330
1F
100
AcDbEntity
  8
外形線
100
AcDbCircle
 10
33680.57906368178
 20
28699.65326060756
 30
0.0
 40
0.5
100
AcDbArc
 50
0.0
 51
90.0
  0
LINE
  5
26EC
330
1F
100
AcDbEntity
  8
中心線
 48
0.05
100
AcDbLine
 10
33658.07906368178
 20
28692.15326060757
 30
0.0
 11
33658.07906368178
 21
28686.15326060756
 31
0.0
  0
LINE
  5
26ED
330
1F
100
AcDbEntity
  8
外形線
100
AcDbLine
 10
33806.07906368178
 20
28689.95326060757
 30
0.0
 11
33806.07906368178
 21
28682.25326060757
 31
0.0
  0
LINE
  5
26EE
330
1F
100
AcDbEntity
  8
外形線
100
AcDbLine
 10
33806.07906368178
 20
28682.25326060757
 30
0.0
 11
33828.07906368178
 21
28682.25326060757
 31
0.0
  0
LINE
  5
26EF
330
1F
100
AcDbEntity
  8
外形線
100
AcDbLine
 10
33828.07906368178
 20
28682.25326060757
 30
0.0
 11
33828.07906368178
 21
28689.95326060757
 31
0.0
  0
LINE
  5
26F0
330
1F
100
AcDbEntity
  8
外形線
100
AcDbLine
 10
33828.07906368178
 20
28689.95326060757
 30
0.0
 11
33825.07906368178
 21
28689.95326060757
 31
0.0
  0
LINE
  5
26F1
330
1F
100
AcDbEntity
  8
外形線
100
AcDbLine
 10
33822.07906368178
 20
28689.95326060757
 30
0.0
 11
33812.07906368178
 21
28689.95326060757
 31
0.0
  0
LINE
  5
26F2
330
1F
100
AcDbEntity
  8
外形線
100
AcDbLine
 10
33809.07906368178
 20
28689.95326060757
 30
0.0
 11
33806.07906368178
 21
28689.95326060757
 31
0.0
  0
LINE
  5
26F3
330
1F
100
AcDbEntity
  8
外形線
100
AcDbLine
 10
33809.07906368178
 20
28689.95326060757
 30
0.0
 11
33810.07906368178
 21
28689.15326060756
 31
0.0
  0
LINE
  5
26F4
330
1F
100
AcDbEntity
  8
外形線
100
AcDbLine
 10
33810.07906368178
 20
28689.15326060756
 30
0.0
 11
33811.07906368178
 21
28689.15326060756
 31
0.0
  0
LINE
  5
26F5
330
1F
100
AcDbEntity
  8
外形線
100
AcDbLine
 10
33811.07906368178
 20
28689.15326060756
 30
0.0
 11
33812.07906368178
 21
28689.95326060757
 31
0.0
  0
LINE
  5
26F6
330
1F
100
AcDbEntity
  8
外形線
100
AcDbLine
 10
33822.07906368178
 20
28689.95326060757
 30
0.0
 11
33823.07906368178
 21
28689.15326060756
 31
0.0
  0
LINE
  5
26F7
330
1F
100
AcDbEntity
  8
外形線
100
AcDbLine
 10
33823.07906368178
 20
28689.15326060756
 30
0.0
 11
33824.07906368178
 21
28689.15326060756
 31
0.0
  0
LINE
  5
26F8
330
1F
100
AcDbEntity
  8
外形線
100
AcDbLine
 10
33824.07906368178
 20
28689.15326060756
 30
0.0
 11
33825.07906368178
 21
28689.95326060757
 31
0.0
  0
LINE
  5
26F9
330
1F
100
AcDbEntity
  8
外形線
100
AcDbLine
 10
33947.07906368178
 20
28689.95326060757
 30
0.0
 11
33947.07906368178
 21
28682.25326060757
 31
0.0
  0
LINE
  5
26FA
330
1F
100
AcDbEntity
  8
外形線
100
AcDbLine
 10
33947.07906368178
 20
28682.25326060757
 30
0.0
 11
33969.07906368178
 21
28682.25326060757
 31
0.0
  0
LINE
  5
26FB
330
1F
100
AcDbEntity
  8
外形線
100
AcDbLine
 10
33969.07906368178
 20
28682.25326060757
 30
0.0
 11
33969.07906368178
 21
28689.95326060757
 31
0.0
  0
LINE
  5
26FC
330
1F
100
AcDbEntity
  8
外形線
100
AcDbLine
 10
33969.07906368178
 20
28689.95326060757
 30
0.0
 11
33966.07906368178
 21
28689.95326060757
 31
0.0
  0
LINE
  5
26FD
330
1F
100
AcDbEntity
  8
外形線
100
AcDbLine
 10
33963.07906368178
 20
28689.95326060757
 30
0.0
 11
33953.07906368178
 21
28689.95326060757
 31
0.0
  0
LINE
  5
26FE
330
1F
100
AcDbEntity
  8
外形線
100
AcDbLine
 10
33950.07906368178
 20
28689.95326060757
 30
0.0
 11
33947.07906368178
 21
28689.95326060757
 31
0.0
  0
LINE
  5
26FF
330
1F
100
AcDbEntity
  8
外形線
100
AcDbLine
 10
33950.07906368178
 20
28689.95326060757
 30
0.0
 11
33951.07906368178
 21
28689.15326060756
 31
0.0
  0
LINE
  5
2700
330
1F
100
AcDbEntity
  8
外形線
100
AcDbLine
 10
33951.07906368178
 20
28689.15326060756
 30
0.0
 11
33952.07906368178
 21
28689.15326060756
 31
0.0
  0
LINE
  5
2701
330
1F
100
AcDbEntity
  8
外形線
100
AcDbLine
 10
33952.07906368178
 20
28689.15326060756
 30
0.0
 11
33953.07906368178
 21
28689.95326060757
 31
0.0
  0
LINE
  5
2702
330
1F
100
AcDbEntity
  8
外形線
100
AcDbLine
 10
33963.07906368178
 20
28689.95326060757
 30
0.0
 11
33964.07906368178
 21
28689.15326060756
 31
0.0
  0
LINE
  5
2703
330
1F
100
AcDbEntity
  8
外形線
100
AcDbLine
 10
33964.07906368178
 20
28689.15326060756
 30
0.0
 11
33965.07906368178
 21
28689.15326060756
 31
0.0
  0
LINE
  5
2704
330
1F
100
AcDbEntity
  8
外形線
100
AcDbLine
 10
33965.07906368178
 20
28689.15326060756
 30
0.0
 11
33966.07906368178
 21
28689.95326060757
 31
0.0
  0
LINE
  5
2705
330
1F
100
AcDbEntity
  8
外形線
100
AcDbLine
 10
33823.37906368178
 20
28713.95326060756
 30
0.0
 11
33823.37906368178
 21
28689.95326060757
 31
0.0
  0
LINE
  5
2706
330
1F
100
AcDbEntity
  8
外形線
100
AcDbLine
 10
33823.37906368178
 20
28689.95326060757
 30
0.0
 11
33950.37906368178
 21
28689.95326060757
 31
0.0
  0
LINE
  5
2707
330
1F
100
AcDbEntity
  8
外形線
100
AcDbLine
 10
33950.37906368178
 20
28689.95326060757
 30
0.0
 11
33950.37906368178
 21
28713.95326060756
 31
0.0
  0
ARC
  5
2708
330
1F
100
AcDbEntity
  8
外形線
100
AcDbCircle
 10
33949.37906368178
 20
28713.95326060756
 30
0.0
 40
1.0
100
AcDbArc
 50
0.0
 51
90.0
  0
LINE
  5
2709
330
1F
100
AcDbEntity
  8
外形線
100
AcDbLine
 10
33949.37906368178
 20
28714.95326060756
 30
0.0
 11
33824.37906368178
 21
28714.95326060756
 31
0.0
  0
ARC
  5
270A
330
1F
100
AcDbEntity
  8
外形線
100
AcDbCircle
 10
33824.37906368178
 20
28713.95326060756
 30
0.0
 40
1.0
100
AcDbArc
 50
90.0
 51
180.0
  0
LINE
  5
270B
330
1F
100
AcDbEntity
  8
外形線
100
AcDbLine
 10
33823.37906368178
 20
28697.95326060756
 30
0.0
 11
33819.77906368178
 21
28691.95326060756
 31
0.0
  0
LINE
  5
270C
330
1F
100
AcDbEntity
  8
外形線
100
AcDbLine
 10
33819.77906368178
 20
28691.95326060756
 30
0.0
 11
33811.87906368178
 21
28691.95326060756
 31
0.0
  0
LINE
  5
270D
330
1F
100
AcDbEntity
  8
外形線
100
AcDbLine
 10
33811.37906368178
 20
28691.45326060756
 30
0.0
 11
33811.37906368178
 21
28689.95326060757
 31
0.0
  0
ARC
  5
270E
330
1F
100
AcDbEntity
  8
外形線
100
AcDbCircle
 10
33811.87906368178
 20
28691.45326060756
 30
0.0
 40
0.5
100
AcDbArc
 50
90.0
 51
180.0
  0
LINE
  5
270F
330
1F
100
AcDbEntity
  8
外形線
100
AcDbLine
 10
33811.37906368178
 20
28689.95326060757
 30
0.0
 11
33823.37906368178
 21
28689.95326060757
 31
0.0
  0
LINE
  5
2710
330
1F
100
AcDbEntity
  8
外形線
100
AcDbLine
 10
33950.37906368178
 20
28697.95326060756
 30
0.0
 11
33953.97906368178
 21
28691.95326060756
 31
0.0
  0
LINE
  5
2711
330
1F
100
AcDbEntity
  8
外形線
100
AcDbLine
 10
33953.97906368178
 20
28691.95326060756
 30
0.0
 11
33961.87906368178
 21
28691.95326060756
 31
0.0
  0
LINE
  5
2712
330
1F
100
AcDbEntity
  8
外形線
100
AcDbLine
 10
33962.37906368178
 20
28691.45326060756
 30
0.0
 11
33962.37906368178
 21
28689.95326060757
 31
0.0
  0
ARC
  5
2713
330
1F
100
AcDbEntity
  8
外形線
100
AcDbCircle
 10
33961.87906368178
 20
28691.45326060756
 30
0.0
 40
0.5
100
AcDbArc
 50
0.0
 51
90.0
  0
LINE
  5
2714
330
1F
100
AcDbEntity
  8
外形線
100
AcDbLine
 10
33962.37906368178
 20
28689.95326060757
 30
0.0
 11
33950.37906368178
 21
28689.95326060757
 31
0.0
  0
LINE
  5
2715
102
{ACAD_REACTORS
330
27ED
330
27F0
102
}
330
1F
100
AcDbEntity
  8
中心線
100
AcDbLine
 10
34475.32906245074
 20
28776.35326060756
 30
0.0
 11
34475.32906245074
 21
28665.72843051074
 31
0.0
  0
CIRCLE
  5
2716
330
1F
100
AcDbEntity
  8
孔
100
AcDbCircle
 10
33817.07906368178
 20
29065.27221026549
 30
0.0
 40
2.1
  0
CIRCLE
  5
2717
330
1F
100
AcDbEntity
  8
孔
100
AcDbCircle
 10
33958.07906368178
 20
29065.27221026549
 30
0.0
 40
2.1
  0
LINE
  5
2718
330
1F
100
AcDbEntity
  8
孔
100
AcDbLine
 10
33806.05486854693
 20
29068.90528350716
 30
0.0
 11
33806.07906368178
 21
29068.71315136644
 31
0.0
  0
CIRCLE
  5
2719
330
1F
100
AcDbEntity
  8
外形線
100
AcDbCircle
 10
33817.07906368178
 20
29065.27221026549
 30
0.0
 40
2.149999999999999
  0
LINE
  5
271A
330
1F
100
AcDbEntity
  8
外形線
100
AcDbLine
 10
33806.07906368178
 20
29078.77221026549
 30
0.0
 11
33806.07906368178
 21
29051.77221026549
 31
0.0
  0
LINE
  5
271B
330
1F
100
AcDbEntity
  8
外形線
100
AcDbLine
 10
33806.07906368178
 20
29051.77221026549
 30
0.0
 11
33823.37906368178
 21
29051.77221026549
 31
0.0
  0
LINE
  5
271C
330
1F
100
AcDbEntity
  8
外形線
100
AcDbLine
 10
33823.37906368178
 20
29078.77221026549
 30
0.0
 11
33806.07906368178
 21
29078.77221026549
 31
0.0
  0
LINE
  5
271D
330
1F
100
AcDbEntity
  8
外形線
100
AcDbLine
 10
33809.07906368178
 20
29078.77221026549
 30
0.0
 11
33809.07906368178
 21
29051.77221026549
 31
0.0
  0
LINE
  5
271E
330
1F
100
AcDbEntity
  8
外形線
100
AcDbLine
 10
33812.07906368178
 20
29051.77221026549
 30
0.0
 11
33812.07906368177
 21
29059.27221026549
 31
0.0
  0
LINE
  5
271F
330
1F
100
AcDbEntity
  8
外形線
100
AcDbLine
 10
33812.07906368177
 20
29062.97221026548
 30
0.0
 11
33812.07906368178
 21
29067.57221026549
 31
0.0
  0
LINE
  5
2720
330
1F
100
AcDbEntity
  8
外形線
100
AcDbLine
 10
33812.07906368178
 20
29071.27221026549
 30
0.0
 11
33812.07906368178
 21
29078.77221026549
 31
0.0
  0
LINE
  5
2721
330
1F
100
AcDbEntity
  8
外形線
100
AcDbLine
 10
33822.07906368178
 20
29078.77221026549
 30
0.0
 11
33822.07906368178
 21
29071.27221026549
 31
0.0
  0
LINE
  5
2722
330
1F
100
AcDbEntity
  8
外形線
100
AcDbLine
 10
33822.07906368178
 20
29059.27221026549
 30
0.0
 11
33822.07906368178
 21
29051.77221026549
 31
0.0
  0
CIRCLE
  5
2723
330
1F
100
AcDbEntity
  8
外形線
100
AcDbCircle
 10
33958.07906368178
 20
29065.27221026549
 30
0.0
 40
2.149999999999999
  0
LINE
  5
2724
330
1F
100
AcDbEntity
  8
外形線
100
AcDbLine
 10
33950.37906368178
 20
29051.77221026549
 30
0.0
 11
33969.07906368178
 21
29051.77221026549
 31
0.0
  0
LINE
  5
2725
330
1F
100
AcDbEntity
  8
外形線
100
AcDbLine
 10
33969.07906368178
 20
29051.77221026549
 30
0.0
 11
33969.07906368178
 21
29078.77221026549
 31
0.0
  0
LINE
  5
2726
330
1F
100
AcDbEntity
  8
外形線
100
AcDbLine
 10
33969.07906368178
 20
29078.77221026549
 30
0.0
 11
33950.37906368178
 21
29078.77221026549
 31
0.0
  0
LINE
  5
2727
330
1F
100
AcDbEntity
  8
外形線
100
AcDbLine
 10
33953.07906368178
 20
29051.77221026549
 30
0.0
 11
33953.07906368178
 21
29059.27221026549
 31
0.0
  0
LINE
  5
2728
330
1F
100
AcDbEntity
  8
外形線
100
AcDbLine
 10
33953.07906368178
 20
29071.27221026549
 30
0.0
 11
33953.07906368178
 21
29078.77221026549
 31
0.0
  0
LINE
  5
2729
330
1F
100
AcDbEntity
  8
外形線
100
AcDbLine
 10
33963.07906368178
 20
29078.77221026549
 30
0.0
 11
33963.07906368178
 21
29051.77221026549
 31
0.0
  0
LINE
  5
272A
330
1F
100
AcDbEntity
  8
外形線
100
AcDbLine
 10
33966.07906368178
 20
29051.77221026549
 30
0.0
 11
33966.07906368178
 21
29078.77221026549
 31
0.0
  0
LINE
  5
272B
330
1F
100
AcDbEntity
  8
外形線
100
AcDbLine
 10
33823.37906368178
 20
29081.27221026549
 30
0.0
 11
33823.37906368178
 21
29049.27221026549
 31
0.0
  0
ARC
  5
272C
330
1F
100
AcDbEntity
  8
外形線
100
AcDbCircle
 10
33824.37906368178
 20
29081.27221026549
 30
0.0
 40
1.0
100
AcDbArc
 50
90.0
 51
180.0
  0
LINE
  5
272D
330
1F
100
AcDbEntity
  8
外形線
100
AcDbLine
 10
33824.37906368178
 20
29048.27221026549
 30
0.0
 11
33949.37906368178
 21
29048.27221026549
 31
0.0
  0
ARC
  5
272E
330
1F
100
AcDbEntity
  8
外形線
100
AcDbCircle
 10
33824.37906368178
 20
29049.27221026549
 30
0.0
 40
1.0
100
AcDbArc
 50
180.0
 51
270.0
  0
LINE
  5
272F
330
1F
100
AcDbEntity
  8
外形線
100
AcDbLine
 10
33950.37906368178
 20
29049.27221026549
 30
0.0
 11
33950.37906368178
 21
29081.27221026549
 31
0.0
  0
ARC
  5
2730
330
1F
100
AcDbEntity
  8
外形線
100
AcDbCircle
 10
33949.37906368178
 20
29049.27221026549
 30
0.0
 40
1.0
100
AcDbArc
 50
270.0
 51
0.0
  0
LINE
  5
2731
330
1F
100
AcDbEntity
  8
外形線
100
AcDbLine
 10
33949.37906368178
 20
29082.27221026549
 30
0.0
 11
33824.37906368178
 21
29082.27221026549
 31
0.0
  0
ARC
  5
2732
330
1F
100
AcDbEntity
  8
外形線
100
AcDbCircle
 10
33949.37906368178
 20
29081.27221026549
 30
0.0
 40
1.0
100
AcDbArc
 50
0.0
 51
90.0
  0
LINE
  5
2733
330
1F
100
AcDbEntity
  8
外形線
100
AcDbLine
 10
33823.37906368178
 20
29071.27221026549
 30
0.0
 11
33811.67906368178
 21
29071.27221026549
 31
0.0
  0
LINE
  5
2734
330
1F
100
AcDbEntity
  8
外形線
100
AcDbLine
 10
33811.37906368178
 20
29070.97221026548
 30
0.0
 11
33811.37906368178
 21
29067.87221026549
 31
0.0
  0
ARC
  5
2735
330
1F
100
AcDbEntity
  8
外形線
100
AcDbCircle
 10
33811.67906368178
 20
29067.87221026549
 30
0.0
 40
0.3
100
AcDbArc
 50
180.0
 51
270.0
  0
ARC
  5
2736
330
1F
100
AcDbEntity
  8
外形線
100
AcDbCircle
 10
33811.67906368178
 20
29070.97221026548
 30
0.0
 40
0.3
100
AcDbArc
 50
90.0
 51
180.0
  0
LINE
  5
2737
330
1F
100
AcDbEntity
  8
外形線
100
AcDbLine
 10
33811.67906368178
 20
29067.57221026549
 30
0.0
 11
33817.07906368178
 21
29067.57221026549
 31
0.0
  0
LINE
  5
2738
330
1F
100
AcDbEntity
  8
外形線
100
AcDbLine
 10
33817.07906368178
 20
29062.97221026548
 30
0.0
 11
33811.67906368178
 21
29062.97221026548
 31
0.0
  0
ARC
  5
2739
330
1F
100
AcDbEntity
  8
外形線
100
AcDbCircle
 10
33811.67906368178
 20
29062.67221026548
 30
0.0
 40
0.3
100
AcDbArc
 50
90.0
 51
180.0
  0
LINE
  5
273A
330
1F
100
AcDbEntity
  8
外形線
100
AcDbLine
 10
33811.37906368178
 20
29062.67221026548
 30
0.0
 11
33811.37906368178
 21
29059.57221026549
 31
0.0
  0
LINE
  5
273B
330
1F
100
AcDbEntity
  8
外形線
100
AcDbLine
 10
33811.67906368178
 20
29059.27221026549
 30
0.0
 11
33823.37906368178
 21
29059.27221026549
 31
0.0
  0
ARC
  5
273C
330
1F
100
AcDbEntity
  8
外形線
100
AcDbCircle
 10
33811.67906368178
 20
29059.57221026549
 30
0.0
 40
0.3
100
AcDbArc
 50
180.0
 51
270.0
  0
ARC
  5
273D
330
1F
100
AcDbEntity
  8
外形線
100
AcDbCircle
 10
33817.07906368178
 20
29065.27221026549
 30
0.0
 40
2.30000000000291
100
AcDbArc
 50
270.0
 51
90.0
  0
ARC
  5
273E
330
1F
100
AcDbEntity
  8
外形線
100
AcDbCircle
 10
33820.04450275787
 20
29064.2477909394
 30
0.0
 40
6.030264183238933
100
AcDbArc
 50
56.42892761935355
 51
91.07027083668754
  0
ARC
  5
273F
330
1F
100
AcDbEntity
  8
外形線
100
AcDbCircle
 10
33819.92906368178
 20
29070.42697690352
 30
0.0
 40
0.15
100
AcDbArc
 50
180.0
 51
271.0702708366875
  0
LINE
  5
2740
330
1F
100
AcDbEntity
  8
外形線
100
AcDbLine
 10
33819.77906368178
 20
29071.27221026549
 30
0.0
 11
33819.77906368178
 21
29070.42697690352
 31
0.0
  0
ARC
  5
2741
330
1F
100
AcDbEntity
  8
外形線
100
AcDbCircle
 10
33820.04450275787
 20
29066.29662959158
 30
0.0
 40
6.030264183238933
100
AcDbArc
 50
268.9297291633125
 51
303.5710723806464
  0
ARC
  5
2742
330
1F
100
AcDbEntity
  8
外形線
100
AcDbCircle
 10
33819.92906368178
 20
29060.11744362746
 30
0.0
 40
0.15
100
AcDbArc
 50
88.92972916331249
 51
180.0
  0
LINE
  5
2743
330
1F
100
AcDbEntity
  8
外形線
100
AcDbLine
 10
33819.77906368178
 20
29059.27221026549
 30
0.0
 11
33819.77906368178
 21
29060.11744362746
 31
0.0
  0
LINE
  5
2744
330
1F
100
AcDbEntity
  8
外形線
100
AcDbLine
 10
33950.37906368178
 20
29071.27221026549
 30
0.0
 11
33962.07906368178
 21
29071.27221026549
 31
0.0
  0
LINE
  5
2745
330
1F
100
AcDbEntity
  8
外形線
100
AcDbLine
 10
33962.37906368178
 20
29070.97221026548
 30
0.0
 11
33962.37906368178
 21
29067.87221026549
 31
0.0
  0
ARC
  5
2746
330
1F
100
AcDbEntity
  8
外形線
100
AcDbCircle
 10
33962.07906368178
 20
29067.87221026549
 30
0.0
 40
0.3
100
AcDbArc
 50
270.0
 51
0.0
  0
ARC
  5
2747
330
1F
100
AcDbEntity
  8
外形線
100
AcDbCircle
 10
33962.07906368178
 20
29070.97221026548
 30
0.0
 40
0.3
100
AcDbArc
 50
0.0
 51
90.0
  0
LINE
  5
2748
330
1F
100
AcDbEntity
  8
外形線
100
AcDbLine
 10
33962.07906368178
 20
29067.57221026549
 30
0.0
 11
33956.67906368178
 21
29067.57221026549
 31
0.0
  0
LINE
  5
2749
330
1F
100
AcDbEntity
  8
外形線
100
AcDbLine
 10
33956.67906368178
 20
29062.97221026548
 30
0.0
 11
33962.07906368178
 21
29062.97221026548
 31
0.0
  0
LINE
  5
274A
330
1F
100
AcDbEntity
  8
外形線
100
AcDbLine
 10
33962.37906368178
 20
29062.67221026548
 30
0.0
 11
33962.37906368178
 21
29059.57221026549
 31
0.0
  0
ARC
  5
274B
330
1F
100
AcDbEntity
  8
外形線
100
AcDbCircle
 10
33962.07906368178
 20
29062.67221026548
 30
0.0
 40
0.3
100
AcDbArc
 50
0.0
 51
90.0
  0
ARC
  5
274C
330
1F
100
AcDbEntity
  8
外形線
100
AcDbCircle
 10
33962.07906368178
 20
29059.57221026549
 30
0.0
 40
0.3
100
AcDbArc
 50
270.0
 51
0.0
  0
LINE
  5
274D
330
1F
100
AcDbEntity
  8
外形線
100
AcDbLine
 10
33962.07906368178
 20
29059.27221026549
 30
0.0
 11
33950.37906368178
 21
29059.27221026549
 31
0.0
  0
ARC
  5
274E
330
1F
100
AcDbEntity
  8
外形線
100
AcDbCircle
 10
33956.67906368178
 20
29065.27221026549
 30
0.0
 40
2.30000000000291
100
AcDbArc
 50
90.0
 51
270.0
  0
ARC
  5
274F
330
1F
100
AcDbEntity
  8
外形線
100
AcDbCircle
 10
33953.71362460569
 20
29064.2477909394
 30
0.0
 40
6.030264183238933
100
AcDbArc
 50
88.92972916331249
 51
123.5710723801781
  0
ARC
  5
2750
330
1F
100
AcDbEntity
  8
外形線
100
AcDbCircle
 10
33953.82906368178
 20
29070.42697690352
 30
0.0
 40
0.15
100
AcDbArc
 50
268.9297291633125
 51
0.0
  0
LINE
  5
2751
330
1F
100
AcDbEntity
  8
外形線
100
AcDbLine
 10
33953.97906368178
 20
29071.27221026549
 30
0.0
 11
33953.97906368178
 21
29070.42697690352
 31
0.0
  0
ARC
  5
2752
330
1F
100
AcDbEntity
  8
外形線
100
AcDbCircle
 10
33953.71362460569
 20
29066.29662959158
 30
0.0
 40
6.030264183238933
100
AcDbArc
 50
236.4289276198219
 51
271.0702708366875
  0
ARC
  5
2753
330
1F
100
AcDbEntity
  8
外形線
100
AcDbCircle
 10
33953.82906368178
 20
29060.11744362746
 30
0.0
 40
0.15
100
AcDbArc
 50
0.0
 51
91.07027083668754
  0
LINE
  5
2754
330
1F
100
AcDbEntity
  8
外形線
100
AcDbLine
 10
33953.97906368178
 20
29059.27221026549
 30
0.0
 11
33953.97906368178
 21
29060.11744362746
 31
0.0
  0
LINE
  5
2755
330
1F
100
AcDbEntity
  8
外形線
100
AcDbLine
 10
33836.87906368178
 20
29076.77221026549
 30
0.0
 11
33836.87906368178
 21
29053.77221026549
 31
0.0
  0
LINE
  5
2756
330
1F
100
AcDbEntity
  8
外形線
100
AcDbLine
 10
33837.87906368178
 20
29052.77221026549
 30
0.0
 11
33935.87906368178
 21
29052.77221026549
 31
0.0
  0
ARC
  5
2757
330
1F
100
AcDbEntity
  8
外形線
100
AcDbCircle
 10
33837.87906368178
 20
29053.77221026549
 30
0.0
 40
1.0
100
AcDbArc
 50
180.0
 51
270.0
  0
LINE
  5
2758
330
1F
100
AcDbEntity
  8
外形線
100
AcDbLine
 10
33936.87906368178
 20
29053.77221026549
 30
0.0
 11
33936.87906368178
 21
29076.77221026549
 31
0.0
  0
ARC
  5
2759
330
1F
100
AcDbEntity
  8
外形線
100
AcDbCircle
 10
33935.87906368178
 20
29053.77221026549
 30
0.0
 40
1.0
100
AcDbArc
 50
270.0
 51
0.0
  0
ARC
  5
275A
330
1F
100
AcDbEntity
  8
外形線
100
AcDbCircle
 10
33935.87906368178
 20
29076.77221026549
 30
0.0
 40
1.0
100
AcDbArc
 50
0.0
 51
90.0
  0
LINE
  5
275B
330
1F
100
AcDbEntity
  8
外形線
100
AcDbLine
 10
33935.87906368178
 20
29077.77221026549
 30
0.0
 11
33837.87906368178
 21
29077.77221026549
 31
0.0
  0
ARC
  5
275C
330
1F
100
AcDbEntity
  8
外形線
100
AcDbCircle
 10
33837.87906368178
 20
29076.77221026549
 30
0.0
 40
1.0
100
AcDbArc
 50
90.0
 51
180.0
  0
LINE
  5
275D
330
1F
100
AcDbEntity
  8
孔
100
AcDbLine
 10
33806.05486854693
 20
29068.90528350716
 30
0.0
 11
33806.07906368178
 21
29068.71315136635
 31
0.0
  0
LINE
  5
275E
330
1F
100
AcDbEntity
  8
外形線
100
AcDbLine
 10
33643.07906368178
 20
29078.77221026549
 30
0.0
 11
33643.07906368178
 21
29051.77221026549
 31
0.0
  0
LINE
  5
275F
330
1F
100
AcDbEntity
  8
外形線
100
AcDbLine
 10
33643.07906368178
 20
29051.77221026549
 30
0.0
 11
33647.07906368178
 21
29051.77221026549
 31
0.0
  0
LINE
  5
2760
330
1F
100
AcDbEntity
  8
外形線
100
AcDbLine
 10
33681.07906368178
 20
29051.77221026549
 30
0.0
 11
33738.07906368178
 21
29051.77221026549
 31
0.0
  0
LINE
  5
2761
330
1F
100
AcDbEntity
  8
外形線
100
AcDbLine
 10
33738.07906368178
 20
29051.77221026549
 30
0.0
 11
33738.07906368178
 21
29078.77221026549
 31
0.0
  0
LINE
  5
2762
330
1F
100
AcDbEntity
  8
外形線
100
AcDbLine
 10
33738.07906368178
 20
29078.77221026549
 30
0.0
 11
33669.07906368178
 21
29078.77221026549
 31
0.0
  0
LINE
  5
2763
330
1F
100
AcDbEntity
  8
外形線
100
AcDbLine
 10
33647.07906368178
 20
29078.77221026549
 30
0.0
 11
33643.07906368178
 21
29078.77221026549
 31
0.0
  0
CIRCLE
  5
2764
330
1F
100
AcDbEntity
  8
外形線
100
AcDbCircle
 10
33698.07906368178
 20
29065.27221026549
 30
0.0
 40
2.299999999999999
  0
CIRCLE
  5
2765
330
1F
100
AcDbEntity
  8
外形線
100
AcDbCircle
 10
33718.07906368178
 20
29065.27221026549
 30
0.0
 40
1.6
  0
LINE
  5
2766
330
1F
100
AcDbEntity
  8
外形線
100
AcDbLine
 10
33647.07906368178
 20
29089.77221026549
 30
0.0
 11
33647.07906368178
 21
29045.77221026549
 31
0.0
  0
ARC
  5
2767
330
1F
100
AcDbEntity
  8
外形線
100
AcDbCircle
 10
33647.57906368178
 20
29089.77221026549
 30
0.0
 40
0.5
100
AcDbArc
 50
90.0
 51
180.0
  0
ARC
  5
2768
330
1F
100
AcDbEntity
  8
外形線
100
AcDbCircle
 10
33647.57906368178
 20
29045.77221026549
 30
0.0
 40
0.5
100
AcDbArc
 50
180.0
 51
270.0
  0
LINE
  5
2769
330
1F
100
AcDbEntity
  8
外形線
100
AcDbLine
 10
33647.57906368178
 20
29045.27221026549
 30
0.0
 11
33668.57906368178
 21
29045.27221026549
 31
0.0
  0
LINE
  5
276A
330
1F
100
AcDbEntity
  8
外形線
100
AcDbLine
 10
33669.07906368178
 20
29045.77221026549
 30
0.0
 11
33669.07906368178
 21
29089.77221026549
 31
0.0
  0
ARC
  5
276B
330
1F
100
AcDbEntity
  8
外形線
100
AcDbCircle
 10
33668.57906368178
 20
29045.77221026549
 30
0.0
 40
0.5
100
AcDbArc
 50
270.0
 51
0.0
  0
ARC
  5
276C
330
1F
100
AcDbEntity
  8
外形線
100
AcDbCircle
 10
33668.57906368178
 20
29089.77221026549
 30
0.0
 40
0.5
100
AcDbArc
 50
0.0
 51
90.0
  0
LINE
  5
276D
330
1F
100
AcDbEntity
  8
外形線
100
AcDbLine
 10
33668.57906368178
 20
29090.27221026549
 30
0.0
 11
33647.57906368178
 21
29090.27221026549
 31
0.0
  0
LINE
  5
276E
330
1F
100
AcDbEntity
  8
外形線
100
AcDbLine
 10
33669.07906368178
 20
29073.27221026549
 30
0.0
 11
33680.57906368178
 21
29073.27221026549
 31
0.0
  0
ARC
  5
276F
330
1F
100
AcDbEntity
  8
外形線
100
AcDbCircle
 10
33680.57906368178
 20
29072.77221026549
 30
0.0
 40
0.5
100
AcDbArc
 50
0.0
 51
90.0
  0
LINE
  5
2770
330
1F
100
AcDbEntity
  8
外形線
100
AcDbLine
 10
33681.07906368178
 20
29072.77221026549
 30
0.0
 11
33681.07906368178
 21
29045.77221026549
 31
0.0
  0
ARC
  5
2771
330
1F
100
AcDbEntity
  8
外形線
100
AcDbCircle
 10
33680.57906368178
 20
29045.77221026549
 30
0.0
 40
0.5
100
AcDbArc
 50
270.0
 51
0.0
  0
LINE
  5
2772
330
1F
100
AcDbEntity
  8
外形線
100
AcDbLine
 10
33680.57906368178
 20
29045.27221026549
 30
0.0
 11
33668.57906368178
 21
29045.27221026549
 31
0.0
  0
CIRCLE
  5
2773
330
1F
100
AcDbEntity
  8
孔
100
AcDbCircle
 10
33651.07906368178
 20
29082.77221026549
 30
0.0
 40
2.149999999999999
  0
CIRCLE
  5
2774
330
1F
100
AcDbEntity
  8
孔
100
AcDbCircle
 10
33665.07906368178
 20
29082.77221026549
 30
0.0
 40
2.149999999999999
  0
CIRCLE
  5
2775
330
1F
100
AcDbEntity
  8
孔
100
AcDbCircle
 10
33651.07906368178
 20
29063.77221026549
 30
0.0
 40
2.149999999999999
  0
CIRCLE
  5
2776
330
1F
100
AcDbEntity
  8
孔
100
AcDbCircle
 10
33665.07906368178
 20
29063.77221026549
 30
0.0
 40
2.149999999999999
  0
CIRCLE
  5
2777
330
1F
100
AcDbEntity
  8
孔
100
AcDbCircle
 10
33651.07906368178
 20
29053.77221026549
 30
0.0
 40
2.149999999999999
  0
CIRCLE
  5
2778
330
1F
100
AcDbEntity
  8
孔
100
AcDbCircle
 10
33665.07906368178
 20
29053.77221026549
 30
0.0
 40
2.149999999999999
  0
LINE
  5
2779
330
1F
100
AcDbEntity
  8
外形線
100
AcDbLine
 10
33656.07906368178
 20
29086.27221026549
 30
0.0
 11
33656.07906368178
 21
29078.27221026549
 31
0.0
  0
LINE
  5
277A
330
1F
100
AcDbEntity
  8
外形線
100
AcDbLine
 10
33656.07906368178
 20
29078.27221026549
 30
0.0
 11
33660.07906368178
 21
29078.27221026549
 31
0.0
  0
LINE
  5
277B
330
1F
100
AcDbEntity
  8
外形線
100
AcDbLine
 10
33660.07906368178
 20
29078.27221026549
 30
0.0
 11
33660.07906368178
 21
29086.27221026549
 31
0.0
  0
LINE
  5
277C
330
1F
100
AcDbEntity
  8
外形線
100
AcDbLine
 10
33660.07906368178
 20
29086.27221026549
 30
0.0
 11
33656.07906368178
 21
29086.27221026549
 31
0.0
  0
LINE
  5
277D
330
1F
100
AcDbEntity
  8
外形線
100
AcDbLine
 10
33656.07906368178
 20
29063.27221026549
 30
0.0
 11
33656.07906368178
 21
29053.27221026549
 31
0.0
  0
LINE
  5
277E
330
1F
100
AcDbEntity
  8
外形線
100
AcDbLine
 10
33656.07906368178
 20
29053.27221026549
 30
0.0
 11
33660.07906368178
 21
29053.27221026549
 31
0.0
  0
LINE
  5
277F
330
1F
100
AcDbEntity
  8
外形線
100
AcDbLine
 10
33660.07906368178
 20
29053.27221026549
 30
0.0
 11
33660.07906368178
 21
29063.27221026549
 31
0.0
  0
LINE
  5
2780
330
1F
100
AcDbEntity
  8
外形線
100
AcDbLine
 10
33660.07906368178
 20
29063.27221026549
 30
0.0
 11
33656.07906368178
 21
29063.27221026549
 31
0.0
  0
LINE
  5
2781
330
1F
100
AcDbEntity
  8
中心線
 48
0.05
100
AcDbLine
 10
33658.07906368178
 20
29074.27221026549
 30
0.0
 11
33663.07906368178
 21
29074.27221026549
 31
0.0
  0
LINE
  5
2782
330
1F
100
AcDbEntity
  8
中心線
 48
0.05
100
AcDbLine
 10
33658.07906368178
 20
29074.27221026549
 30
0.0
 11
33658.07906368178
 21
29079.27221026549
 31
0.0
  0
LINE
  5
2783
330
1F
100
AcDbEntity
  8
中心線
 48
0.05
100
AcDbLine
 10
33658.07906368178
 20
29074.27221026549
 30
0.0
 11
33653.07906368178
 21
29074.27221026549
 31
0.0
  0
LINE
  5
2784
330
1F
100
AcDbEntity
  8
中心線
 48
0.05
100
AcDbLine
 10
33658.07906368178
 20
29074.27221026549
 30
0.0
 11
33658.07906368178
 21
29069.27221026549
 31
0.0
  0
LINE
  5
2785
330
1F
100
AcDbEntity
  8
外形線
100
AcDbLine
 10
33669.57906368178
 20
29073.27221026549
 30
0.0
 11
33669.57906368178
 21
29063.27221026549
 31
0.0
  0
LINE
  5
2786
330
1F
100
AcDbEntity
  8
外形線
100
AcDbLine
 10
33669.57906368178
 20
29063.27221026549
 30
0.0
 11
33671.07906368178
 21
29063.27221026549
 31
0.0
  0
LINE
  5
2787
330
1F
100
AcDbEntity
  8
外形線
100
AcDbLine
 10
33671.07906368178
 20
29063.27221026549
 30
0.0
 11
33671.07906368178
 21
29055.27221026549
 31
0.0
  0
LINE
  5
2788
330
1F
100
AcDbEntity
  8
外形線
100
AcDbLine
 10
33671.07906368178
 20
29055.27221026549
 30
0.0
 11
33669.57906368178
 21
29055.27221026549
 31
0.0
  0
LINE
  5
2789
330
1F
100
AcDbEntity
  8
外形線
100
AcDbLine
 10
33669.57906368178
 20
29055.27221026549
 30
0.0
 11
33669.57906368178
 21
29045.27221026549
 31
0.0
  0
LINE
  5
278A
330
1F
100
AcDbEntity
  8
外形線
100
AcDbLine
 10
33676.07906368178
 20
29061.77221026549
 30
0.0
 11
33676.07906368178
 21
29056.77221026549
 31
0.0
  0
LINE
  5
278B
330
1F
100
AcDbEntity
  8
外形線
100
AcDbLine
 10
33676.07906368178
 20
29056.77221026549
 30
0.0
 11
33678.57906368178
 21
29056.77221026549
 31
0.0
  0
LINE
  5
278C
330
1F
100
AcDbEntity
  8
外形線
100
AcDbLine
 10
33678.57906368178
 20
29056.77221026549
 30
0.0
 11
33678.57906368178
 21
29061.77221026549
 31
0.0
  0
LINE
  5
278D
330
1F
100
AcDbEntity
  8
外形線
100
AcDbLine
 10
33678.57906368178
 20
29061.77221026549
 30
0.0
 11
33676.07906368178
 21
29061.77221026549
 31
0.0
  0
LINE
  5
278E
330
1F
100
AcDbEntity
  8
寸法線
100
AcDbLine
 10
33471.57906368178
 20
28873.22826060758
 30
0.0
 11
33471.57906368178
 21
28873.85326060758
 31
0.0
  0
LINE
  5
278F
330
1F
100
AcDbEntity
  8
寸法線
100
AcDbLine
 10
34246.57906368178
 20
28873.22826060758
 30
0.0
 11
34246.57906368178
 21
28873.85326060758
 31
0.0
  0
LINE
  5
2790
330
1F
100
AcDbEntity
  8
寸法線
100
AcDbLine
 10
33474.07906368178
 20
28872.60326060757
 30
0.0
 11
34244.07906368178
 21
28872.60326060757
 31
0.0
  0
SOLID
  5
2791
330
1F
100
AcDbEntity
  8
寸法線
100
AcDbTrace
 10
33474.07906368178
 20
28873.01992727424
 30
0.0
 11
33474.07906368178
 21
28872.18659394091
 31
0.0
 12
33471.57906368178
 22
28872.60326060757
 32
0.0
 13
33471.57906368178
 23
28872.60326060757
 33
0.0
  0
SOLID
  5
2792
330
1F
100
AcDbEntity
  8
寸法線
100
AcDbTrace
 10
34244.07906368178
 20
28873.01992727424
 30
0.0
 11
34244.07906368178
 21
28872.18659394091
 31
0.0
 12
34246.57906368178
 22
28872.60326060757
 32
0.0
 13
34246.57906368178
 23
28872.60326060757
 33
0.0
  0
MTEXT
  5
2793
330
1F
100
AcDbEntity
  8
寸法線
100
AcDbMText
 10
34035.39207533928
 20
28872.60326060757
 30
0.0
 40
20.0
 41
452.965687196711
 46
0.0
 71
     5
 72
     1
  1
{\fMS PGothic|b0|i0|c128|p50;灯具取付寸法　最内ピッチ　748\P　　　　　　　　　　最外ピッチ　814}
 73
     1
 44
1.0
  0
CIRCLE
  5
2794
330
1F
100
AcDbEntity
  8
○
100
AcDbCircle
 10
34370.44259101508
 20
28972.60326060758
 30
0.0
 40
15.0
  0
MTEXT
  5
2795
330
1F
100
AcDbEntity
  8
寸法線
100
AcDbMText
 10
34363.94976255336
 20
28982.34711109858
 30
0.0
 40
20.0
 41
35.534113038535
 46
0.0
 71
     1
 72
     5
  1
2
 73
     1
 44
1.0
1001
ACAD
1000
ACAD_MTEXT_COLUMN_INFO_BEGIN
1070
    75
1070
     2
1070
    79
1070
     0
1070
    76
1070
     1
1070
    78
1070
     0
1070
    48
1040
35.534113038535
1070
    49
1040
12.5
1070
    50
1070
     1
1040
0.0
1000
ACAD_MTEXT_COLUMN_INFO_END
  0
LINE
  5
2796
330
1F
100
AcDbEntity
  8
○
100
AcDbLine
 10
34360.21059268569
 20
28983.57167937179
 30
0.0
 11
34294.00723063918
 21
29065.95166222425
 31
0.0
  0
LINE
  5
2797
330
1F
100
AcDbEntity
  8
○
100
AcDbLine
 10
34367.35759578457
 20
28957.92392804687
 30
0.0
 11
34293.6392439203
 21
28718.73827359907
 31
0.0
  0
CIRCLE
  5
2798
330
1F
100
AcDbEntity
  8
○
100
AcDbCircle
 10
34309.88785425816
 20
28972.60326060758
 30
0.0
 40
15.0
  0
MTEXT
  5
2799
330
1F
100
AcDbEntity
  8
寸法線
100
AcDbMText
 10
34303.39502579644
 20
28982.34711109858
 30
0.0
 40
20.0
 41
35.534113038535
 46
0.0
 71
     1
 72
     5
  1
5
 73
     1
 44
1.0
1001
ACAD
1000
ACAD_MTEXT_COLUMN_INFO_BEGIN
1070
    75
1070
     2
1070
    79
1070
     0
1070
    76
1070
     1
1070
    78
1070
     0
1070
    48
1040
35.534113038535
1070
    49
1040
12.5
1070
    50
1070
     1
1040
0.0
1000
ACAD_MTEXT_COLUMN_INFO_END
  0
LINE
  5
279A
330
1F
100
AcDbEntity
  8
○
100
AcDbLine
 10
34301.99332101732
 20
28985.35772433246
 30
0.0
 11
34275.94089792322
 21
29059.17249485084
 31
0.0
  0
LINE
  5
279B
330
1F
100
AcDbEntity
  8
○
100
AcDbLine
 10
34308.41938848581
 20
28957.67531338515
 30
0.0
 11
34274.55857699086
 21
28753.95694572453
 31
0.0
  0
CIRCLE
  5
279C
330
1F
100
AcDbEntity
  8
○
100
AcDbCircle
 10
33806.07906368178
 20
28972.60326060758
 30
0.0
 40
15.0
  0
MTEXT
  5
279D
330
1F
100
AcDbEntity
  8
寸法線
100
AcDbMText
 10
33799.58623522006
 20
28982.34711109858
 30
0.0
 40
20.0
 41
35.534113038535
 46
0.0
 71
     1
 72
     5
  1
8
 73
     1
 44
1.0
1001
ACAD
1000
ACAD_MTEXT_COLUMN_INFO_BEGIN
1070
    75
1070
     2
1070
    79
1070
     0
1070
    76
1070
     1
1070
    78
1070
     0
1070
    48
1040
35.534113038535
1070
    49
1040
12.5
1070
    50
1070
     1
1040
0.0
1000
ACAD_MTEXT_COLUMN_INFO_END
  0
LINE
  5
279E
330
1F
100
AcDbEntity
  8
○
100
AcDbLine
 10
33817.25940356928
 20
28982.60326060757
 30
0.0
 11
33869.68272419453
 21
29059.60355930105
 31
0.0
  0
LINE
  5
279F
330
1F
100
AcDbEntity
  8
○
100
AcDbLine
 10
33805.38481773323
 20
28957.61933513516
 30
0.0
 11
33867.14274164276
 21
28700.76607572709
 31
0.0
  0
CIRCLE
  5
27A0
330
1F
100
AcDbEntity
  8
○
100
AcDbCircle
 10
33762.52291244874
 20
28972.60326060758
 30
0.0
 40
15.0
  0
MTEXT
  5
27A1
330
1F
100
AcDbEntity
  8
寸法線
100
AcDbMText
 10
33756.03008398702
 20
28982.34711109858
 30
0.0
 40
20.0
 41
35.534113038535
 46
0.0
 71
     1
 72
     5
  1
6
 73
     1
 44
1.0
1001
ACAD
1000
ACAD_MTEXT_COLUMN_INFO_BEGIN
1070
    75
1070
     2
1070
    79
1070
     0
1070
    76
1070
     1
1070
    78
1070
     0
1070
    48
1040
35.534113038535
1070
    49
1040
12.5
1070
    50
1070
     1
1040
0.0
1000
ACAD_MTEXT_COLUMN_INFO_END
  0
LINE
  5
27A2
330
1F
100
AcDbEntity
  8
○
100
AcDbLine
 10
33773.70325233624
 20
28982.60326060757
 30
0.0
 11
33816.01324188341
 21
29056.95501873829
 31
0.0
  0
LINE
  5
27A3
330
1F
100
AcDbEntity
  8
○
100
AcDbLine
 10
33769.526241115
 20
28959.3385183337
 30
0.0
 11
33817.90230638025
 21
28686.00566453024
 31
0.0
  0
CIRCLE
  5
27A4
330
1F
100
AcDbEntity
  8
○
100
AcDbCircle
 10
33677.19261484686
 20
28972.60326060758
 30
0.0
 40
15.0
  0
MTEXT
  5
27A5
330
1F
100
AcDbEntity
  8
寸法線
100
AcDbMText
 10
33670.69978638514
 20
28982.34711109858
 30
0.0
 40
20.0
 41
35.534113038535
 46
0.0
 71
     1
 72
     5
  1
7
 73
     1
 44
1.0
1001
ACAD
1000
ACAD_MTEXT_COLUMN_INFO_BEGIN
1070
    75
1070
     2
1070
    79
1070
     0
1070
    76
1070
     1
1070
    78
1070
     0
1070
    48
1040
35.534113038535
1070
    49
1040
12.5
1070
    50
1070
     1
1040
0.0
1000
ACAD_MTEXT_COLUMN_INFO_END
  0
LINE
  5
27A6
330
1F
100
AcDbEntity
  8
○
100
AcDbLine
 10
33680.78667505459
 20
28987.16632111089
 30
0.0
 11
33709.07939268489
 21
29063.00051461853
 31
0.0
  0
LINE
  5
27A7
330
1F
100
AcDbEntity
  8
○
100
AcDbLine
 10
33682.86206771972
 20
28958.71595330477
 30
0.0
 11
33722.31858894416
 21
28684.55704985376
 31
0.0
  0
CIRCLE
  5
27A8
330
1F
100
AcDbEntity
  8
○
100
AcDbCircle
 10
33616.42726756207
 20
28972.60326060758
 30
0.0
 40
15.0
  0
MTEXT
  5
27A9
330
1F
100
AcDbEntity
  8
寸法線
100
AcDbMText
 10
33609.93443910035
 20
28982.34711109858
 30
0.0
 40
20.0
 41
35.534113038535
 46
0.0
 71
     1
 72
     5
  1
9
 73
     1
 44
1.0
1001
ACAD
1000
ACAD_MTEXT_COLUMN_INFO_BEGIN
1070
    75
1070
     2
1070
    79
1070
     0
1070
    76
1070
     1
1070
    78
1070
     0
1070
    48
1040
35.534113038535
1070
    49
1040
12.5
1070
    50
1070
     1
1040
0.0
1000
ACAD_MTEXT_COLUMN_INFO_END
  0
LINE
  5
27AA
330
1F
100
AcDbEntity
  8
○
100
AcDbLine
 10
33627.60760744957
 20
28982.60326060757
 30
0.0
 11
33657.59773168152
 21
29049.79561597698
 31
0.0
  0
LINE
  5
27AB
330
1F
100
AcDbEntity
  8
○
100
AcDbLine
 10
33620.26707731825
 20
28958.10305850428
 30
0.0
 11
33657.42467341321
 21
28699.56606497893
 31
0.0
  0
CIRCLE
  5
27AC
330
1F
100
AcDbEntity
  8
○
100
AcDbCircle
 10
33562.84560701409
 20
28972.60326060758
 30
0.0
 40
15.0
  0
MTEXT
  5
27AD
330
1F
100
AcDbEntity
  8
寸法線
100
AcDbMText
 10
33556.35277855237
 20
28982.34711109858
 30
0.0
 40
20.0
 41
35.534113038535
 46
0.0
 71
     1
 72
     5
  1
1
 73
     1
 44
1.0
1001
ACAD
1000
ACAD_MTEXT_COLUMN_INFO_BEGIN
1070
    75
1070
     2
1070
    79
1070
     0
1070
    76
1070
     1
1070
    78
1070
     0
1070
    48
1040
35.534113038535
1070
    49
1040
12.5
1070
    50
1070
     1
1040
0.0
1000
ACAD_MTEXT_COLUMN_INFO_END
  0
LINE
  5
27AE
330
1F
100
AcDbEntity
  8
○
100
AcDbLine
 10
33567.95461884221
 20
28986.70638076378
 30
0.0
 11
33605.57407959656
 21
29061.26648586505
 31
0.0
  0
LINE
  5
27AF
330
1F
100
AcDbEntity
  8
○
100
AcDbLine
 10
33565.88079226556
 20
28957.91354820436
 30
0.0
 11
33623.51250254928
 21
28683.73464469409
 31
0.0
  0
CIRCLE
  5
27B0
330
1F
100
AcDbEntity
  8
○
100
AcDbCircle
 10
33408.26638120156
 20
28972.60326060758
 30
0.0
 40
15.0
  0
MTEXT
  5
27B1
330
1F
100
AcDbEntity
  8
寸法線
100
AcDbMText
 10
33401.77355273984
 20
28982.34711109858
 30
0.0
 40
20.0
 41
35.534113038535
 46
0.0
 71
     1
 72
     5
  1
4
 73
     1
 44
1.0
1001
ACAD
1000
ACAD_MTEXT_COLUMN_INFO_BEGIN
1070
    75
1070
     2
1070
    79
1070
     0
1070
    76
1070
     1
1070
    78
1070
     0
1070
    48
1040
35.534113038535
1070
    49
1040
12.5
1070
    50
1070
     1
1040
0.0
1000
ACAD_MTEXT_COLUMN_INFO_END
  0
CIRCLE
  5
27B2
330
1F
100
AcDbEntity
  8
○
100
AcDbCircle
 10
33449.10217733403
 20
28972.60326060758
 30
0.0
 40
15.0
  0
MTEXT
  5
27B3
330
1F
100
AcDbEntity
  8
寸法線
100
AcDbMText
 10
33442.6093488723
 20
28982.34711109858
 30
0.0
 40
20.0
 41
35.534113038535
 46
0.0
 71
     1
 72
     5
  1
3
 73
     1
 44
1.0
1001
ACAD
1000
ACAD_MTEXT_COLUMN_INFO_BEGIN
1070
    75
1070
     2
1070
    79
1070
     0
1070
    76
1070
     1
1070
    78
1070
     0
1070
    48
1040
35.534113038535
1070
    49
1040
12.5
1070
    50
1070
     1
1040
0.0
1000
ACAD_MTEXT_COLUMN_INFO_END
  0
LINE
  5
27B4
330
1F
100
AcDbEntity
  8
○
100
AcDbLine
 10
33452.90812848457
 20
28987.11238655781
 30
0.0
 11
33471.57906368178
 21
29061.15058719392
 31
0.0
  0
LINE
  5
27B5
330
1F
100
AcDbEntity
  8
○
100
AcDbLine
 10
33449.10217733403
 20
28957.60326060758
 30
0.0
 11
33473.47032386495
 21
28677.21438471485
 31
0.0
  0
LINE
  5
27B6
330
1F
100
AcDbEntity
  8
○
100
AcDbLine
 10
33414.65247469716
 20
28986.17594677744
 30
0.0
 11
33431.79826469476
 21
29066.89925268421
 31
0.0
  0
LINE
  5
27B7
330
1F
100
AcDbEntity
  8
○
100
AcDbLine
 10
33412.2684118346
 20
28958.14699031361
 30
0.0
 11
33429.78846315039
 21
28761.33619035002
 31
0.0
  0
DIMENSION
  5
27B8
102
{ACAD_XDICTIONARY
360
27B9
102
}
102
{ACAD_REACTORS
330
27BA
102
}
330
1F
100
AcDbEntity
  8
寸法線
100
AcDbDimension
280
     0
  2
*D3
 10
34294.57906368178
 20
29153.50442556469
 30
0.0
 11
33858.07906368178
 21
29164.34770660153
 31
0.0
 70
    32
 71
     5
 42
873.0
 73
     0
 74
     0
 75
     0
  3
ISO-25
100
AcDbAlignedDimension
 13
33421.57906368178
 23
29065.27221026549
 33
0.0
 14
34294.57906368178
 24
29065.27221026549
 34
0.0
100
AcDbRotatedDimension
  0
DIMENSION
  5
27BB
102
{ACAD_XDICTIONARY
360
27BC
102
}
102
{ACAD_REACTORS
330
27BD
102
}
330
1F
100
AcDbEntity
  8
寸法線
100
AcDbDimension
280
     0
  2
*D4
 10
34407.4487461933
 20
28678.35326060756
 30
0.0
 11
34396.61228643885
 21
28725.85326060756
 31
0.0
 70
    33
 71
     5
 42
95.0
 73
     0
 74
     0
 75
     0
  3
ISO-25
100
AcDbAlignedDimension
 13
34293.57906368177
 23
28773.35326060755
 33
0.0
 14
34293.57906368181
 24
28678.35326060756
 34
0.0
  0
DIMENSION
  5
27BE
102
{ACAD_XDICTIONARY
360
27BF
102
}
102
{ACAD_REACTORS
330
27C0
102
}
330
1F
100
AcDbEntity
  8
寸法線
100
AcDbDimension
280
     0
  2
*D5
 10
34358.8093948046
 20
28678.35326060756
 30
0.0
 11
34346.16529521386
 21
28717.72826060757
 31
0.0
 70
    33
 71
     5
 42
78.75000000001091
 73
     0
 74
     0
 75
     0
  3
ISO-25
100
AcDbAlignedDimension
 13
34293.57906368177
 23
28757.10326060756
 33
0.0
 14
34293.57906368178
 24
28678.35326060756
 34
0.0
  0
DIMENSION
  5
27C1
102
{ACAD_XDICTIONARY
360
27C2
102
}
102
{ACAD_REACTORS
330
27C3
102
}
330
1F
100
AcDbEntity
  8
寸法線
100
AcDbDimension
280
     0
  2
*D6
 10
34407.4487461933
 20
28674.35326060755
 30
0.0
 11
34396.82374619329
 21
28661.81148025285
 31
0.0
 70
    32
 71
     5
 42
4.0
 73
     0
 74
     0
 75
     0
  3
ISO-25
100
AcDbAlignedDimension
 13
34293.57906368178
 23
28678.35326060756
 33
0.0
 14
34254.57906368178
 24
28674.35326060755
 34
0.0
 50
90.0
100
AcDbRotatedDimension
  0
DIMENSION
  5
27C4
102
{ACAD_XDICTIONARY
360
27C5
102
}
102
{ACAD_REACTORS
330
27C6
102
}
330
1F
100
AcDbEntity
  8
寸法線
100
AcDbDimension
280
     0
  2
*D7
 10
34438.91848634375
 20
28773.35326060757
 30
0.0
 11
34428.08202658931
 21
28723.85326078207
 31
0.0
 70
    32
 71
     5
 42
98.99999965098686
 73
     0
 74
     0
 75
     0
  3
ISO-25
100
AcDbAlignedDimension
 13
34467.07906245074
 23
28674.35326095658
 33
0.0
 14
34475.32906245074
 24
28773.35326060757
 34
0.0
 50
90.0
100
AcDbRotatedDimension
  0
LINE
  5
27C7
330
1F
100
AcDbEntity
  8
外形線
100
AcDbLine
 10
34465.57906245073
 20
28690.35326060756
 30
0.0
 11
34472.37906245075
 21
28690.35326060756
 31
0.0
  0
LINE
  5
27C8
330
1F
100
AcDbEntity
  8
外形線
100
AcDbLine
 10
34478.27906245074
 20
28690.35326060756
 30
0.0
 11
34485.07906245074
 21
28690.35326060756
 31
0.0
  0
LINE
  5
27C9
330
1F
100
AcDbEntity
  8
外形線
100
AcDbLine
 10
34500.12906245074
 20
28710.15326095658
 30
0.0
 11
34492.32906245073
 21
28710.15326095658
 31
0.0
  0
LINE
  5
27CA
330
1F
100
AcDbEntity
  8
外形線
100
AcDbLine
 10
34458.32906245075
 20
28710.15326095657
 30
0.0
 11
34455.12906245074
 21
28710.15326095658
 31
0.0
  0
LINE
  5
27CB
102
{ACAD_REACTORS
330
27EA
330
27ED
102
}
330
1F
100
AcDbEntity
  8
外形線
100
AcDbLine
 10
34455.12906245074
 20
28710.15326095658
 30
0.0
 11
34455.12906245074
 21
28690.15326095658
 31
0.0
  0
LINE
  5
27CC
330
1F
100
AcDbEntity
  8
外形線
100
AcDbLine
 10
34455.12906245074
 20
28690.15326095658
 30
0.0
 11
34500.12906245074
 21
28690.15326095658
 31
0.0
  0
LINE
  5
27CD
102
{ACAD_REACTORS
330
27EA
330
27F0
102
}
330
1F
100
AcDbEntity
  8
外形線
100
AcDbLine
 10
34500.12906245074
 20
28690.15326095658
 30
0.0
 11
34500.12906245074
 21
28710.15326095658
 31
0.0
  0
LINE
  5
27CE
330
1F
100
AcDbEntity
  8
外形線
100
AcDbLine
 10
34458.32906245074
 20
28701.15326095658
 30
0.0
 11
34455.12906245074
 21
28701.15326095658
 31
0.0
  0
LINE
  5
27CF
330
1F
100
AcDbEntity
  8
外形線
100
AcDbLine
 10
34455.12906245074
 20
28701.15326095658
 30
0.0
 11
34455.12906245074
 21
28699.15326095658
 31
0.0
  0
LINE
  5
27D0
330
1F
100
AcDbEntity
  8
外形線
100
AcDbLine
 10
34455.12906245074
 20
28699.15326095658
 30
0.0
 11
34458.32906245074
 21
28699.15326095657
 31
0.0
  0
LINE
  5
27D1
330
1F
100
AcDbEntity
  8
外形線
100
AcDbLine
 10
34488.82906245074
 20
28682.45326095658
 30
0.0
 11
34488.82906245074
 21
28690.15326095658
 31
0.0
  0
LINE
  5
27D2
330
1F
100
AcDbEntity
  8
外形線
100
AcDbLine
 10
34478.27227500501
 20
28690.15326095658
 30
0.0
 11
34472.38584989648
 21
28690.15326095658
 31
0.0
  0
LINE
  5
27D3
330
1F
100
AcDbEntity
  8
外形線
100
AcDbLine
 10
34461.82906245073
 20
28690.15326095658
 30
0.0
 11
34461.82906245073
 21
28682.45326095658
 31
0.0
  0
LINE
  5
27D4
330
1F
100
AcDbEntity
  8
外形線
100
AcDbLine
 10
34461.82906245073
 20
28682.45326095658
 30
0.0
 11
34462.62906245074
 21
28682.45326095658
 31
0.0
  0
LINE
  5
27D5
330
1F
100
AcDbEntity
  8
外形線
100
AcDbLine
 10
34462.62906245074
 20
28682.45326095658
 30
0.0
 11
34462.62906245074
 21
28689.35326095658
 31
0.0
  0
LINE
  5
27D6
330
1F
100
AcDbEntity
  8
外形線
100
AcDbLine
 10
34462.62906245074
 20
28689.35326095658
 30
0.0
 11
34465.57906245073
 21
28689.35326095658
 31
0.0
  0
LINE
  5
27D7
330
1F
100
AcDbEntity
  8
外形線
100
AcDbLine
 10
34472.55372450772
 20
28689.35326095658
 30
0.0
 11
34478.10440039377
 21
28689.35326095658
 31
0.0
  0
LINE
  5
27D8
330
1F
100
AcDbEntity
  8
外形線
100
AcDbLine
 10
34485.07906245073
 20
28689.35326095658
 30
0.0
 11
34488.02906245073
 21
28689.35326095658
 31
0.0
  0
LINE
  5
27D9
330
1F
100
AcDbEntity
  8
外形線
100
AcDbLine
 10
34488.02906245073
 20
28689.35326095658
 30
0.0
 11
34488.02906245073
 21
28682.45326095658
 31
0.0
  0
LINE
  5
27DA
330
1F
100
AcDbEntity
  8
外形線
100
AcDbLine
 10
34488.02906245073
 20
28682.45326095658
 30
0.0
 11
34488.82906245074
 21
28682.45326095658
 31
0.0
  0
LINE
  5
27DB
330
1F
100
AcDbEntity
  8
外形線
100
AcDbLine
 10
34488.02906245073
 20
28688.35326095658
 30
0.0
 11
34485.07906245074
 21
28688.35326095658
 31
0.0
  0
LINE
  5
27DC
330
1F
100
AcDbEntity
  8
外形線
100
AcDbLine
 10
34465.57906245073
 20
28688.35326095658
 30
0.0
 11
34462.62906245074
 21
28688.35326095658
 31
0.0
  0
LINE
  5
27DD
330
1F
100
AcDbEntity
  8
外形線
100
AcDbLine
 10
34458.32906245074
 20
28690.15326095658
 30
0.0
 11
34458.32906245074
 21
28714.15326095658
 31
0.0
  0
LINE
  5
27DE
330
1F
100
AcDbEntity
  8
外形線
100
AcDbLine
 10
34459.32906245074
 20
28715.15326095657
 30
0.0
 11
34465.57906245074
 21
28715.15326095657
 31
0.0
  0
LINE
  5
27DF
330
1F
100
AcDbEntity
  8
外形線
100
AcDbLine
 10
34485.07906245074
 20
28715.15326095657
 30
0.0
 11
34491.32906245075
 21
28715.15326095657
 31
0.0
  0
ARC
  5
27E0
330
1F
100
AcDbEntity
  8
外形線
100
AcDbCircle
 10
34491.32906245075
 20
28714.15326095658
 30
0.0
 40
1.0
100
AcDbArc
 50
0.0
 51
90.0
  0
ARC
  5
27E1
330
1F
100
AcDbEntity
  8
外形線
100
AcDbCircle
 10
34459.32906245074
 20
28714.15326095658
 30
0.0
 40
1.0
100
AcDbArc
 50
90.0
 51
180.0
  0
LINE
  5
27E2
330
1F
100
AcDbEntity
  8
外形線
100
AcDbLine
 10
34492.32906245074
 20
28714.15326095658
 30
0.0
 11
34492.32906245074
 21
28690.15326095658
 31
0.0
  0
ARC
  5
27E3
330
1F
100
AcDbEntity
  8
外形線
100
AcDbCircle
 10
34478.12906245075
 20
28691.65326095658
 30
0.0
 40
0.5
100
AcDbArc
 50
135.3331853032437
 51
180.0
  0
LINE
  5
27E4
330
1F
100
AcDbEntity
  8
外形線
100
AcDbLine
 10
34473.02906245074
 20
28690.15326095658
 30
0.0
 11
34473.02906245074
 21
28691.65326095658
 31
0.0
  0
LINE
  5
27E5
330
1F
100
AcDbEntity
  8
外形線
100
AcDbLine
 10
34477.62906245074
 20
28690.15326095658
 30
0.0
 11
34477.62906245074
 21
28691.65326095658
 31
0.0
  0
ARC
  5
27E6
330
1F
100
AcDbEntity
  8
外形線
100
AcDbCircle
 10
34472.52906245074
 20
28691.65326095658
 30
0.0
 40
0.5
100
AcDbArc
 50
0.0
 51
44.66681469675623
  0
LINE
  5
27E7
330
1F
100
AcDbEntity
  8
外形線
100
AcDbLine
 10
34472.99186354103
 20
28692.15326095658
 30
0.0
 11
34477.66626136045
 21
28692.15326095658
 31
0.0
  0
DIMENSION
  5
27E8
102
{ACAD_XDICTIONARY
360
27E9
102
}
102
{ACAD_REACTORS
330
27EA
102
}
330
1F
100
AcDbEntity
  8
寸法線
100
AcDbDimension
280
     0
  2
*D8
 10
34500.12906245074
 20
28872.60326060757
 30
0.0
 11
34477.62906245074
 21
28883.3987926676
 31
0.0
 70
    32
 71
     5
 42
45.0
 73
     0
 74
     0
 75
     0
  3
ISO-25
100
AcDbAlignedDimension
 13
34455.12906245074
 23
28710.15326095658
 33
0.0
 14
34500.12906245074
 24
28710.15326095658
 34
0.0
100
AcDbRotatedDimension
  0
DIMENSION
  5
27EB
102
{ACAD_XDICTIONARY
360
27EC
102
}
102
{ACAD_REACTORS
330
27ED
102
}
330
1F
100
AcDbEntity
  8
寸法線
100
AcDbDimension
280
     0
  2
*D1
 10
34455.12906245074
 20
28839.20502077574
 30
0.0
 11
34425.96040624337
 21
28851.84912036646
 31
0.0
 70
    32
 71
     5
 42
20.19999999999709
 73
     0
 74
     0
 75
     0
  3
ISO-25
100
AcDbAlignedDimension
 13
34475.32906245074
 23
28776.35326060756
 33
0.0
 14
34455.12906245074
 24
28710.15326095658
 34
0.0
100
AcDbRotatedDimension
  0
DIMENSION
  5
27EE
102
{ACAD_XDICTIONARY
360
27EF
102
}
102
{ACAD_REACTORS
330
27F0
102
}
330
1F
100
AcDbEntity
  8
寸法線
100
AcDbDimension
280
     0
  2
*D2
 10
34500.12906245074
 20
28839.20502077574
 30
0.0
 11
34529.42050174133
 21
28851.84912036646
 31
0.0
 70
    32
 71
     5
 42
24.80000000000291
 73
     0
 74
     0
 75
     0
  3
ISO-25
100
AcDbAlignedDimension
 13
34475.32906245074
 23
28776.35326060756
 33
0.0
 14
34500.12906245074
 24
28710.15326095658
 34
0.0
100
AcDbRotatedDimension
  0
MTEXT
  5
28DC
330
1F
100
AcDbEntity
  8
寸法線
100
AcDbMText
 10
34537.84377146101
 20
29379.8410956188
 30
0.0
 40
9.599999999999999
 41
181.3710989523388
 46
0.0
 71
     1
 72
     5
  1
{\fMS PGothic|b0|i0|c128|p50;電源装置用取付金具}
 73
     1
 44
1.0
1001
ACAD
1000
ACAD_MTEXT_COLUMN_INFO_BEGIN
1070
    75
1070
     2
1070
    79
1070
     0
1070
    76
1070
     1
1070
    78
1070
     0
1070
    48
1040
181.3710989523388
1070
    49
1040
12.5
1070
    50
1070
     1
1040
0.0
1000
ACAD_MTEXT_COLUMN_INFO_END
  0
MTEXT
  5
28DD
330
1F
100
AcDbEntity
  8
寸法線
100
AcDbMText
 10
34538.2027070507
 20
29341.63842173578
 30
0.0
 40
9.599999999999999
 41
199.244644231323
 46
0.0
 71
     1
 72
     5
  1
{\fMS PGothic|b0|i0|c128|p50;端子台用取付金具}
 73
     1
 44
1.0
1001
ACAD
1000
ACAD_MTEXT_COLUMN_INFO_BEGIN
1070
    75
1070
     2
1070
    79
1070
     0
1070
    76
1070
     1
1070
    78
1070
     0
1070
    48
1040
199.244644231323
1070
    49
1040
12.5
1070
    50
1070
     1
1040
0.0
1000
ACAD_MTEXT_COLUMN_INFO_END
  0
MTEXT
  5
28DE
330
1F
100
AcDbEntity
  8
寸法線
100
AcDbMText
 10
34537.84377146101
 20
29303.86463036117
 30
0.0
 40
9.599999999999999
 41
181.3710989523388
 46
0.0
 71
     1
 72
     5
  1
{\fMS PGothic|b0|i0|c128|p50;専用電源装置}
 73
     1
 44
1.0
1001
ACAD
1000
ACAD_MTEXT_COLUMN_INFO_BEGIN
1070
    75
1070
     2
1070
    79
1070
     0
1070
    76
1070
     1
1070
    78
1070
     0
1070
    48
1040
181.3710989523388
1070
    49
1040
12.5
1070
    50
1070
     1
1040
0.0
1000
ACAD_MTEXT_COLUMN_INFO_END
  0
MTEXT
  5
28DF
330
1F
100
AcDbEntity
  8
寸法線
100
AcDbMText
 10
34835.42792230046
 20
29304.79358243453
 30
0.0
 40
6.4
 41
162.8281777420561
 46
0.0
 71
     1
 72
     5
  1
{\fMS PGothic|b0|i0|c128|p50;レシップ製定電流電源装置}\PK68-026C110-206
 73
     1
 44
1.0
1001
ACAD
1000
ACAD_MTEXT_COLUMN_INFO_BEGIN
1070
    75
1070
     2
1070
    79
1070
     0
1070
    76
1070
     1
1070
    78
1070
     0
1070
    48
1040
162.8281777420561
1070
    49
1040
12.5
1070
    50
1070
     1
1040
0.0
1000
ACAD_MTEXT_COLUMN_INFO_END
  0
MTEXT
  5
28E0
330
1F
100
AcDbEntity
  8
寸法線
100
AcDbMText
 10
34537.89778135643
 20
29268.71055933031
 30
0.0
 40
9.599999999999999
 41
199.244644231323
 46
0.0
 71
     1
 72
     5
  1
{\fMS PGothic|b0|i0|c128|p50;電源用　アース付端子台}
 73
     1
 44
1.0
1001
ACAD
1000
ACAD_MTEXT_COLUMN_INFO_BEGIN
1070
    75
1070
     2
1070
    79
1070
     0
1070
    76
1070
     1
1070
    78
1070
     0
1070
    48
1040
199.244644231323
1070
    49
1040
12.5
1070
    50
1070
     1
1040
0.0
1000
ACAD_MTEXT_COLUMN_INFO_END
  0
VIEWPORT
  5
318
102
{ACAD_XDICTIONARY
360
319
102
}
330
D2
100
AcDbEntity
 67
     1
  8
0
100
AcDbViewport
 10
205.0097503662109
 20
198.846392454756
 30
0.0
 40
511.3899719593863
 41
424.8889022343412
 68
     1
 69
     1
 12
205.0097503662109
 22
198.846392454756
 13
0.0
 23
0.0
 14
10.0
 24
10.0
 15
10.0
 25
10.0
 16
0.0
 26
0.0
 36
1.0
 17
0.0
 27
0.0
 37
0.0
 42
50.0
 43
0.0
 44
0.0
 45
424.8889022343412
 50
0.0
 51
0.0
 72
  1000
 90
   557088
  1

281
     0
 71
     1
 74
     0
110
0.0
120
0.0
130
0.0
111
1.0
121
0.0
131
0.0
112
0.0
122
1.0
132
0.0
 79
     0
146
0.0
170
     0
 61
     5
348
EC
292
     1
282
     1
141
0.0
142
0.0
 63
   250
421
  3355443
  0
VIEWPORT
  5
31C
102
{ACAD_XDICTIONARY
360
31D
102
}
330
D2
100
AcDbEntity
 67
     1
  8
外形線②
100
AcDbViewport
 10
128.5
 20
97.5
 30
0.0
 40
205.6
 41
156.0
 68
     2
 69
     2
 12
210.0
 22
148.5
 13
0.0
 23
0.0
 14
10.0
 24
10.0
 15
10.0
 25
10.0
 16
0.0
 26
0.0
 36
1.0
 17
0.0
 27
0.0
 37
0.0
 42
50.0
 43
0.0
 44
0.0
 45
321.3253284758076
 50
0.0
 51
0.0
 72
  1000
 90
   819808
  1

281
     0
 71
     1
 74
     0
110
0.0
120
0.0
130
0.0
111
1.0
121
0.0
131
0.0
112
0.0
122
1.0
132
0.0
 79
     0
146
0.0
170
     0
 61
     5
348
EC
292
     1
282
     1
141
0.0
142
0.0
 63
   250
421
  3355443
  0
ENDSEC
  0
SECTION
  2
OBJECTS
  0
DICTIONARY
  5
C
330
0
100
AcDbDictionary
281
     1
  3
ACAD_CIP_PREVIOUS_PRODUCT_INFO
350
20D
  3
ACAD_COLOR
350
79
  3
ACAD_DETAILVIEWSTYLE
350
212
  3
ACAD_GROUP
350
D
  3
ACAD_LAYOUT
350
1A
  3
ACAD_MATERIAL
350
78
  3
ACAD_MLEADERSTYLE
350
124
  3
ACAD_MLINESTYLE
350
17
  3
ACAD_PLOTSETTINGS
350
19
  3
ACAD_PLOTSTYLENAME
350
E
  3
ACAD_SCALELIST
350
103
  3
ACAD_SECTIONVIEWSTYLE
350
210
  3
ACAD_TABLESTYLE
350
97
  3
ACAD_VISUALSTYLE
350
E6
  3
ACDB_RECOMPOSE_DATA
350
28FA
  3
AcDbVariableDictionary
350
67
  0
DICTIONARY
  5
1F6
330
2
100
AcDbDictionary
280
     1
281
     1
  3
ACAD_LAYERSTATES
360
1F7
  0
DICTIONARY
  5
133
330
10
100
AcDbDictionary
280
     1
281
     1
  0
DICTIONARY
  5
CEB
330
CEA
100
AcDbDictionary
280
     1
281
     1
  0
DICTIONARY
  5
1C5
330
1F
100
AcDbDictionary
280
     1
281
     1
  3
ACAD_SORTENTS
360
35E
  0
DICTIONARY
  5
27B9
330
27B8
100
AcDbDictionary
280
     1
281
     1
  3
ACAD_DIMASSOC
360
27BA
  0
DICTIONARY
  5
27BC
330
27BB
100
AcDbDictionary
280
     1
281
     1
  3
ACAD_DIMASSOC
360
27BD
  0
DICTIONARY
  5
27BF
330
27BE
100
AcDbDictionary
280
     1
281
     1
  3
ACAD_DIMASSOC
360
27C0
  0
DICTIONARY
  5
27C2
330
27C1
100
AcDbDictionary
280
     1
281
     1
  3
ACAD_DIMASSOC
360
27C3
  0
DICTIONARY
  5
27C5
330
27C4
100
AcDbDictionary
280
     1
281
     1
  3
ACAD_DIMASSOC
360
27C6
  0
DICTIONARY
  5
27E9
330
27E8
100
AcDbDictionary
280
     1
281
     1
  3
ACAD_DIMASSOC
360
27EA
  0
DICTIONARY
  5
27EC
330
27EB
100
AcDbDictionary
280
     1
281
     1
  3
ACAD_DIMASSOC
360
27ED
  0
DICTIONARY
  5
27EF
330
27EE
100
AcDbDictionary
280
     1
281
     1
  3
ACAD_DIMASSOC
360
27F0
  0
DICTIONARY
  5
319
330
318
100
AcDbDictionary
280
     1
281
     1
  3
ASDK_XREC_ANNOTATION_SCALE_INFO
360
31A
  0
DICTIONARY
  5
31D
330
31C
100
AcDbDictionary
280
     1
281
     1
  3
ASDK_XREC_ANNOTATION_SCALE_INFO
360
31E
  0
XRECORD
  5
20D
102
{ACAD_REACTORS
330
C
102
}
330
C
100
AcDbXrecord
280
     1
300
ACDLT
300
2016
300
ACDLT_F_S
  0
DICTIONARY
  5
79
102
{ACAD_REACTORS
330
C
102
}
330
C
100
AcDbDictionary
281
     1
  0
DICTIONARY
  5
212
102
{ACAD_REACTORS
330
C
102
}
330
C
100
AcDbDictionary
281
     1
  3
Metric50
350
213
  0
DICTIONARY
  5
D
102
{ACAD_REACTORS
330
C
102
}
330
C
100
AcDbDictionary
281
     1
  0
DICTIONARY
  5
1A
102
{ACAD_REACTORS
330
C
102
}
330
C
100
AcDbDictionary
281
     1
  3
Model
350
22
  3
レイアウト1
350
D3
  3
レイアウト2
350
D7
  0
DICTIONARY
  5
78
102
{ACAD_REACTORS
330
C
102
}
330
C
100
AcDbDictionary
281
     1
  3
ByBlock
350
E4
  3
ByLayer
350
E3
  3
Global
350
E5
  0
DICTIONARY
  5
124
102
{ACAD_REACTORS
330
C
102
}
330
C
100
AcDbDictionary
281
     1
  3
Annotative
350
132
  3
Standard
350
125
  0
DICTIONARY
  5
17
102
{ACAD_REACTORS
330
C
102
}
330
C
100
AcDbDictionary
281
     1
  3
Standard
350
18
  0
DICTIONARY
  5
19
102
{ACAD_REACTORS
330
C
102
}
330
C
100
AcDbDictionary
281
     1
  0
ACDBDICTIONARYWDFLT
  5
E
102
{ACAD_REACTORS
330
C
102
}
330
C
100
AcDbDictionary
281
     1
  3
Normal
350
F
100
AcDbDictionaryWithDefault
340
F
  0
DICTIONARY
  5
103
102
{ACAD_REACTORS
330
C
102
}
330
C
100
AcDbDictionary
281
     1
  3
A0
350
104
  3
A1
350
1B5
  3
A2
350
1B6
  3
A3
350
1B7
  3
A4
350
1B8
  3
A5
350
1B9
  3
A6
350
1BA
  3
A7
350
1BB
  3
A8
350
1BC
  3
A9
350
1BD
  3
B0
350
1BE
  3
B1
350
1BF
  3
B2
350
1C0
  3
B3
350
1C1
  3
B4
350
1C2
  3
B5
350
1C3
  3
B6
350
1C4
  0
DICTIONARY
  5
210
102
{ACAD_REACTORS
330
C
102
}
330
C
100
AcDbDictionary
281
     1
  3
Metric50
350
211
  0
DICTIONARY
  5
97
102
{ACAD_REACTORS
330
C
102
}
330
C
100
AcDbDictionary
281
     1
  3
Standard
350
98
  0
DICTIONARY
  5
E6
102
{ACAD_REACTORS
330
C
102
}
330
C
100
AcDbDictionary
281
     1
  3
2dWireframe
350
EC
  3
Basic
350
EB
  3
Brighten
350
F2
  3
ColorChange
350
F6
  3
Conceptual
350
EF
  3
Dim
350
F1
  3
EdgeColorOff
350
1DD
  3
Facepattern
350
F5
  3
Flat
350
E7
  3
FlatWithEdges
350
E8
  3
Gouraud
350
E9
  3
GouraudWithEdges
350
EA
  3
Hidden
350
EE
  3
JitterOff
350
1DB
  3
Linepattern
350
F4
  3
OverhangOff
350
1DC
  3
Realistic
350
F0
  3
Shaded
350
1EA
  3
Shaded with edges
350
1E9
  3
Shades of Gray
350
1E6
  3
Sketchy
350
1E7
  3
Thicken
350
F3
  3
Wireframe
350
ED
  3
X-Ray
350
1E8
  0
XRECORD
  5
28FA
102
{ACAD_REACTORS
330
C
102
}
330
C
100
AcDbXrecord
280
     1
 90
        1
330
98
330
211
330
213
330
B52
330
B53
330
B54
330
B55
330
B56
330
B57
330
B58
330
B59
330
B5A
330
B5B
330
B5C
330
B5D
330
B5E
330
B5F
330
B60
330
B61
330
B62
330
B63
330
B66
330
B67
330
B68
330
B69
330
B6A
330
B6B
330
B6C
330
B6D
330
B6E
330
B6F
330
B70
330
B7B
330
B7C
330
B7D
330
B7E
330
B7F
330
B80
330
B81
330
B82
330
B83
330
B84
330
13B3
330
13B4
330
2795
330
2799
330
279D
330
27A1
330
27A5
330
27A9
330
27AD
330
27B1
330
27B3
330
28DC
330
28DD
330
28DE
330
28DF
330
28E0
  0
DICTIONARY
  5
67
102
{ACAD_REACTORS
330
C
102
}
330
C
100
AcDbDictionary
281
     1
  3
CANNOSCALE
350
13D
  3
CMLEADERSTYLE
350
13C
  3
CTABLESTYLE
350
C5
  3
CVIEWDETAILSTYLE
350
21E
  3
CVIEWSECTIONSTYLE
350
21F
  3
DIMASSOC
350
68
  3
EXPORTMODELSPACE
350
DA8
  3
HIDETEXT
350
6C
  3
LAYEREVAL
350
1A5
  3
LAYERNOTIFY
350
1A6
  0
DICTIONARY
  5
1F7
102
{ACAD_REACTORS
330
1F6
102
}
330
1F6
100
AcDbDictionary
281
     1
  0
SORTENTSTABLE
  5
35E
102
{ACAD_REACTORS
330
1C5
102
}
330
1C5
100
AcDbSortentsTable
330
1F
331
D4D
  5
D8D
331
B7E
  5
D5C
331
B43
  5
C24
331
D7A
  5
F9B
331
D82
  5
FA3
331
D8A
  5
FAB
331
B4F
  5
C36
331
D53
  5
D93
331
D92
  5
11F3
331
23A8
  5
9B3
331
B57
  5
C3E
331
D9A
  5
11FB
331
B5F
  5
C49
331
B24
  5
B79
331
D5B
  5
D9B
331
B67
  5
C6E
331
B2C
  5
B81
331
D63
  5
F84
331
2418
  5
95F
331
1759
  5
9A8
331
D6B
  5
F8C
331
B34
  5
B89
331
B6F
  5
D4C
331
D73
  5
F94
331
B77
  5
D54
331
B3C
  5
C1D
331
B44
  5
C25
331
D4E
  5
D8E
331
B7F
  5
D5D
331
9C5
  5
833
331
D7B
  5
F9C
331
B87
  5
D66
331
D83
  5
FA4
331
D8B
  5
FAC
331
B48
  5
C29
331
B50
  5
C37
331
129A
  5
9AD
331
D54
  5
D94
331
D93
  5
11F4
331
C17
  5
9B7
331
B58
  5
C42
331
D9B
  5
11FC
331
B60
  5
C4A
331
B25
  5
B7A
331
D5C
  5
D9C
331
C27
  5
9BC
331
B2D
  5
B82
331
D64
  5
F85
331
2419
  5
960
331
D6C
  5
F8D
331
B68
  5
C86
331
B70
  5
D4D
331
B35
  5
B8A
331
D74
  5
F95
331
17D2
  5
961
331
B3D
  5
C1E
331
B78
  5
D56
331
9A6
  5
9B6
331
1123
  5
9A1
331
D4F
  5
D8F
331
B80
  5
D5E
331
B45
  5
C26
331
D7C
  5
F9D
331
D84
  5
FA5
331
D8C
  5
FAD
331
B88
  5
D67
331
B49
  5
C2A
331
B51
  5
C38
331
129B
  5
9A2
331
D55
  5
D95
331
D94
  5
11F5
331
23AA
  5
95D
331
C18
  5
B21
331
B59
  5
C43
331
13B3
  5
15DC
331
D9C
  5
11FD
331
B61
  5
C4B
331
B26
  5
B7B
331
D5D
  5
F7E
331
B2E
  5
B83
331
D65
  5
F86
331
D6D
  5
F8E
331
B69
  5
CA0
331
B71
  5
D4E
331
B36
  5
C17
331
D75
  5
F96
331
17D3
  5
9A6
331
B3E
  5
C1F
331
B79
  5
D57
331
9A7
  5
9B5
331
B81
  5
D60
331
B46
  5
C27
331
D7D
  5
F9E
331
1813
  5
9A9
331
D85
  5
FA6
331
D8D
  5
FAE
331
B89
  5
D68
331
B4A
  5
C2B
331
B52
  5
C39
331
D56
  5
D96
331
D95
  5
11F6
331
23AB
  5
90F
331
B5A
  5
C44
331
B1F
  5
B74
331
13B4
  5
15DD
331
B62
  5
C4C
331
B27
  5
B7C
331
D5E
  5
F7F
331
B2F
  5
B84
331
D66
  5
F87
331
D6E
  5
F8F
331
B6A
  5
CBA
331
B37
  5
C18
331
B72
  5
D4F
331
9A0
  5
B25
331
D76
  5
F97
331
17D4
  5
9A4
331
D49
  5
D89
331
B7A
  5
D58
331
B3F
  5
C20
331
B82
  5
D61
331
B47
  5
C28
331
D7E
  5
F9F
331
1814
  5
95B
331
D86
  5
FA7
331
D8E
  5
FAF
331
B4B
  5
C2F
331
B8A
  5
D69
331
B53
  5
C3A
331
D57
  5
D97
331
D96
  5
11F7
331
23AC
  5
955
331
B5B
  5
C45
331
B20
  5
B75
331
23B4
  5
9B0
331
C22
  5
9BA
331
B63
  5
C4D
331
B28
  5
B7D
331
D5F
  5
F80
331
1755
  5
9A3
331
D67
  5
F88
331
D6F
  5
F90
331
B30
  5
B85
331
C42
  5
B20
331
B6B
  5
CD2
331
B38
  5
C19
331
B73
  5
D50
331
9A1
  5
B24
331
D77
  5
F98
331
D4A
  5
D8A
331
B7B
  5
D59
331
B40
  5
C21
331
17DD
  5
9AC
331
1126
  5
9B1
331
B83
  5
D62
331
D7F
  5
FA0
331
D87
  5
FA8
331
D8F
  5
FB0
331
B4C
  5
C33
331
D50
  5
D90
331
B54
  5
C3B
331
D97
  5
11F8
331
23AD
  5
95A
331
B5C
  5
C46
331
B21
  5
B76
331
D58
  5
D98
331
C23
  5
9BB
331
B64
  5
C4E
331
B29
  5
B7E
331
D60
  5
F81
331
D68
  5
F89
331
B31
  5
B86
331
C43
  5
9BE
331
B6C
  5
D49
331
D70
  5
F91
331
B39
  5
C1A
331
B74
  5
D51
331
9A2
  5
B23
331
D4B
  5
D8B
331
B7C
  5
D5A
331
B41
  5
C22
331
D78
  5
F99
331
17DE
  5
963
331
B84
  5
D63
331
D80
  5
FA1
331
D88
  5
FA9
331
23A6
  5
95C
331
B4D
  5
C34
331
D51
  5
D91
331
D90
  5
FB1
331
B55
  5
C3C
331
D98
  5
11F9
331
23AE
  5
9AB
331
B5D
  5
C47
331
B22
  5
B77
331
D59
  5
D99
331
C24
  5
9B8
331
B65
  5
C4F
331
B2A
  5
B7F
331
D61
  5
F82
331
1757
  5
99F
331
D69
  5
F8A
331
B32
  5
B87
331
873
  5
9B4
331
C44
  5
9BD
331
B6D
  5
D4A
331
D71
  5
F92
331
B3A
  5
C1B
331
B75
  5
D52
331
9A3
  5
B22
331
17D7
  5
906
331
D4C
  5
D8C
331
B7D
  5
D5B
331
B42
  5
C23
331
D79
  5
F9A
331
17DF
  5
99B
331
1230
  5
9AA
331
D81
  5
FA2
331
D89
  5
FAA
331
23A7
  5
9B2
331
B4E
  5
C35
331
D52
  5
D92
331
D91
  5
FB2
331
B56
  5
C3D
331
D99
  5
11FA
331
B5E
  5
C48
331
B23
  5
B78
331
D5A
  5
D9A
331
B2B
  5
B80
331
C25
  5
9B9
331
B66
  5
C54
331
7E4
  5
9A0
331
D62
  5
F83
331
D6A
  5
F8B
331
B33
  5
B88
331
B6E
  5
D4B
331
D72
  5
F93
331
17D0
  5
9A5
331
B76
  5
D53
331
B3B
  5
C1C
  0
DIMASSOC
  5
27BA
102
{ACAD_REACTORS
330
27B9
102
}
330
27B9
100
AcDbDimAssoc
330
27B8
 90
        1
 70
     0
 71
     0
  1
AcDbOsnapPointRef
 72
     2
331
2554
 73
     2
 91
        0
 40
0.5000000000000001
 10
33560.62178851967
 20
28090.11527306976
 30
0.0
 75
     0
  0
DIMASSOC
  5
27BD
102
{ACAD_REACTORS
330
27BC
102
}
330
27BC
100
AcDbDimAssoc
330
27BB
 90
        3
 70
     0
 71
     0
  1
AcDbOsnapPointRef
 72
     1
331
267B
 73
     2
 91
        0
 40
1.0
 10
34432.62178851966
 20
27798.19632341182
 30
0.0
 75
     0
  1
AcDbOsnapPointRef
 72
     6
331
26D1
 73
     2
 91
        0
 40
6.0
 10
34432.6217885197
 20
27703.19632341182
 30
0.0
332
252B
 74
     2
 92
        0
 75
     0
  0
DIMASSOC
  5
27C0
102
{ACAD_REACTORS
330
27BF
102
}
330
27BF
100
AcDbDimAssoc
330
27BE
 90
        3
 70
     0
 71
     0
  1
AcDbOsnapPointRef
 72
     6
331
2678
 73
     2
 91
        0
 40
0.548611106735285
 10
34432.62178851966
 20
27781.94632341183
 30
0.0
332
2510
 74
     2
 92
        0
 75
     0
  1
AcDbOsnapPointRef
 72
    13
331
252C
 73
     2
 91
        0
 40
0.0
 10
34432.62178851967
 20
27703.19632341182
 30
0.0
 75
     0
  0
DIMASSOC
  5
27C3
102
{ACAD_REACTORS
330
27C2
102
}
330
27C2
100
AcDbDimAssoc
330
27C1
 90
        3
 70
     0
 71
     0
  1
AcDbOsnapPointRef
 72
    13
331
252C
 73
     2
 91
        0
 40
0.0
 10
34432.62178851967
 20
27703.19632341182
 30
0.0
 75
     0
  1
AcDbOsnapPointRef
 72
    13
331
253D
 73
     2
 91
        0
 40
4.712388980384689
 10
34393.62178851967
 20
27699.19632341182
 30
0.0
 75
     0
  0
DIMASSOC
  5
27C6
102
{ACAD_REACTORS
330
27C5
102
}
330
27C5
100
AcDbDimAssoc
330
27C4
 90
        3
 70
     0
 71
     0
  1
AcDbOsnapPointRef
 72
    13
331
266A
 73
     2
 91
        0
 40
0.0
 10
34606.12178728863
 20
27699.19632376085
 30
0.0
 75
     0
  1
AcDbOsnapPointRef
 72
     2
331
2692
 73
     2
 91
        0
 40
7.853981633974482
 10
34614.37178728863
 20
27798.19632341184
 30
0.0
 75
     0
  0
DIMASSOC
  5
27EA
102
{ACAD_REACTORS
330
27E9
102
}
330
27E9
100
AcDbDimAssoc
330
27E8
 90
        3
 70
     0
 71
     0
  1
AcDbOsnapPointRef
 72
    13
331
27CB
 73
     2
 91
        0
 40
0.0
 10
34594.17178728863
 20
27734.99632376084
 30
0.0
 75
     0
  1
AcDbOsnapPointRef
 72
     1
331
27CD
 73
     2
 91
        0
 40
1.0
 10
34639.17178728863
 20
27734.99632376084
 30
0.0
 75
     0
  0
DIMASSOC
  5
27ED
102
{ACAD_REACTORS
330
27EC
102
}
330
27EC
100
AcDbDimAssoc
330
27EB
 90
        3
 70
     0
 71
     0
  1
AcDbOsnapPointRef
 72
    13
331
2715
 73
     2
 91
        0
 40
0.0
 10
34614.37178728863
 20
27801.19632341183
 30
0.0
 75
     0
  1
AcDbOsnapPointRef
 72
    13
331
27CB
 73
     2
 91
        0
 40
0.0
 10
34594.17178728863
 20
27734.99632376084
 30
0.0
 75
     0
  0
DIMASSOC
  5
27F0
102
{ACAD_REACTORS
330
27EF
102
}
330
27EF
100
AcDbDimAssoc
330
27EE
 90
        3
 70
     0
 71
     0
  1
AcDbOsnapPointRef
 72
    13
331
2715
 73
     2
 91
        0
 40
0.0
 10
34614.37178728863
 20
27801.19632341183
 30
0.0
 75
     0
  1
AcDbOsnapPointRef
 72
     1
331
27CD
 73
     2
 91
        0
 40
1.0
 10
34639.17178728863
 20
27734.99632376084
 30
0.0
 75
     0
  0
XRECORD
  5
31A
102
{ACAD_REACTORS
330
319
102
}
330
319
100
AcDbXrecord
280
     1
 90
        1
340
104
  0
XRECORD
  5
31E
102
{ACAD_REACTORS
330
31D
102
}
330
31D
100
AcDbXrecord
280
     1
 90
        1
340
104
  0
ACDBDETAILVIEWSTYLE
  5
213
102
{ACAD_XDICTIONARY
360
22D
102
}
102
{ACAD_REACTORS
330
212
102
}
330
212
100
AcDbModelDocViewStyle
 70
     0
  3
Metric50
290
     0
100
AcDbDetailViewStyle
 70
     0
 71
     0
 90
        3
 71
     1
340
11
 62
   256
 40
5.0
340
0
 62
   256
 40
5.0
300

 40
0.0
280
     1
 71
     2
340
16
 90
       25
 62
   256
 71
     3
340
11
 62
   256
 40
5.0
 90
        0
 40
15.0
 90
        1
300
%<\AcVar ViewDetailId>% (%<\AcVar ViewScale \f "%sn">%)
 71
     4
340
16
 90
       25
 62
   256
340
16
 90
       25
 62
   256
280
     0
  0
LAYOUT
  5
22
102
{ACAD_XDICTIONARY
360
1FC
102
}
102
{ACAD_REACTORS
330
1A
102
}
330
1A
100
AcDbPlotSettings
  1

  2
Kyocera TASKalfa 3252ci(J) KX
  4
A3
  6

 40
4.984749794006347
 41
5.111724853515625
 42
5.154083251953125
 43
4.9847412109375
 44
297.0106506347656
 45
419.9889831542968
 46
0.0
 47
0.0
 48
0.0
 49
0.0
140
0.0
141
0.0
142
1.0
143
9.806410578662045
 70
 11952
 72
     1
 73
     1
 74
     0
  7
monochrome.stb
 75
     0
147
0.1019741109122964
 76
     0
 77
     2
 78
   300
148
-32876.12478992212
149
-27320.92452532269
100
AcDbLayout
  1
Model
 70
     1
 71
     0
 10
0.0
 20
0.0
 11
12.0
 21
9.0
 12
0.0
 22
0.0
 32
0.0
 14
0.0
 24
0.0
 34
0.0
 15
0.0
 25
0.0
 35
0.0
146
0.0
 13
0.0
 23
0.0
 33
0.0
 16
1.0
 26
0.0
 36
0.0
 17
0.0
 27
1.0
 37
0.0
 76
     0
330
1F
331
E1
1001
ACAD_PSEXT
1000
Kyocera TASKalfa 3252ci(J) KX
1000
Kyocera TASKalfa 3252ci(J) KX
1000
192.168.11.123
1000

1070
     0
  0
LAYOUT
  5
D3
102
{ACAD_REACTORS
330
1A
102
}
330
1A
100
AcDbPlotSettings
  1

  2
Kyocera TASKalfa 3050ci(J) KX
  4
A3
  6

 40
4.984749794006347
 41
5.111724853515625
 42
5.154083251953125
 43
4.9847412109375
 44
297.0106506347656
 45
419.9889831542968
 46
0.0
 47
0.0
 48
0.0
 49
0.0
140
0.0
141
0.0
142
1.0
143
1.0
 70
   688
 72
     1
 73
     1
 74
     5
  7
monochrome.stb
 75
    16
147
1.0
 76
     0
 77
     2
 78
   300
148
0.0
149
0.0
100
AcDbLayout
  1
レイアウト1
 70
     1
 71
     1
 10
-4.9847412109375
 20
-4.984749794006347
 11
415.0042419433593
 21
292.0259008407593
 12
0.0
 22
0.0
 32
0.0
 14
25.69999999999999
 24
19.5
 34
0.0
 15
231.3
 25
175.5
 35
0.0
146
0.0
 13
0.0
 23
0.0
 33
0.0
 16
1.0
 26
0.0
 36
0.0
 17
0.0
 27
1.0
 37
0.0
 76
     0
330
D2
331
318
1001
ACAD_PSEXT
1000
Kyocera TASKalfa 3050ci(J) KX
1000
Kyocera TASKalfa 3050ci(J) KX
1000
192.168.11.123
1000

1070
     0
  0
LAYOUT
  5
D7
102
{ACAD_REACTORS
330
1A
102
}
330
1A
100
AcDbPlotSettings
  1

  2
C:\Documents and Settings\basas\Application Data\Autodesk\AutoCAD 2005\R16.1\enu\plotters\Default Windows System Printer.pc3
  4

  6

 40
0.0
 41
0.0
 42
0.0
 43
0.0
 44
0.0
 45
0.0
 46
0.0
 47
0.0
 48
0.0
 49
0.0
140
0.0
141
0.0
142
1.0
143
1.0
 70
   688
 72
     0
 73
     0
 74
     5
  7
monochrome.stb
 75
    16
147
1.0
 76
     0
 77
     2
 78
   300
148
0.0
149
0.0
100
AcDbLayout
  1
レイアウト2
 70
     1
 71
     2
 10
0.0
 20
0.0
 11
12.0
 21
9.0
 12
0.0
 22
0.0
 32
0.0
 14
0.0
 24
0.0
 34
0.0
 15
0.0
 25
0.0
 35
0.0
146
0.0
 13
0.0
 23
0.0
 33
0.0
 16
1.0
 26
0.0
 36
0.0
 17
0.0
 27
1.0
 37
0.0
 76
     0
330
D6
  0
MATERIAL
  5
E4
102
{ACAD_XDICTIONARY
360
1F0
102
}
102
{ACAD_REACTORS
330
78
102
}
330
78
100
AcDbMaterial
  1
ByBlock
 94
       63
  0
MATERIAL
  5
E3
102
{ACAD_XDICTIONARY
360
1EE
102
}
102
{ACAD_REACTORS
330
78
102
}
330
78
100
AcDbMaterial
  1
ByLayer
 94
       63
  0
MATERIAL
  5
E5
102
{ACAD_XDICTIONARY
360
16A
102
}
102
{ACAD_REACTORS
330
78
102
}
330
78
100
AcDbMaterial
  1
Global
 43
0.0007999999797903
 43
0.0
 43
0.0
 43
0.0
 43
0.0
 43
0.0007999999797903
 43
0.0
 43
0.0
 43
0.0
 43
0.0
 43
1.0
 43
0.0
 43
0.0
 43
0.0
 43
0.0
 43
1.0
 49
0.0007999999797903
 49
0.0
 49
0.0
 49
0.0
 49
0.0
 49
0.0007999999797903
 49
0.0
 49
0.0
 49
0.0
 49
0.0
 49
1.0
 49
0.0
 49
0.0
 49
0.0
 49
0.0
 49
1.0
142
0.0007999999797903
142
0.0
142
0.0
142
0.0
142
0.0
142
0.0007999999797903
142
0.0
142
0.0
142
0.0
142
0.0
142
1.0
142
0.0
142
0.0
142
0.0
142
0.0
142
1.0
144
0.0007999999797903
144
0.0
144
0.0
144
0.0
144
0.0
144
0.0007999999797903
144
0.0
144
0.0
144
0.0
144
0.0
144
1.0
144
0.0
144
0.0
144
0.0
144
0.0
144
1.0
 94
       63
1001
ACAD
1070
    -1
1070
     3
1070
     0
1000

1071
        0
1070
     0
  0
MLEADERSTYLE
  5
132
102
{ACAD_REACTORS
330
124
102
}
330
124
100
AcDbMLeaderStyle
179
     2
170
     2
171
     1
172
     0
 90
        2
 40
0.0
 41
0.0
173
     1
 91
-1056964608
340
14
 92
       -2
290
     1
 42
2.0
291
     1
 43
8.0
  3
Standard
 44
4.0
300

342
11
174
     1
178
     1
175
     1
176
     0
 93
-1056964608
 45
4.0
292
     0
297
     0
 46
4.0
 94
-1056964608
 47
1.0
 49
1.0
140
1.0
293
     1
141
0.0
294
     1
177
     0
142
1.0
295
     0
296
     1
143
3.75
271
     0
272
     9
273
     9
298
     0
  0
MLEADERSTYLE
  5
125
102
{ACAD_REACTORS
330
124
102
}
330
124
100
AcDbMLeaderStyle
179
     2
170
     2
171
     1
172
     0
 90
        2
 40
0.0
 41
0.0
173
     1
 91
-1056964608
340
14
 92
       -2
290
     1
 42
2.0
291
     1
 43
8.0
  3
Standard
 44
4.0
300

342
11
174
     1
178
     1
175
     1
176
     0
 93
-1056964608
 45
4.0
292
     0
297
     0
 46
4.0
 94
-1056964608
 47
1.0
 49
1.0
140
1.0
293
     1
141
0.0
294
     1
177
     0
142
1.0
295
     0
296
     0
143
3.75
271
     0
272
     9
273
     9
298
     0
  0
MLINESTYLE
  5
18
102
{ACAD_REACTORS
330
17
102
}
330
17
100
AcDbMlineStyle
  2
STANDARD
 70
     0
  3

 62
   256
 51
90.0
 52
90.0
 71
     2
 49
0.5
 62
   256
  6
BYLAYER
 49
-0.5
 62
   256
  6
BYLAYER
  0
ACDBPLACEHOLDER
  5
F
102
{ACAD_REACTORS
330
E
102
}
330
E
  0
SCALE
  5
104
102
{ACAD_REACTORS
330
103
102
}
330
103
100
AcDbScale
 70
     0
300
1:1
140
1.0
141
1.0
290
     1
  0
SCALE
  5
1B5
102
{ACAD_REACTORS
330
103
102
}
330
103
100
AcDbScale
 70
     0
300
1:2
140
1.0
141
2.0
290
     0
  0
SCALE
  5
1B6
102
{ACAD_REACTORS
330
103
102
}
330
103
100
AcDbScale
 70
     0
300
1:4
140
1.0
141
4.0
290
     0
  0
SCALE
  5
1B7
102
{ACAD_REACTORS
330
103
102
}
330
103
100
AcDbScale
 70
     0
300
1:5
140
1.0
141
5.0
290
     0
  0
SCALE
  5
1B8
102
{ACAD_REACTORS
330
103
102
}
330
103
100
AcDbScale
 70
     0
300
1:8
140
1.0
141
8.0
290
     0
  0
SCALE
  5
1B9
102
{ACAD_REACTORS
330
103
102
}
330
103
100
AcDbScale
 70
     0
300
1:10
140
1.0
141
10.0
290
     0
  0
SCALE
  5
1BA
102
{ACAD_REACTORS
330
103
102
}
330
103
100
AcDbScale
 70
     0
300
1:16
140
1.0
141
16.0
290
     0
  0
SCALE
  5
1BB
102
{ACAD_REACTORS
330
103
102
}
330
103
100
AcDbScale
 70
     0
300
1:20
140
1.0
141
20.0
290
     0
  0
SCALE
  5
1BC
102
{ACAD_REACTORS
330
103
102
}
330
103
100
AcDbScale
 70
     0
300
1:30
140
1.0
141
30.0
290
     0
  0
SCALE
  5
1BD
102
{ACAD_REACTORS
330
103
102
}
330
103
100
AcDbScale
 70
     0
300
1:40
140
1.0
141
40.0
290
     0
  0
SCALE
  5
1BE
102
{ACAD_REACTORS
330
103
102
}
330
103
100
AcDbScale
 70
     0
300
1:50
140
1.0
141
50.0
290
     0
  0
SCALE
  5
1BF
102
{ACAD_REACTORS
330
103
102
}
330
103
100
AcDbScale
 70
     0
300
1:100
140
1.0
141
100.0
290
     0
  0
SCALE
  5
1C0
102
{ACAD_REACTORS
330
103
102
}
330
103
100
AcDbScale
 70
     0
300
2:1
140
2.0
141
1.0
290
     0
  0
SCALE
  5
1C1
102
{ACAD_REACTORS
330
103
102
}
330
103
100
AcDbScale
 70
     0
300
4:1
140
4.0
141
1.0
290
     0
  0
SCALE
  5
1C2
102
{ACAD_REACTORS
330
103
102
}
330
103
100
AcDbScale
 70
     0
300
8:1
140
8.0
141
1.0
290
     0
  0
SCALE
  5
1C3
102
{ACAD_REACTORS
330
103
102
}
330
103
100
AcDbScale
 70
     0
300
10:1
140
10.0
141
1.0
290
     0
  0
SCALE
  5
1C4
102
{ACAD_REACTORS
330
103
102
}
330
103
100
AcDbScale
 70
     0
300
100:1
140
100.0
141
1.0
290
     0
  0
ACDBSECTIONVIEWSTYLE
  5
211
102
{ACAD_XDICTIONARY
360
22B
102
}
102
{ACAD_REACTORS
330
210
102
}
330
210
100
AcDbModelDocViewStyle
 70
     0
  3
Metric50
290
     0
100
AcDbSectionViewStyle
 70
     0
 71
     0
 90
      102
 71
     1
340
11
 62
   256
 40
5.0
340
0
340
0
 62
   256
 40
5.0
300
I, O, Q, S, X, Z
 40
10.0
 90
        0
 40
2.5
 90
        0
 71
     2
340
16
 90
       25
 62
   256
340
16
 90
       50
 62
   256
 40
5.0
 40
2.5
 40
5.0
 71
     3
340
11
 62
   256
 40
5.0
 90
        0
 40
15.0
 90
        1
300
%<\AcVar ViewSectionStartId>%-%<\AcVar ViewSectionEndId>% (%<\AcVar ViewScale \f "%sn">%)
 71
     4
 62
   256
 62
   257
300
ANSI31
 40
1.0
 90
        0
290
     0
290
     0
 90
        6
 40
0.0
 40
1.570796326794896
 40
0.2617993877991494
 40
1.308996938995747
 40
-0.2617993877991494
 40
1.832595714594046
  0
TABLESTYLE
  5
98
102
{ACAD_XDICTIONARY
360
159
102
}
102
{ACAD_REACTORS
330
97
102
}
330
97
100
AcDbTableStyle
280
     0
  3
Standard
 70
     0
 71
     0
 40
1.5
 41
1.5
280
     0
281
     0
  7
Standard
140
4.5
170
     2
 62
     0
 63
     7
283
     0
 90
      512
 91
        0
  1

274
    -2
284
     1
 64
     0
275
    -2
285
     1
 65
     0
276
    -2
286
     1
 66
     0
277
    -2
287
     1
 67
     0
278
    -2
288
     1
 68
     0
279
    -2
289
     1
 69
     0
  7
Standard
140
6.0
170
     5
 62
     0
 63
     7
283
     0
 90
      512
 91
        0
  1

274
    -2
284
     1
 64
     0
275
    -2
285
     1
 65
     0
276
    -2
286
     1
 66
     0
277
    -2
287
     1
 67
     0
278
    -2
288
     1
 68
     0
279
    -2
289
     1
 69
     0
  7
Standard
140
4.5
170
     5
 62
     0
 63
     7
283
     0
 90
      512
 91
        0
  1

274
    -2
284
     1
 64
     0
275
    -2
285
     1
 65
     0
276
    -2
286
     1
 66
     0
277
    -2
287
     1
 67
     0
278
    -2
288
     1
 68
     0
279
    -2
289
     1
 69
     0
  0
VISUALSTYLE
  5
EC
102
{ACAD_REACTORS
330
E6
102
}
330
E6
100
AcDbVisualStyle
  2
2dWireframe
 70
     4
177
     3
291
     0
 70
    58
 90
        0
176
     1
 90
        2
176
     1
 90
        1
176
     1
 90
        0
176
     1
 40
0.6
176
     1
 40
30.0
176
     1
 62
     7
420
 16777215
176
     1
 90
        1
176
     1
 90
        4
176
     1
 62
     7
176
     1
 62
   257
176
     1
 90
        1
176
     1
 90
        1
176
     1
 40
1.0
176
     1
 90
        0
176
     1
 62
   257
176
     1
 40
1.0
176
     1
 90
        1
176
     1
 90
        6
176
     1
 90
        2
176
     1
 62
     7
176
     1
 90
        5
176
     1
 90
        0
176
     1
 90
        0
176
     1
290
     0
176
     1
 90
        1
176
     1
 40
0.0
176
     1
 90
        0
176
     1
290
     1
176
     1
290
     1
176
     1
290
     0
176
     1
290
     0
176
     1
290
     0
176
     1
290
     0
176
     1
290
     0
176
     1
290
     0
176
     1
290
     0
176
     1
 90
       50
176
     1
 40
0.0
176
     1
 40
1.0
176
     1
 90
        0
176
     1
 62
    18
420
        0
176
     1
 90
       50
176
     1
 90
        3
176
     1
 62
     5
420
      255
176
     1
290
     0
176
     1
 90
       50
176
     1
 90
       50
176
     1
 90
       50
176
     1
290
     0
176
     1
 90
       50
176
     1
 62
   256
176
     0
 40
1.0
176
     0
 90
        2
176
     1
  1
strokes_ogs.tif
176
     1
290
     0
176
     1
 40
1.0
176
     1
 40
1.0
176
     1
  0
VISUALSTYLE
  5
EB
102
{ACAD_REACTORS
330
E6
102
}
330
E6
100
AcDbVisualStyle
  2
Basic
 70
     7
177
     3
291
     1
 70
    58
 90
        1
176
     1
 90
        0
176
     1
 90
        1
176
     1
 90
        0
176
     1
 40
0.6
176
     1
 40
30.0
176
     1
 62
     7
420
 16777215
176
     1
 90
        0
176
     1
 90
        4
176
     1
 62
     7
176
     1
 62
   257
176
     1
 90
        1
176
     1
 90
        1
176
     1
 40
1.0
176
     1
 90
        8
176
     1
 62
     7
176
     1
 40
1.0
176
     1
 90
        1
176
     1
 90
        6
176
     1
 90
        2
176
     1
 62
     7
176
     1
 90
        5
176
     1
 90
        0
176
     1
 90
        0
176
     1
290
     0
176
     1
 90
        1
176
     1
 40
0.0
176
     1
 90
        0
176
     1
290
     0
176
     1
290
     1
176
     1
290
     1
176
     1
290
     0
176
     1
290
     0
176
     1
290
     0
176
     1
290
     0
176
     1
290
     0
176
     1
290
     0
176
     1
 90
       50
176
     1
 40
0.0
176
     1
 40
1.0
176
     1
 90
        0
176
     1
 62
    18
420
        0
176
     1
 90
       50
176
     1
 90
        3
176
     1
 62
     5
420
      255
176
     1
290
     0
176
     1
 90
       50
176
     1
 90
       50
176
     1
 90
       50
176
     1
290
     0
176
     1
 90
       50
176
     1
 62
   256
176
     0
 40
1.0
176
     0
 90
        2
176
     1
  1
strokes_ogs.tif
176
     1
290
     0
176
     1
 40
1.0
176
     1
 40
1.0
176
     1
  0
VISUALSTYLE
  5
F2
102
{ACAD_REACTORS
330
E6
102
}
330
E6
100
AcDbVisualStyle
  2
Brighten
 70
    12
177
     3
291
     1
 70
    58
 90
        2
176
     1
 90
        2
176
     1
 90
        1
176
     1
 90
        0
176
     1
 40
0.6
176
     1
 40
30.0
176
     1
 62
     7
420
 16777215
176
     1
 90
        1
176
     1
 90
        4
176
     1
 62
     7
176
     1
 62
   257
176
     1
 90
        1
176
     1
 90
        1
176
     1
 40
1.0
176
     1
 90
        8
176
     1
 62
     7
176
     1
 40
1.0
176
     1
 90
        1
176
     1
 90
        6
176
     1
 90
        2
176
     1
 62
     7
176
     1
 90
        5
176
     1
 90
        0
176
     1
 90
        0
176
     1
290
     0
176
     1
 90
        1
176
     1
 40
50.0
176
     1
 90
        0
176
     1
290
     0
176
     1
290
     1
176
     1
290
     1
176
     1
290
     0
176
     1
290
     0
176
     1
290
     0
176
     1
290
     0
176
     1
290
     0
176
     1
290
     0
176
     1
 90
       50
176
     1
 40
0.0
176
     1
 40
1.0
176
     1
 90
        0
176
     1
 62
    18
420
        0
176
     1
 90
       50
176
     1
 90
        3
176
     1
 62
     5
420
      255
176
     1
290
     0
176
     1
 90
       50
176
     1
 90
       50
176
     1
 90
       50
176
     1
290
     0
176
     1
 90
       50
176
     1
 62
   256
176
     0
 40
1.0
176
     0
 90
        2
176
     1
  1
strokes_ogs.tif
176
     1
290
     0
176
     1
 40
1.0
176
     1
 40
1.0
176
     1
  0
VISUALSTYLE
  5
F6
102
{ACAD_REACTORS
330
E6
102
}
330
E6
100
AcDbVisualStyle
  2
ColorChange
 70
    16
177
     3
291
     1
 70
    58
 90
        2
176
     1
 90
        2
176
     1
 90
        3
176
     1
 90
        0
176
     1
 40
0.6
176
     1
 40
30.0
176
     1
 62
     8
420
  8421504
176
     1
 90
        1
176
     1
 90
        4
176
     1
 62
     7
176
     1
 62
   257
176
     1
 90
        1
176
     1
 90
        1
176
     1
 40
1.0
176
     1
 90
        8
176
     1
 62
     8
420
  8421504
176
     1
 40
1.0
176
     1
 90
        1
176
     1
 90
        6
176
     1
 90
        2
176
     1
 62
     7
176
     1
 90
        5
176
     1
 90
        0
176
     1
 90
        0
176
     1
290
     0
176
     1
 90
        1
176
     1
 40
0.0
176
     1
 90
        0
176
     1
290
     0
176
     1
290
     1
176
     1
290
     1
176
     1
290
     0
176
     1
290
     0
176
     1
290
     0
176
     1
290
     0
176
     1
290
     0
176
     1
290
     0
176
     1
 90
       50
176
     1
 40
0.0
176
     1
 40
1.0
176
     1
 90
        0
176
     1
 62
    18
420
        0
176
     1
 90
       50
176
     1
 90
        3
176
     1
 62
     5
420
      255
176
     1
290
     0
176
     1
 90
       50
176
     1
 90
       50
176
     1
 90
       50
176
     1
290
     0
176
     1
 90
       50
176
     1
 62
   256
176
     0
 40
1.0
176
     0
 90
        2
176
     1
  1
strokes_ogs.tif
176
     1
290
     0
176
     1
 40
1.0
176
     1
 40
1.0
176
     1
  0
VISUALSTYLE
  5
EF
102
{ACAD_REACTORS
330
E6
102
}
330
E6
100
AcDbVisualStyle
  2
Conceptual
 70
     9
177
     3
291
     0
 70
    58
 90
        3
176
     1
 90
        2
176
     1
 90
        1
176
     1
 90
        0
176
     1
 40
0.6
176
     1
 40
30.0
176
     1
 62
     7
420
 16777215
176
     1
 90
        2
176
     1
 90
        2
176
     1
 62
     7
176
     1
 62
   257
176
     1
 90
        1
176
     1
 90
        1
176
     1
 40
40.0
176
     1
 90
        8
176
     1
 62
     7
176
     1
 40
1.0
176
     1
 90
        1
176
     1
 90
        6
176
     1
 90
        2
176
     1
 62
     7
176
     1
 90
        3
176
     1
 90
        0
176
     1
 90
        0
176
     1
290
     0
176
     1
 90
        1
176
     1
 40
0.0
176
     1
 90
        0
176
     1
290
     0
176
     1
290
     1
176
     1
290
     1
176
     1
290
     0
176
     1
290
     0
176
     1
290
     0
176
     1
290
     0
176
     1
290
     0
176
     1
290
     0
176
     1
 90
       50
176
     1
 40
0.0
176
     1
 40
1.0
176
     1
 90
        0
176
     1
 62
    18
420
        0
176
     1
 90
       50
176
     1
 90
        3
176
     1
 62
     5
420
      255
176
     1
290
     0
176
     1
 90
       50
176
     1
 90
       50
176
     1
 90
       50
176
     1
290
     0
176
     1
 90
       50
176
     1
 62
   256
176
     0
 40
1.0
176
     0
 90
        2
176
     1
  1
strokes_ogs.tif
176
     1
290
     0
176
     1
 40
1.0
176
     1
 40
1.0
176
     1
  0
VISUALSTYLE
  5
F1
102
{ACAD_REACTORS
330
E6
102
}
330
E6
100
AcDbVisualStyle
  2
Dim
 70
    11
177
     3
291
     1
 70
    58
 90
        2
176
     1
 90
        2
176
     1
 90
        1
176
     1
 90
        0
176
     1
 40
0.6
176
     1
 40
30.0
176
     1
 62
     7
420
 16777215
176
     1
 90
        1
176
     1
 90
        4
176
     1
 62
     7
176
     1
 62
   257
176
     1
 90
        1
176
     1
 90
        1
176
     1
 40
1.0
176
     1
 90
        8
176
     1
 62
     7
176
     1
 40
1.0
176
     1
 90
        1
176
     1
 90
        6
176
     1
 90
        2
176
     1
 62
     7
176
     1
 90
        5
176
     1
 90
        0
176
     1
 90
        0
176
     1
290
     0
176
     1
 90
        1
176
     1
 40
-50.0
176
     1
 90
        0
176
     1
290
     0
176
     1
290
     1
176
     1
290
     1
176
     1
290
     0
176
     1
290
     0
176
     1
290
     0
176
     1
290
     0
176
     1
290
     0
176
     1
290
     0
176
     1
 90
       50
176
     1
 40
0.0
176
     1
 40
1.0
176
     1
 90
        0
176
     1
 62
    18
420
        0
176
     1
 90
       50
176
     1
 90
        3
176
     1
 62
     5
420
      255
176
     1
290
     0
176
     1
 90
       50
176
     1
 90
       50
176
     1
 90
       50
176
     1
290
     0
176
     1
 90
       50
176
     1
 62
   256
176
     0
 40
1.0
176
     0
 90
        2
176
     1
  1
strokes_ogs.tif
176
     1
290
     0
176
     1
 40
1.0
176
     1
 40
1.0
176
     1
  0
VISUALSTYLE
  5
1DD
102
{ACAD_REACTORS
330
E6
102
}
330
E6
100
AcDbVisualStyle
  2
EdgeColorOff
 70
    22
177
     3
291
     1
 70
    58
 90
        2
176
     0
 90
        2
176
     0
 90
        0
176
     0
 90
        0
176
     0
 40
0.6
176
     0
 40
30.0
176
     0
 62
     7
420
 16777215
176
     0
 90
        1
176
     0
 90
        4
176
     0
 62
     7
176
     0
 62
   257
176
     0
 90
        1
176
     0
 90
        1
176
     0
 40
1.0
176
     0
 90
        8
176
     2
 62
     7
176
     0
 40
1.0
176
     0
 90
        1
176
     0
 90
        6
176
     0
 90
        2
176
     0
 62
     7
176
     0
 90
        5
176
     0
 90
        0
176
     0
 90
        0
176
     0
290
     0
176
     0
 90
        1
176
     0
 40
0.0
176
     0
 90
        0
176
     0
290
     0
176
     1
290
     1
176
     1
290
     1
176
     1
290
     0
176
     1
290
     0
176
     1
290
     0
176
     1
290
     0
176
     1
290
     0
176
     1
290
     0
176
     1
 90
       50
176
     1
 40
0.0
176
     1
 40
1.0
176
     1
 90
        0
176
     1
 62
    18
420
        0
176
     1
 90
       50
176
     1
 90
        3
176
     1
 62
     5
420
      255
176
     1
290
     0
176
     1
 90
       50
176
     1
 90
       50
176
     1
 90
       50
176
     1
290
     0
176
     1
 90
       50
176
     1
 62
   256
176
     0
 40
1.0
176
     0
 90
        2
176
     1
  1
strokes_ogs.tif
176
     1
290
     0
176
     1
 40
1.0
176
     1
 40
1.0
176
     1
  0
VISUALSTYLE
  5
F5
102
{ACAD_REACTORS
330
E6
102
}
330
E6
100
AcDbVisualStyle
  2
Facepattern
 70
    15
177
     3
291
     1
 70
    58
 90
        2
176
     1
 90
        2
176
     1
 90
        1
176
     1
 90
        0
176
     1
 40
0.6
176
     1
 40
30.0
176
     1
 62
     7
420
 16777215
176
     1
 90
        1
176
     1
 90
        4
176
     1
 62
     7
176
     1
 62
   257
176
     1
 90
        1
176
     1
 90
        1
176
     1
 40
1.0
176
     1
 90
        8
176
     1
 62
     7
176
     1
 40
1.0
176
     1
 90
        1
176
     1
 90
        6
176
     1
 90
        2
176
     1
 62
     7
176
     1
 90
        5
176
     1
 90
        0
176
     1
 90
        0
176
     1
290
     0
176
     1
 90
        1
176
     1
 40
0.0
176
     1
 90
        0
176
     1
290
     0
176
     1
290
     1
176
     1
290
     1
176
     1
290
     0
176
     1
290
     0
176
     1
290
     0
176
     1
290
     0
176
     1
290
     0
176
     1
290
     0
176
     1
 90
       50
176
     1
 40
0.0
176
     1
 40
1.0
176
     1
 90
        0
176
     1
 62
    18
420
        0
176
     1
 90
       50
176
     1
 90
        3
176
     1
 62
     5
420
      255
176
     1
290
     0
176
     1
 90
       50
176
     1
 90
       50
176
     1
 90
       50
176
     1
290
     0
176
     1
 90
       50
176
     1
 62
   256
176
     0
 40
1.0
176
     0
 90
        2
176
     1
  1
strokes_ogs.tif
176
     1
290
     0
176
     1
 40
1.0
176
     1
 40
1.0
176
     1
  0
VISUALSTYLE
  5
E7
102
{ACAD_REACTORS
330
E6
102
}
330
E6
100
AcDbVisualStyle
  2
Flat
 70
     0
177
     3
291
     1
 70
    58
 90
        2
176
     1
 90
        1
176
     1
 90
        1
176
     1
 90
        2
176
     1
 40
0.6
176
     1
 40
30.0
176
     1
 62
     7
420
 16777215
176
     1
 90
        0
176
     1
 90
        0
176
     1
 62
     7
176
     1
 62
   257
176
     1
 90
        1
176
     1
 90
        1
176
     1
 40
1.0
176
     1
 90
        8
176
     1
 62
     7
176
     1
 40
1.0
176
     1
 90
        1
176
     1
 90
        6
176
     1
 90
        2
176
     1
 62
     7
176
     1
 90
        5
176
     1
 90
        0
176
     1
 90
        0
176
     1
290
     0
176
     1
 90
       13
176
     1
 40
0.0
176
     1
 90
        0
176
     1
290
     0
176
     1
290
     1
176
     1
290
     1
176
     1
290
     0
176
     1
290
     0
176
     1
290
     0
176
     1
290
     0
176
     1
290
     0
176
     1
290
     0
176
     1
 90
       50
176
     1
 40
0.0
176
     1
 40
1.0
176
     1
 90
        0
176
     1
 62
    18
420
        0
176
     1
 90
       50
176
     1
 90
        3
176
     1
 62
     5
420
      255
176
     1
290
     0
176
     1
 90
       50
176
     1
 90
       50
176
     1
 90
       50
176
     1
290
     0
176
     1
 90
       50
176
     1
 62
   256
176
     0
 40
1.0
176
     0
 90
        2
176
     1
  1
strokes_ogs.tif
176
     1
290
     0
176
     1
 40
1.0
176
     1
 40
1.0
176
     1
  0
VISUALSTYLE
  5
E8
102
{ACAD_REACTORS
330
E6
102
}
330
E6
100
AcDbVisualStyle
  2
FlatWithEdges
 70
     1
177
     3
291
     1
 70
    58
 90
        2
176
     1
 90
        1
176
     1
 90
        1
176
     1
 90
        2
176
     1
 40
0.6
176
     1
 40
30.0
176
     1
 62
     7
420
 16777215
176
     1
 90
        1
176
     1
 90
        0
176
     1
 62
     7
176
     1
 62
   257
176
     1
 90
        1
176
     1
 90
        1
176
     1
 40
1.0
176
     1
 90
        0
176
     1
 62
   257
176
     1
 40
1.0
176
     1
 90
        1
176
     1
 90
        6
176
     1
 90
        2
176
     1
 62
     7
176
     1
 90
        5
176
     1
 90
        0
176
     1
 90
        0
176
     1
290
     0
176
     1
 90
       13
176
     1
 40
0.0
176
     1
 90
        0
176
     1
290
     0
176
     1
290
     1
176
     1
290
     1
176
     1
290
     0
176
     1
290
     0
176
     1
290
     0
176
     1
290
     0
176
     1
290
     0
176
     1
290
     0
176
     1
 90
       50
176
     1
 40
0.0
176
     1
 40
1.0
176
     1
 90
        0
176
     1
 62
    18
420
        0
176
     1
 90
       50
176
     1
 90
        3
176
     1
 62
     5
420
      255
176
     1
290
     0
176
     1
 90
       50
176
     1
 90
       50
176
     1
 90
       50
176
     1
290
     0
176
     1
 90
       50
176
     1
 62
   256
176
     0
 40
1.0
176
     0
 90
        2
176
     1
  1
strokes_ogs.tif
176
     1
290
     0
176
     1
 40
1.0
176
     1
 40
1.0
176
     1
  0
VISUALSTYLE
  5
E9
102
{ACAD_REACTORS
330
E6
102
}
330
E6
100
AcDbVisualStyle
  2
Gouraud
 70
     2
177
     3
291
     1
 70
    58
 90
        2
176
     1
 90
        2
176
     1
 90
        1
176
     1
 90
        2
176
     1
 40
0.6
176
     1
 40
30.0
176
     1
 62
     7
420
 16777215
176
     1
 90
        0
176
     1
 90
        0
176
     1
 62
     7
176
     1
 62
   257
176
     1
 90
        1
176
     1
 90
        1
176
     1
 40
1.0
176
     1
 90
        0
176
     1
 62
     7
176
     1
 40
1.0
176
     1
 90
        1
176
     1
 90
        6
176
     1
 90
        2
176
     1
 62
     7
176
     1
 90
        5
176
     1
 90
        0
176
     1
 90
        0
176
     1
290
     0
176
     1
 90
       13
176
     1
 40
0.0
176
     1
 90
        0
176
     1
290
     0
176
     1
290
     1
176
     1
290
     1
176
     1
290
     0
176
     1
290
     0
176
     1
290
     0
176
     1
290
     0
176
     1
290
     0
176
     1
290
     0
176
     1
 90
       50
176
     1
 40
0.0
176
     1
 40
1.0
176
     1
 90
        0
176
     1
 62
    18
420
        0
176
     1
 90
       50
176
     1
 90
        3
176
     1
 62
     5
420
      255
176
     1
290
     0
176
     1
 90
       50
176
     1
 90
       50
176
     1
 90
       50
176
     1
290
     0
176
     1
 90
       50
176
     1
 62
   256
176
     0
 40
1.0
176
     0
 90
        2
176
     1
  1
strokes_ogs.tif
176
     1
290
     0
176
     1
 40
1.0
176
     1
 40
1.0
176
     1
  0
VISUALSTYLE
  5
EA
102
{ACAD_REACTORS
330
E6
102
}
330
E6
100
AcDbVisualStyle
  2
GouraudWithEdges
 70
     3
177
     3
291
     1
 70
    58
 90
        2
176
     1
 90
        2
176
     1
 90
        1
176
     1
 90
        2
176
     1
 40
0.6
176
     1
 40
30.0
176
     1
 62
     7
420
 16777215
176
     1
 90
        1
176
     1
 90
        0
176
     1
 62
     7
176
     1
 62
   257
176
     1
 90
        1
176
     1
 90
        1
176
     1
 40
1.0
176
     1
 90
        0
176
     1
 62
   257
176
     1
 40
1.0
176
     1
 90
        1
176
     1
 90
        6
176
     1
 90
        2
176
     1
 62
     7
176
     1
 90
        5
176
     1
 90
        0
176
     1
 90
        0
176
     1
290
     0
176
     1
 90
       13
176
     1
 40
0.0
176
     1
 90
        0
176
     1
290
     0
176
     1
290
     1
176
     1
290
     1
176
     1
290
     0
176
     1
290
     0
176
     1
290
     0
176
     1
290
     0
176
     1
290
     0
176
     1
290
     0
176
     1
 90
       50
176
     1
 40
0.0
176
     1
 40
1.0
176
     1
 90
        0
176
     1
 62
    18
420
        0
176
     1
 90
       50
176
     1
 90
        3
176
     1
 62
     5
420
      255
176
     1
290
     0
176
     1
 90
       50
176
     1
 90
       50
176
     1
 90
       50
176
     1
290
     0
176
     1
 90
       50
176
     1
 62
   256
176
     0
 40
1.0
176
     0
 90
        2
176
     1
  1
strokes_ogs.tif
176
     1
290
     0
176
     1
 40
1.0
176
     1
 40
1.0
176
     1
  0
VISUALSTYLE
  5
EE
102
{ACAD_REACTORS
330
E6
102
}
330
E6
100
AcDbVisualStyle
  2
Hidden
 70
     6
177
     3
291
     0
 70
    58
 90
        1
176
     1
 90
        2
176
     1
 90
        2
176
     1
 90
        0
176
     1
 40
0.6
176
     1
 40
30.0
176
     1
 62
     7
420
 16777215
176
     1
 90
        2
176
     1
 90
        2
176
     1
 62
     7
176
     1
 62
   257
176
     1
 90
        2
176
     1
 90
        1
176
     1
 40
40.0
176
     1
 90
        0
176
     1
 62
   257
176
     1
 40
1.0
176
     1
 90
        1
176
     1
 90
        6
176
     1
 90
        2
176
     1
 62
     7
176
     1
 90
        3
176
     1
 90
        0
176
     1
 90
        0
176
     1
290
     0
176
     1
 90
        1
176
     1
 40
0.0
176
     1
 90
        0
176
     1
290
     0
176
     1
290
     1
176
     1
290
     1
176
     1
290
     0
176
     1
290
     0
176
     1
290
     0
176
     1
290
     0
176
     1
290
     0
176
     1
290
     0
176
     1
 90
       50
176
     1
 40
0.0
176
     1
 40
1.0
176
     1
 90
        0
176
     1
 62
    18
420
        0
176
     1
 90
       50
176
     1
 90
        3
176
     1
 62
     5
420
      255
176
     1
290
     0
176
     1
 90
       50
176
     1
 90
       50
176
     1
 90
       50
176
     1
290
     0
176
     1
 90
       50
176
     1
 62
   256
176
     0
 40
1.0
176
     0
 90
        2
176
     1
  1
strokes_ogs.tif
176
     1
290
     0
176
     1
 40
1.0
176
     1
 40
1.0
176
     1
  0
VISUALSTYLE
  5
1DB
102
{ACAD_REACTORS
330
E6
102
}
330
E6
100
AcDbVisualStyle
  2
JitterOff
 70
    20
177
     3
291
     1
 70
    58
 90
        2
176
     0
 90
        2
176
     0
 90
        0
176
     0
 90
        0
176
     0
 40
0.6
176
     0
 40
30.0
176
     0
 62
     7
420
 16777215
176
     0
 90
        1
176
     0
 90
        4
176
     0
 62
     7
176
     0
 62
   257
176
     0
 90
        1
176
     0
 90
        1
176
     0
 40
1.0
176
     0
 90
       10
176
     2
 62
     7
176
     0
 40
1.0
176
     0
 90
        1
176
     0
 90
        6
176
     0
 90
        2
176
     0
 62
     7
176
     0
 90
        5
176
     0
 90
        0
176
     0
 90
        0
176
     0
290
     0
176
     0
 90
        1
176
     0
 40
0.0
176
     0
 90
        0
176
     0
290
     0
176
     1
290
     1
176
     1
290
     1
176
     1
290
     0
176
     1
290
     0
176
     1
290
     0
176
     1
290
     0
176
     1
290
     0
176
     1
290
     0
176
     1
 90
       50
176
     1
 40
0.0
176
     1
 40
1.0
176
     1
 90
        0
176
     1
 62
    18
420
        0
176
     1
 90
       50
176
     1
 90
        3
176
     1
 62
     5
420
      255
176
     1
290
     0
176
     1
 90
       50
176
     1
 90
       50
176
     1
 90
       50
176
     1
290
     0
176
     1
 90
       50
176
     1
 62
   256
176
     0
 40
1.0
176
     0
 90
        2
176
     1
  1
strokes_ogs.tif
176
     1
290
     0
176
     1
 40
1.0
176
     1
 40
1.0
176
     1
  0
VISUALSTYLE
  5
F4
102
{ACAD_REACTORS
330
E6
102
}
330
E6
100
AcDbVisualStyle
  2
Linepattern
 70
    14
177
     3
291
     1
 70
    58
 90
        2
176
     1
 90
        2
176
     1
 90
        1
176
     1
 90
        0
176
     1
 40
0.6
176
     1
 40
30.0
176
     1
 62
     7
420
 16777215
176
     1
 90
        1
176
     1
 90
        4
176
     1
 62
     7
176
     1
 62
   257
176
     1
 90
        7
176
     1
 90
        7
176
     1
 40
1.0
176
     1
 90
        8
176
     1
 62
     7
176
     1
 40
1.0
176
     1
 90
        1
176
     1
 90
        6
176
     1
 90
        2
176
     1
 62
     7
176
     1
 90
        5
176
     1
 90
        0
176
     1
 90
        0
176
     1
290
     0
176
     1
 90
        1
176
     1
 40
0.0
176
     1
 90
        0
176
     1
290
     0
176
     1
290
     1
176
     1
290
     1
176
     1
290
     0
176
     1
290
     0
176
     1
290
     0
176
     1
290
     0
176
     1
290
     0
176
     1
290
     0
176
     1
 90
       50
176
     1
 40
0.0
176
     1
 40
1.0
176
     1
 90
        0
176
     1
 62
    18
420
        0
176
     1
 90
       50
176
     1
 90
        3
176
     1
 62
     5
420
      255
176
     1
290
     0
176
     1
 90
       50
176
     1
 90
       50
176
     1
 90
       50
176
     1
290
     0
176
     1
 90
       50
176
     1
 62
   256
176
     0
 40
1.0
176
     0
 90
        2
176
     1
  1
strokes_ogs.tif
176
     1
290
     0
176
     1
 40
1.0
176
     1
 40
1.0
176
     1
  0
VISUALSTYLE
  5
1DC
102
{ACAD_REACTORS
330
E6
102
}
330
E6
100
AcDbVisualStyle
  2
OverhangOff
 70
    21
177
     3
291
     1
 70
    58
 90
        2
176
     0
 90
        2
176
     0
 90
        0
176
     0
 90
        0
176
     0
 40
0.6
176
     0
 40
30.0
176
     0
 62
     7
420
 16777215
176
     0
 90
        1
176
     0
 90
        4
176
     0
 62
     7
176
     0
 62
   257
176
     0
 90
        1
176
     0
 90
        1
176
     0
 40
1.0
176
     0
 90
        9
176
     2
 62
     7
176
     0
 40
1.0
176
     0
 90
        1
176
     0
 90
        6
176
     0
 90
        2
176
     0
 62
     7
176
     0
 90
        5
176
     0
 90
        0
176
     0
 90
        0
176
     0
290
     0
176
     0
 90
        1
176
     0
 40
0.0
176
     0
 90
        0
176
     0
290
     0
176
     1
290
     1
176
     1
290
     1
176
     1
290
     0
176
     1
290
     0
176
     1
290
     0
176
     1
290
     0
176
     1
290
     0
176
     1
290
     0
176
     1
 90
       50
176
     1
 40
0.0
176
     1
 40
1.0
176
     1
 90
        0
176
     1
 62
    18
420
        0
176
     1
 90
       50
176
     1
 90
        3
176
     1
 62
     5
420
      255
176
     1
290
     0
176
     1
 90
       50
176
     1
 90
       50
176
     1
 90
       50
176
     1
290
     0
176
     1
 90
       50
176
     1
 62
   256
176
     0
 40
1.0
176
     0
 90
        2
176
     1
  1
strokes_ogs.tif
176
     1
290
     0
176
     1
 40
1.0
176
     1
 40
1.0
176
     1
  0
VISUALSTYLE
  5
F0
102
{ACAD_REACTORS
330
E6
102
}
330
E6
100
AcDbVisualStyle
  2
Realistic
 70
     8
177
     3
291
     0
 70
    58
 90
        2
176
     1
 90
        3
176
     1
 90
        0
176
     1
 90
        2
176
     1
 40
0.6
176
     1
 40
30.0
176
     1
 62
     7
420
 16777215
176
     1
 90
        0
176
     1
 90
        0
176
     1
 62
     7
176
     1
 62
   257
176
     1
 90
        1
176
     1
 90
        1
176
     1
 40
1.0
176
     1
 90
        8
176
     1
 62
   257
176
     1
 40
1.0
176
     1
 90
        1
176
     1
 90
        6
176
     1
 90
        2
176
     1
 62
     7
176
     1
 90
        3
176
     1
 90
        0
176
     1
 90
        0
176
     1
290
     0
176
     1
 90
       13
176
     1
 40
0.0
176
     1
 90
        0
176
     1
290
     0
176
     1
290
     1
176
     1
290
     1
176
     1
290
     0
176
     1
290
     0
176
     1
290
     0
176
     1
290
     0
176
     1
290
     0
176
     1
290
     0
176
     1
 90
       50
176
     1
 40
0.0
176
     1
 40
1.0
176
     1
 90
        0
176
     1
 62
    18
420
        0
176
     1
 90
       50
176
     1
 90
        3
176
     1
 62
     5
420
      255
176
     1
290
     0
176
     1
 90
       50
176
     1
 90
       50
176
     1
 90
       50
176
     1
290
     0
176
     1
 90
       50
176
     1
 62
   256
176
     0
 40
1.0
176
     0
 90
        2
176
     1
  1
strokes_ogs.tif
176
     1
290
     0
176
     1
 40
1.0
176
     1
 40
1.0
176
     1
  0
VISUALSTYLE
  5
1EA
102
{ACAD_REACTORS
330
E6
102
}
330
E6
100
AcDbVisualStyle
  2
Shaded
 70
    27
177
     3
291
     0
 70
    58
 90
        2
176
     1
 90
        2
176
     1
 90
        1
176
     1
 90
        2
176
     1
 40
0.6
176
     1
 40
30.0
176
     1
 62
     7
420
 16777215
176
     1
 90
        0
176
     1
 90
        4
176
     1
 62
     7
176
     1
 62
   257
176
     1
 90
        1
176
     1
 90
        1
176
     1
 40
1.0
176
     1
 90
        8
176
     1
 62
   257
176
     1
 40
1.0
176
     1
 90
        1
176
     1
 90
        6
176
     1
 90
        2
176
     1
 62
     8
420
  7895160
176
     1
 90
        3
176
     1
 90
        0
176
     1
 90
        0
176
     1
290
     0
176
     1
 90
        5
176
     1
 40
0.0
176
     1
 90
        0
176
     1
290
     0
176
     1
290
     1
176
     1
290
     1
176
     1
290
     0
176
     1
290
     0
176
     1
290
     0
176
     1
290
     0
176
     1
290
     0
176
     1
290
     0
176
     1
 90
       50
176
     1
 40
0.0
176
     1
 40
1.0
176
     1
 90
        0
176
     1
 62
    18
420
        0
176
     1
 90
       50
176
     1
 90
        3
176
     1
 62
     5
420
      255
176
     1
290
     0
176
     1
 90
       50
176
     1
 90
       50
176
     1
 90
       50
176
     1
290
     0
176
     1
 90
       50
176
     1
 62
   256
176
     0
 40
1.0
176
     0
 90
        2
176
     1
  1
strokes_ogs.tif
176
     1
290
     0
176
     1
 40
1.0
176
     1
 40
1.0
176
     1
  0
VISUALSTYLE
  5
1E9
102
{ACAD_REACTORS
330
E6
102
}
330
E6
100
AcDbVisualStyle
  2
Shaded with edges
 70
    26
177
     3
291
     0
 70
    58
 90
        2
176
     1
 90
        2
176
     1
 90
        1
176
     1
 90
        2
176
     1
 40
0.6
176
     1
 40
30.0
176
     1
 62
     7
420
 16777215
176
     1
 90
        1
176
     1
 90
       10
176
     1
 62
     7
176
     1
 62
   257
176
     1
 90
        2
176
     1
 90
        1
176
     1
 40
1.0
176
     1
 90
        8
176
     1
 62
   257
176
     1
 40
1.0
176
     1
 90
        1
176
     1
 90
        6
176
     1
 90
        2
176
     1
 62
     7
176
     1
 90
        3
176
     1
 90
        0
176
     1
 90
        0
176
     1
290
     0
176
     1
 90
        5
176
     1
 40
0.0
176
     1
 90
        0
176
     1
290
     0
176
     1
290
     1
176
     1
290
     1
176
     1
290
     0
176
     1
290
     0
176
     1
290
     0
176
     1
290
     0
176
     1
290
     0
176
     1
290
     0
176
     1
 90
       50
176
     1
 40
0.0
176
     1
 40
1.0
176
     1
 90
        0
176
     1
 62
    18
420
        0
176
     1
 90
       50
176
     1
 90
        3
176
     1
 62
     5
420
      255
176
     1
290
     0
176
     1
 90
       50
176
     1
 90
       50
176
     1
 90
       50
176
     1
290
     0
176
     1
 90
       50
176
     1
 62
   256
176
     0
 40
1.0
176
     0
 90
        2
176
     1
  1
strokes_ogs.tif
176
     1
290
     0
176
     1
 40
1.0
176
     1
 40
1.0
176
     1
  0
VISUALSTYLE
  5
1E6
102
{ACAD_REACTORS
330
E6
102
}
330
E6
100
AcDbVisualStyle
  2
Shades of Gray
 70
    23
177
     3
291
     0
 70
    58
 90
        2
176
     1
 90
        2
176
     1
 90
        3
176
     1
 90
        0
176
     1
 40
0.6
176
     1
 40
30.0
176
     1
 62
     7
420
 16777215
176
     1
 90
        2
176
     1
 90
        2
176
     1
 62
     7
176
     1
 62
     7
176
     1
 90
        1
176
     1
 90
        1
176
     1
 40
40.0
176
     1
 90
        8
176
     1
 62
     7
176
     1
 40
1.0
176
     1
 90
        1
176
     1
 90
        6
176
     1
 90
        2
176
     1
 62
     7
176
     1
 90
        3
176
     1
 90
        0
176
     1
 90
        0
176
     1
290
     0
176
     1
 90
        1
176
     1
 40
0.0
176
     1
 90
        0
176
     1
290
     0
176
     1
290
     1
176
     1
290
     1
176
     1
290
     0
176
     1
290
     0
176
     1
290
     0
176
     1
290
     0
176
     1
290
     0
176
     1
290
     0
176
     1
 90
       50
176
     1
 40
0.0
176
     1
 40
1.0
176
     1
 90
        0
176
     1
 62
    18
420
        0
176
     1
 90
       50
176
     1
 90
        3
176
     1
 62
     5
420
      255
176
     1
290
     0
176
     1
 90
       50
176
     1
 90
       50
176
     1
 90
       50
176
     1
290
     0
176
     1
 90
       50
176
     1
 62
   256
176
     0
 40
1.0
176
     0
 90
        2
176
     1
  1
strokes_ogs.tif
176
     1
290
     0
176
     1
 40
1.0
176
     1
 40
1.0
176
     1
  0
VISUALSTYLE
  5
1E7
102
{ACAD_REACTORS
330
E6
102
}
330
E6
100
AcDbVisualStyle
  2
Sketchy
 70
    24
177
     3
291
     0
 70
    58
 90
        1
176
     1
 90
        2
176
     1
 90
        2
176
     1
 90
        0
176
     1
 40
0.6
176
     1
 40
30.0
176
     1
 62
     7
420
 16777215
176
     1
 90
        2
176
     1
 90
        2
176
     1
 62
     7
176
     1
 62
     7
176
     1
 90
        1
176
     1
 90
        1
176
     1
 40
40.0
176
     1
 90
       11
176
     1
 62
     7
176
     1
 40
1.0
176
     1
 90
        1
176
     1
 90
        6
176
     1
 90
        2
176
     1
 62
     7
176
     1
 90
        6
176
     1
 90
        0
176
     1
 90
        0
176
     1
290
     0
176
     1
 90
        1
176
     1
 40
0.0
176
     1
 90
        0
176
     1
290
     0
176
     1
290
     1
176
     1
290
     1
176
     1
290
     0
176
     1
290
     0
176
     1
290
     0
176
     1
290
     0
176
     1
290
     0
176
     1
290
     0
176
     1
 90
       50
176
     1
 40
0.0
176
     1
 40
1.0
176
     1
 90
        0
176
     1
 62
    18
420
        0
176
     1
 90
       50
176
     1
 90
        3
176
     1
 62
     5
420
      255
176
     1
290
     0
176
     1
 90
       50
176
     1
 90
       50
176
     1
 90
       50
176
     1
290
     0
176
     1
 90
       50
176
     1
 62
   256
176
     0
 40
1.0
176
     0
 90
        2
176
     1
  1
strokes_ogs.tif
176
     1
290
     0
176
     1
 40
1.0
176
     1
 40
1.0
176
     1
  0
VISUALSTYLE
  5
F3
102
{ACAD_REACTORS
330
E6
102
}
330
E6
100
AcDbVisualStyle
  2
Thicken
 70
    13
177
     3
291
     1
 70
    58
 90
        2
176
     1
 90
        2
176
     1
 90
        1
176
     1
 90
        0
176
     1
 40
0.6
176
     1
 40
30.0
176
     1
 62
     7
420
 16777215
176
     1
 90
        1
176
     1
 90
        4
176
     1
 62
     7
176
     1
 62
   257
176
     1
 90
        1
176
     1
 90
        1
176
     1
 40
1.0
176
     1
 90
       12
176
     1
 62
     7
176
     1
 40
1.0
176
     1
 90
        1
176
     1
 90
        6
176
     1
 90
        2
176
     1
 62
     7
176
     1
 90
        5
176
     1
 90
        0
176
     1
 90
        0
176
     1
290
     0
176
     1
 90
        1
176
     1
 40
0.0
176
     1
 90
        0
176
     1
290
     0
176
     1
290
     1
176
     1
290
     1
176
     1
290
     0
176
     1
290
     0
176
     1
290
     0
176
     1
290
     0
176
     1
290
     0
176
     1
290
     0
176
     1
 90
       50
176
     1
 40
0.0
176
     1
 40
1.0
176
     1
 90
        0
176
     1
 62
    18
420
        0
176
     1
 90
       50
176
     1
 90
        3
176
     1
 62
     5
420
      255
176
     1
290
     0
176
     1
 90
       50
176
     1
 90
       50
176
     1
 90
       50
176
     1
290
     0
176
     1
 90
       50
176
     1
 62
   256
176
     0
 40
1.0
176
     0
 90
        2
176
     1
  1
strokes_ogs.tif
176
     1
290
     0
176
     1
 40
1.0
176
     1
 40
1.0
176
     1
  0
VISUALSTYLE
  5
ED
102
{ACAD_REACTORS
330
E6
102
}
330
E6
100
AcDbVisualStyle
  2
Wireframe
 70
     5
177
     3
291
     0
 70
    58
 90
        0
176
     1
 90
        2
176
     1
 90
        0
176
     1
 90
        0
176
     1
 40
0.6
176
     1
 40
30.0
176
     1
 62
     7
420
 16777215
176
     1
 90
        1
176
     1
 90
        4
176
     1
 62
     7
176
     1
 62
   257
176
     1
 90
        1
176
     1
 90
        1
176
     1
 40
1.0
176
     1
 90
        0
176
     1
 62
   257
176
     1
 40
1.0
176
     1
 90
        1
176
     1
 90
        6
176
     1
 90
        2
176
     1
 62
     7
176
     1
 90
        3
176
     1
 90
        0
176
     1
 90
        0
176
     1
290
     0
176
     1
 90
        1
176
     1
 40
0.0
176
     1
 90
        0
176
     1
290
     0
176
     1
290
     1
176
     1
290
     1
176
     1
290
     0
176
     1
290
     0
176
     1
290
     0
176
     1
290
     0
176
     1
290
     0
176
     1
290
     0
176
     1
 90
       50
176
     1
 40
0.0
176
     1
 40
1.0
176
     1
 90
        0
176
     1
 62
    18
420
        0
176
     1
 90
       50
176
     1
 90
        3
176
     1
 62
     5
420
      255
176
     1
290
     0
176
     1
 90
       50
176
     1
 90
       50
176
     1
 90
       50
176
     1
290
     0
176
     1
 90
       50
176
     1
 62
   256
176
     0
 40
1.0
176
     0
 90
        2
176
     1
  1
strokes_ogs.tif
176
     1
290
     0
176
     1
 40
1.0
176
     1
 40
1.0
176
     1
  0
VISUALSTYLE
  5
1E8
102
{ACAD_REACTORS
330
E6
102
}
330
E6
100
AcDbVisualStyle
  2
X-Ray
 70
    25
177
     3
291
     0
 70
    58
 90
        2
176
     1
 90
        2
176
     1
 90
        1
176
     1
 90
        1
176
     1
 40
0.5
176
     1
 40
30.0
176
     1
 62
     7
420
 16777215
176
     1
 90
        1
176
     1
 90
        0
176
     1
 62
     7
176
     1
 62
   257
176
     1
 90
        1
176
     1
 90
        1
176
     1
 40
1.0
176
     1
 90
        8
176
     1
 62
     7
176
     1
 40
1.0
176
     1
 90
        1
176
     1
 90
        6
176
     1
 90
        2
176
     1
 62
     7
176
     1
 90
        3
176
     1
 90
        0
176
     1
 90
        0
176
     1
290
     0
176
     1
 90
       13
176
     1
 40
0.0
176
     1
 90
        0
176
     1
290
     0
176
     1
290
     1
176
     1
290
     1
176
     1
290
     0
176
     1
290
     0
176
     1
290
     0
176
     1
290
     0
176
     1
290
     0
176
     1
290
     0
176
     1
 90
       50
176
     1
 40
0.0
176
     1
 40
1.0
176
     1
 90
        0
176
     1
 62
    18
420
        0
176
     1
 90
       50
176
     1
 90
        3
176
     1
 62
     5
420
      255
176
     1
290
     0
176
     1
 90
       50
176
     1
 90
       50
176
     1
 90
       50
176
     1
290
     0
176
     1
 90
       50
176
     1
 62
   256
176
     0
 40
1.0
176
     0
 90
        2
176
     1
  1
strokes_ogs.tif
176
     1
290
     0
176
     1
 40
1.0
176
     1
 40
1.0
176
     1
  0
DICTIONARYVAR
  5
13D
102
{ACAD_REACTORS
330
67
102
}
330
67
100
DictionaryVariables
280
     0
  1
1:1
  0
DICTIONARYVAR
  5
13C
102
{ACAD_REACTORS
330
67
102
}
330
67
100
DictionaryVariables
280
     0
  1
STANDARD
  0
DICTIONARYVAR
  5
C5
102
{ACAD_REACTORS
330
67
102
}
330
67
100
DictionaryVariables
280
     0
  1
STANDARD
  0
DICTIONARYVAR
  5
21E
102
{ACAD_REACTORS
330
67
102
}
330
67
100
DictionaryVariables
280
     0
  1
Metric50
  0
DICTIONARYVAR
  5
21F
102
{ACAD_REACTORS
330
67
102
}
330
67
100
DictionaryVariables
280
     0
  1
Metric50
  0
DICTIONARYVAR
  5
68
102
{ACAD_REACTORS
330
67
102
}
330
67
100
DictionaryVariables
280
     0
  1
2
  0
DICTIONARYVAR
  5
DA8
102
{ACAD_REACTORS
330
67
102
}
330
67
100
DictionaryVariables
280
     0
  1
2
  0
DICTIONARYVAR
  5
6C
102
{ACAD_REACTORS
330
67
102
}
330
67
100
DictionaryVariables
280
     0
  1
1
  0
DICTIONARYVAR
  5
1A5
102
{ACAD_REACTORS
330
67
102
}
330
67
100
DictionaryVariables
280
     0
  1
0
  0
DICTIONARYVAR
  5
1A6
102
{ACAD_REACTORS
330
67
102
}
330
67
100
DictionaryVariables
280
     0
  1
0
  0
DICTIONARY
  5
22D
330
213
100
AcDbDictionary
280
     1
281
     1
  3
ACAD_XREC_ROUNDTRIP
360
28F9
  0
DICTIONARY
  5
1FC
330
22
100
AcDbDictionary
280
     1
281
     1
  3
AcPublish_PlotSettingsOverride
360
DA7
  0
DICTIONARY
  5
1F0
330
E4
100
AcDbDictionary
280
     1
281
     1
  3
FBXASSET
360
1F1
  0
DICTIONARY
  5
1EE
330
E3
100
AcDbDictionary
280
     1
281
     1
  3
FBXASSET
360
1EF
  0
DICTIONARY
  5
16A
330
E5
100
AcDbDictionary
280
     1
281
     1
  3
BUMPTILE
360
16C
  3
DIFFUSETILE
360
16B
  3
FBXASSET
360
1F2
  3
OPACITYTILE
360
16D
  3
REFLECTIONTILE
360
16E
  0
DICTIONARY
  5
22B
330
211
100
AcDbDictionary
280
     1
281
     1
  3
ACAD_XREC_ROUNDTRIP
360
28F8
  0
DICTIONARY
  5
159
330
98
100
AcDbDictionary
280
     1
281
     1
  3
ACAD_ROUNDTRIP_2008_TABLESTYLE_CELLSTYLEMAP
360
28F7
  0
XRECORD
  5
28F9
102
{ACAD_REACTORS
330
22D
102
}
330
22D
100
AcDbXrecord
280
     1
102
DISPLAYNAME
  1
Metric50
102
FLAGS
 90
        0
  0
PLOTSETTINGS
  5
DA7
102
{ACAD_REACTORS
330
1FC
102
}
330
1FC
100
AcDbPlotSettings
  1

  2
Kyocera TASKalfa 3050ci(J) KX
  4
ANSI_A_(8.50_x_11.00_Inches)
  6

 40
4.984749794006347
 41
5.111724853515625
 42
5.154083251953125
 43
4.9847412109375
 44
297.0106506347656
 45
419.9889831542968
 46
0.0
 47
0.0
 48
33316.24093491148
 49
28289.23237812787
140
34996.24093491148
141
29477.23237812787
142
1.0
143
1.0
 70
 11952
 72
     1
 73
     1
 74
     4
  7

 75
    16
147
1.0
 76
     0
 77
     2
 78
   300
148
-33316.24093491148
149
-28289.23237812787
1001
ACAD_PSEXT
1000
Kyocera TASKalfa 3050ci(J) KX
1000
Kyocera TASKalfa 3050ci(J) KX
1000
192.168.11.123
1000

1070
     0
  0
XRECORD
  5
1F1
102
{ACAD_REACTORS
330
1F0
102
}
330
1F0
100
AcDbXrecord
280
     1
 70
     1
 90
429727718
  1
F226E010-5D7B-4EF0-9E0F-00A2E58668EA
310
504B03040A0000080000C270623B3DEE336E79000000790000001B0000006175746F6465736B2D64657369676E2D7061636B6167652E786D6C3C3F786D6C2076657273696F6E3D22312E302220656E636F64696E673D227574662D3822203F3E3C666F726D6174733E3C666F726D61743E687474703A2F2F736368656D612E
310
6175746F6465736B2E636F6D2F64657369676E2D7061636B6167652F323030393C2F666F726D61743E3C2F666F726D6174733E504B0304140006080800C270623BD486FD9CA0000000F4000000130000005B436F6E74656E745F54797065735D2E786D6C7D8EC10E82300C865F65E91D8A1E8C310C0EEA1BF002731658846E
310
D98AC1B77784ABF1D8FE5FBFBF75BBCE937A534CCEB38643598122B6FEE978D0B0485F9C41B54DDD7D022595594E1A469170414C76A4D9A4D207E29CF43ECE46F218070CC6BECC4078ACAA135ACF422C856C0E68EA1BF5669944DDD7BCDE7B1F8E415D77AECB980613C2E4AC91FC167A2B244592486606FC29C8FD7F045B9A
310
EF7053A7E60B504B0304140006080800C270623B132FA9F8EA0000007C01000008000000636F72652E786D6C8D90DD6EC3200C855F05F976223169D2D18850ADDDF6047B010434436D200A30EDF147FA236D77BBB2757C3EDB3A62FF3D5DC8975DA20B7E00562110EB7530CE8F03E474A21CC85E8A2584F4CB06C4ABC90EB0
310
CA20C5B8843CDF251D7CB23E15D50763EFA28AD12620FA529A01A2FEB493AA544EC511CFD5ACF4598DB6628FAEC0393B436E479C29FBDCC9D905E486BFBF1D5ED8336D78D7D2961F90F2233FD2572C8316D9B6EB1A51AFB014C94D8FFB7AB12A5903B241DC51C628361FACED71DB63FB84BC4714F56AFF03E5D9FC13CACEA7
310
4D737FF7864590AC3C721D4851AF5994720DAAD43537F903504B0304140006080800C270623B55019EA25F0000007C00000007000000636E782E786D6C4DCB3B0E80201045D1AD90E915ED2CF8AC45050C11660C8261F98AB1B07AC9C97D42D718D865D3E909258CFD00CCE24AC6E326A164D74DC0B4128928FF326038472B
310
A13128B1252AC747C6BAB984FC68F0B87FE8960A5C09FE86CFB69FBA01504B0304140006080800C270623B0B97CEAB6F010000D40300000C0000006662782F636F72652E786D6CC553ED6E8320147D15C2DF05416B3BD720CDDA6D4FB017A04A1DA98241307DFC5D3F9AAE4BB774BFE60F25E7DCCB3DE7207C736A6AD42BD7
310
696B721C470C23650A5B6A53E538F803C930DA08EEACF55FCA3032B251391E602C78E56C6867A8B0C62BE30135B6543328BB4E798C8A1A1639EE8A0FD5C848060F15DD316A657194958AE20868A813BCF30E04A069C8F0C6E2B03F713AE18287A0CB99D5254CD307AD1C168BECED75FB1C3F92245BA624CDB68C64BB6C475E
310
1810298B57CB65C2E9D02CB8D7CD595DE194F4AAC42261EC89C43161C97B9CAED96ACDD20796AD19E37428BF6A0A6D796753D0C62F9259EED4D66111839091F8E61622F2A8933DE8A182D32144F88C095F070D8140C85EEEEBB38F2340BD2ABC752930A50D17AA9775503095456C7CD0CF0B4EA74E983A6E0EAE6FCE48EE9E
310
F1FB8E70D4D25460427A58EE831F74F249C31C5AAB1CE9FD0919EB1A59DF67E317877FA22EE26F4A2A6C6DDD7F29A2F301D1F9F7A0C37D149F504B0304140006080800C270623BD9317DDA7D0000009D0000000B0000006662782F636E782E786D6C4DCCD10AC2201886E15B91FFDC966B53037588D27D8CE686E4344CA3CB
310
6F8B1D74F4C1C3C72B86CF1AD0DBE5974F5102399D01B9784F938F8B845A66CC010D4AE494CADF0D501C572761675062C9A93E0F9ADC3CD650360D3E3E0E34BDE1DA901EDFAE96E18ED00E6BC65A6C29B78651DEB28B864689E657DA760FAB2F504B0304140006080800C270623B609261632A010000120200003100000066
310
62782F43354338414331352D463944372D343136342D413737322D4436384443373638323733412F636F72652E786D6C8D515B6EC32010BC0AE22B55850D0E7E24C24491A39EA0172086A42831583CAA1CBF503B52FB971F16CDCECC0E2C3B3CA63BF856CE6B6B7A480A0C8132A395DA5C7B18C30575101C3873D6863F3408
310
8C98540F330C39BB3A1BE7151AAD09CA84841A2BD50A0AEF558060BCA74B0FFDF8A52651881812C3DF8A598C3771550529523BF138F3C1A5006019924FC8877AE88E03A9D1C7EED4224A1A8A8E6D5BA153D39D86B6E9AA767B64E522E42C462D57B996298EBE68E55E35C962CE829E9EF147A7445012F20AE31D2204E1EA93
310
D03D6EF698BEE36E8F312B33FD9F28CEF24551D4266CAB35EE22F39013562E0DCEA48DE7FB338C7ACCD60590E76DBC1ADF20C705C635D951562EC4F4FCE4D8D0D5D107EBD2F76E6EE7C425F562DB50CECABCA1547ED7976ADE26FF01504B0304140006080800C270623BAB1CAE584E01000033030000300000006662782F43
310
354338414331352D463944372D343136342D413737322D4436384443373638323733412F636E782E786D6CD593CD6EC32010845F0571AD6CE3D48AD20813A9873E410FBD12D82434182C7EAAE6EDBB2424CD25871E7B41D6EC30B3FA84F9E67BB2E40B4234DE8DB46F1925E094D7C6ED479AD3AE5951B2113C789FEE6C9438
310
39C1488B4C05DF079FE72A69D8C96C13AAD6B8631503449F83828872B949AC57D26200B826A308D316B4064D6E46FCDA41C05550DC9E483A00797BFD207EFB092A45DE9514C1BBD22178396BD39D891265658C238DEA00936C654E5E433CB65A26D9F6EDB5EBC14EBF49A45CB856E66048291F6939A9A81BB5C8917738143C
310
A680F4AA299D66A042CEB3354A2684DC9D8D178FE0D9B8B41CAAD720F880EE7EF93C0C18769E099ECC04D5A102C8049A8A05632F4DDF376CF1DE0F6BB65CB3E189ADD68CF1AED805DF7A6FEB258C81E067A2BC4BE012153DEFCAF811BEEA23DA0464EDC3E90F2011406DBDD0B965FC673EDDF97D23AE807F81F801504B0304
310
140006080800C270623BCB23EE24670500003C100000340000006662782F43354338414331352D463944372D343136342D413737322D4436384443373638323733412F6F626A656374732E786D6CAD575B8F9B3818FD2B887DE69664A6332B866A72ABA26ADAAA51AB7D182932E030EC0046B69966F6D7EF31180224D3662F
310
7908D8D8DFF57CC79FFDF7873C335E2817292BEE4CCF764D8316118BD322B9332BB9B76E4CE37DE073C6646F99691424A777A69A36033FE1AC2AF5544CF7A4CAE468763DFFC310112DA869441911E2CE14D113CD894D2AC9622A9EED98486227FB83EDD9CDC2A1D88493F26924B4249C16129662BE8014A331CA1B0E5DD309
310
7C477D0F7CF5AF574DDF5EE5D4FE0CF5A78590A4884E948DC44CBDD97235B9BAB5AE66B3A935BB9E78D67C3D5F5ADEBBA9BBB85E2C6EEF57B7502C2487246D09A77B33F880D8F034F29DE65367B136FC9C49112B0A1AD5FEC3C3DA662D31A6252D62E431A502DA7A5EBBC3A1A762D3FB3C5563ADB23F7D9957FD1D3D41ADED
310
EDB36F290BFF840BE21254704115AA9AF868471BFCB9C7A8858C65FA5B2A8C9C48CA539219591A72C25FCD004BD592C01F8851E8E40AE1CA0333F08EF2FAB6A2347E8DDD7356EEAB2C53D034831AD93BE09F4A515B96FE45F9796DB009B9AAD242DE6887E46B49CDE0D677EAC9C0578FE9447F6C0269EC339220E570B3F93A
310
7274A16A6FB334838FEBF0B055F5785E79C95949B954F001B4DAC4B54F1525ADD6BB28736A039C19C4FC1894AF88FC2794EFD114E48DA787D961A6B5484E0AB1673C476E6CB7FE196EFB62756FA72FE0B3D1EAD335DDCCBF5AEC3B9DB143C2782B7F00974ACDCD7FCFDF30667DA4F6D217F82F2830C6A73A94DB8864A09E87
310
B4404214288D8C610A5CBE0F0F66B0015382D9B18B644117909317DF79C177FC37B2C156B5FADEB34042477C7B01F323967559C0B637C072C293B562EDDC5B31BFFA5F6AE67EB9FDB8ADF89E44F44113CB92EED32295383B8FE0ED1B3448C4C0A367FAFA83F1188E9E2661DB4F42AE5509445BC55C053E690F0B35386A1E28
310
88B02F618AF3FC5F6878484544B38C149455AD96EE185258ED4846F709A8C226A0D3C908C59CBEA4AA9318AC189885B33EE269A942D61D7A1D4FDB6FF8F26DF309A03483F9EB1C687D3EAE0A8F741FB18CF15DF8BA6B98D004F8B06788EEEF4378EB883A4A0A105F63B9A51C1DE25D9CEEF79500EF9E89E2F7CDA29FA98E48
310
4E5FDA026A35363539033BA3F608D7F06D75A221E004073B2B76298E7194E559E57DDD6305A296FB86FCB0CACB1DC95955C84BC2E4B6FEB4D677C2FB5D8CF84164F46406DBFA69CD41D9318D8FA91AA0401D41677C1AA4673D995CAF5CCFB5AE96EFE6D66CB576ADDB95BBB65CF77EB2BABAB9BEBE59DD7716D596047E7B42
310
F56B10D1C489E8573CD561FEB63996AD193C10299C0F4D413949F3FCB6B1D116FB0EF600E0DDC64D5E6634A785240ABE0FEA25FB4AD0550C6434F39B9C24F402299F3F6C473660E6827D5F54A9D11FA3BD7A76A16AE1AC10F954E56141D26CB4513B6E9745A2DD6E43D93D1B466F876AA4E3893E54B02C8D4138B191509653
310
09DAB980ED794E0510D3EFCA637D7BB860F74BD30F4A1266B4B5E489A025CE04500DB855911CCE1BBFA185535DD49D89C3CE7EC69F2E44D340AAEF4CF09B4C232AEC10C7A36A7C6AE18000BAB08E0401355224193AEB665337EE76A9D8807E70026AFDDD924BBA25EDD7807873529638B507B45ADBA61544FFC8F1D61C8348
310
BC8695EC7C394E74CED46A50598D53FA6E8016E259AB3EA0BE7EEE9667D76B0611B9E89EF4531034522D497852DF0B947DDAA4FBE51707AD80B1F96C9459952097974BB23805982B55E0401150A165964402AA8BDF1FBF7086BB686EAC5340E071C1F29C157A70AFEFB2C6F60937D3F811B440D5F5434C5CCF7BACBB7E7D11
310
D98544509BC4E219136DC1290F465803204F8E539D0247E560B47CB334F4813183D01AB4274D69730D37503CEAE6A84AA54F96E54F1B7FA75E0A3070B4ECC1DF504B0304140006080000C270623B000000000000000000000000350000006662782F43354338414331352D463944372D343136342D413737322D4436384443
310
373638323733412F76657274696365732E62696E504B0304140006080800C270623BF270F1330600000004000000360000006662782F43354338414331352D463944372D343136342D413737322D4436384443373638323733412F747269616E676C65732E62696E636660600000504B0304140006080000C270623B000000
310
000000000000000000370000006662782F43354338414331352D463944372D343136342D413737322D4436384443373638323733412F617474726962757465732E62696E504B0304140006080800C270623B08DA0BD19000000041010000360000006662782F43354338414331352D463944372D343136342D413737322D44
310
36384443373638323733412F6469726563746F72792E786D6C858F410AC3201045AF22B36F53E9A60B35CBEEBAE80D244E44489C6234F4F835464A48035D0DF398FF9F8AF63D0E6CC63039F212F8F9020C7D47C6792B21C5FE7403D62A1188E2E60C98D7234A5830286103A55745067B9D86B8A3CF9C7F90C11DE607FB1443
310
96D7B6A82D282E9A152AD114D5EF2CB866EEE831B8EEA07A7BB5A8D7D61A2BAAEB7FD5F70921FF497D00504B0304140006080800C270623B00848760FC000000A00100003B0000006662782F43354338414331352D463944372D343136342D413737322D4436384443373638323733412F7265736F75726365732F636F7265
310
2E786D6C8D504B6E833010BD0A9A6D65B009201719474DDA9EA017B0CC84580936F2A7EAF16B0295DA5D3733A3F7D13C3D71FC9AEFC527FA609C1D8095140AB4DA8DC64E03A478211C8AA314DEB9F84B068555330EB0C220C5E45D5A76483B1BD1C68C5A37E20EAA103042A1EFF91820E82BCEAA54296645B8958BD2373561
310
C9CA4C679D1421FA1CA0D89EAC13A4C7E092D71844B5B152A464C65D63C6FCD35C0C7A9007FEFE767A611DA979DB90869F28E1677E26AF34130D655DDBD6A25ACD524433FF64D41E55C411644DE933618CD0FA83353DED7ADA3C51DE532AAA55FEC79496F19FA6646C3CD47BDCCD1640B21CE4414851AD7DE5F52833EFB55B
310
F90D504B010214000A0000080000C270623B3DEE336E79000000790000001B00000000000000000000000000000000006175746F6465736B2D64657369676E2D7061636B6167652E786D6C504B01021400140006080800C270623BD486FD9CA0000000F40000001300000000000000000000000000B20000005B436F6E7465
310
6E745F54797065735D2E786D6C504B01021400140006080800C270623B132FA9F8EA0000007C010000080000000000000000000000000083010000636F72652E786D6C504B01021400140006080800C270623B55019EA25F0000007C000000070000000000000000000000000093020000636E782E786D6C504B0102140014
310
0006080800C270623B0B97CEAB6F010000D40300000C00000000000000000000000000170300006662782F636F72652E786D6C504B01021400140006080800C270623BD9317DDA7D0000009D0000000B00000000000000000000000000B00400006662782F636E782E786D6C504B01021400140006080800C270623B609261
310
632A010000120200003100000000000000000000000000560500006662782F43354338414331352D463944372D343136342D413737322D4436384443373638323733412F636F72652E786D6C504B01021400140006080800C270623BAB1CAE584E010000330300003000000000000000000000000000CF0600006662782F43
310
354338414331352D463944372D343136342D413737322D4436384443373638323733412F636E782E786D6C504B01021400140006080800C270623BCB23EE24670500003C10000034000000000000000000000000006B0800006662782F43354338414331352D463944372D343136342D413737322D44363844433736383237
310
33412F6F626A656374732E786D6C504B01021400140006080000C270623B0000000000000000000000003500000000000000000000000000240E00006662782F43354338414331352D463944372D343136342D413737322D4436384443373638323733412F76657274696365732E62696E504B01021400140006080800C270
310
623BF270F13306000000040000003600000000000000000000000000770E00006662782F43354338414331352D463944372D343136342D413737322D4436384443373638323733412F747269616E676C65732E62696E504B01021400140006080000C270623B00000000000000000000000037000000000000000000000000
310
00D10E00006662782F43354338414331352D463944372D343136342D413737322D4436384443373638323733412F617474726962757465732E62696E504B01021400140006080800C270623B08DA0BD190000000410100003600000000000000000000000000260F00006662782F43354338414331352D463944372D343136
310
342D413737322D4436384443373638323733412F6469726563746F72792E786D6C504B01021400140006080800C270623B00848760FC000000A00100003B000000000000000000000000000A1000006662782F43354338414331352D463944372D343136342D413737322D4436384443373638323733412F7265736F757263
310
65732F636F72652E786D6C504B0506000000000E000E00800400005F1100000000
  0
XRECORD
  5
1EF
102
{ACAD_REACTORS
330
1EE
102
}
330
1EE
100
AcDbXrecord
280
     1
 70
     1
 90
429727718
  1
E2304D28-6187-4406-84E4-1B0A0969D8AC
310
504B03040A0000080000C270623B3DEE336E79000000790000001B0000006175746F6465736B2D64657369676E2D7061636B6167652E786D6C3C3F786D6C2076657273696F6E3D22312E302220656E636F64696E673D227574662D3822203F3E3C666F726D6174733E3C666F726D61743E687474703A2F2F736368656D612E
310
6175746F6465736B2E636F6D2F64657369676E2D7061636B6167652F323030393C2F666F726D61743E3C2F666F726D6174733E504B0304140006080800C270623BD486FD9CA0000000F4000000130000005B436F6E74656E745F54797065735D2E786D6C7D8EC10E82300C865F65E91D8A1E8C310C0EEA1BF002731658846E
310
D98AC1B77784ABF1D8FE5FBFBF75BBCE937A534CCEB38643598122B6FEE978D0B0485F9C41B54DDD7D022595594E1A469170414C76A4D9A4D207E29CF43ECE46F218070CC6BECC4078ACAA135ACF422C856C0E68EA1BF5669944DDD7BCDE7B1F8E415D77AECB980613C2E4AC91FC167A2B244592486606FC29C8FD7F045B9A
310
EF7053A7E60B504B0304140006080800C270623B6C505844EA0000007C01000008000000636F72652E786D6C8D90416EC3201045AF82665B61834B1DC7C244B5EB1BF402088883128365A0EAF18B13476A775DCDE8CF7F33A3CF4FDFF30D7D993558EF3AA00501649CF2DABAA98314CFB80174127CF53EFEB2017272361D6C
310
32083EAD3E2DBBA4BC8BC6C5AC3AAFCD2ECA104C04A46EB9E920A88B99652153CC8E702D16A9AE7232057D76194EC96AF4386275DE67CFD6AC20081DC7633D50FCC1688F197BA3F8FD30F6781846D2B3C3D83475C5CB0D163CDAF9795FAD4646A34154841C31A598549F94B5A46E097B214D4B082F37FB1F282DFA9F50B22E
310
BE56FBBB0F2C80A0F991FB40F072CB22977B50B96EB9891F504B0304140006080800C270623B55019EA25F0000007C00000007000000636E782E786D6C4DCB3B0E80201045D1AD90E915ED2CF8AC45050C11660C8261F98AB1B07AC9C97D42D718D865D3E909258CFD00CCE24AC6E326A164D74DC0B4128928FF326038472B
310
A13128B1252AC747C6BAB984FC68F0B87FE8960A5C09FE86CFB69FBA01504B0304140006080800C270623B85AE40E170010000D40300000C0000006662782F636F72652E786D6CC553ED6E8320147D15C2DF4501E7FA15A4593BDF602F40913A53058360FAF8BB7E345D976EE97ECD1F4ACEB9977BCE41F8F6DCD4A8D7AEAB
310
ACC9308B2946DA285B54A6CC70F0C76885D1567067ADFF528691918DCEF00063C14B67433B43CA1AAF8D07D4D842CFA0EC3AED3152352C32DCA90FDDC858060F15DD296EA53AC952C72C061AEA04EFBC0301681A32BCB1381ECE9C4CB8E02154C5CC56054CAB8E9576585096E7EBC59E456F29DB4569FAC2A2D765BE8BF6FB
310
9CEED265BE5A2D124E8666C17DD55CD429A7A5D7051609A5EB88B18826EF2CDDD0C586A64F74B5A19493A1FCA629B4C5834DA132FE3999E54E6D1D160C848CC437B71091479DEC410F119C0C21C2674CF83668080442F6F2505F7C9C00EAB5F2D6A5C014365CA95ED641C3541AD3F1413F2F38993A61EAB839B8BE3B237978
310
C6EF3BC2514B538209E96179087ED0C9270D7368AD7651EFCFC858D7C8FA311BBF38FC1375157F5792B2B575FFA588CC0744E6DF830CF7517C02504B0304140006080800C270623BD959F09C7C0000009D0000000B0000006662782F636E782E786D6C4DCCD10A83201886E15B91FFDC4A2BF0400D0BBD8F581632D3E13476
310
F9ABD1C18E3E78F878F9F0D93D3A6C7ABB180490AA0164C3232E2E6C024A5E310334489E62CC7F374061DEAD808B41F22DC5F2BA69B1EB5C7C3ED5BBF0BCB11F29514A1BACD44471C74C8BC7C968CC28D13D316DC71A06B5E4F5AF74EE15965F504B0304140006080800C270623BD97BE6F829010000120200003100000066
310
62782F35423231414145462D414143322D343846332D424346452D3832314535314633343830382F636F72652E786D6C8D515B6EC32010BC0AE22B55850D0E8EDC081339517C825E8018E2A2C460F1A872FC42ED48ED5F7E58343B333BB0ECF098EEE05B39AFAD6921293004CA0C566A33B630862B6A203870E6AC0D7F6810
310
1831A916661872363A1BE7151AAC09CA84841A2BD50A0AEF558060B8A74B0BFDF0A52651881812C3DF8A590C3731AA8214A99D789CF9E05200B00CC927E4F5B1225D77EE51D79D2A449B7E8B8EA7FE8C9A8A9C6BD26F69831B562E42CE62D472956B99E2E8AB56EE55932CE62CE8E9197F704A042521AF30FE4084205C7D12
310
BAC7BB3DA6EFB8D963CCCA4CFF278AB37C5114B509DB6A8DBBC83CE484954B833369E3E5FE0CA31EB37501E4791BAF8637C87181714D680AB110D3F393E38EAE8E3E5897BE7773BB242EA917DB1DE5ACCC1B4AE5777DA9E66DF21F504B0304140006080800C270623BAB1CAE584E01000033030000300000006662782F3542
310
3231414145462D414143322D343846332D424346452D3832314535314633343830382F636E782E786D6CD593CD6EC32010845F0571AD6CE3D48AD20813A9873E410FBD12D82434182C7EAAE6EDBB2424CD25871E7B41D6EC30B3FA84F9E67BB2E40B4234DE8DB46F1925E094D7C6ED479AD3AE5951B2113C789FEE6C943839
310
C1488B4C05DF079FE72A69D8C96C13AAD6B8631503449F83828872B949AC57D26200B826A308D316B4064D6E46FCDA41C05550DC9E483A00797BFD207EFB092A45DE9514C1BBD22178396BD39D891265658C238DEA00936C654E5E433CB65A26D9F6EDB5EBC14EBF49A45CB856E66048291F6939A9A81BB5C8917738143CA6
310
80F4AA299D66A042CEB3354A2684DC9D8D178FE0D9B8B41CAAD720F880EE7EF93C0C18769E099ECC04D5A102C8049A8A05632F4DDF376CF1DE0F6BB65CB3E189ADD68CF1AED805DF7A6FEB258C81E067A2BC4BE012153DEFCAF811BEEA23DA0464EDC3E90F2011406DBDD0B965FC673EDDF97D23AE807F81F801504B030414
310
0006080800C270623B086A6785630500003C100000340000006662782F35423231414145462D414143322D343846332D424346452D3832314535314633343830382F6F626A656374732E786D6CAD575D739B3814FD2B0CFB0C189BA4CE0EA193D849C6D34DDBA9A79D7DC88C47804CD8006224913AFDF57B040203B65BEF87
310
1F0C12D2FD3CF7E8CA7FBFCB33E3957291B2E2DA74ED8969D02262715A24D76625B7D6DC34DE073E674CF696994641727A6DAA6933F013CEAA524FC5744BAA4C8E66EF6FFF3444440B6A1A514684B83645F44C7362934AB2988A173B2692D8C97667BB76B3702836E1A47C1E092D09A78584A5982F20C5688C7287C389E904
310
BEA3BE07BEFAD7AB66A75739B53F43FD69212429A20365233133D75BDE4D2FAEAC0BCF9B59DEE5D4B56EEF6F9796FB6E36595C2E1657377757502C2487246D09A75B3378406C781AF94EF3A9B3581B7ECCA48815058D6AFFE1616DB39618D3921631F29852016D3DAF27C3A1AB62D3FB3C5363ADB23F7D9E57FD1D3D41ADED
310
EDB36F290BFF820BE21C54704115AA9AF868471BFC4DF6510B19CBF4B75418399194A72433B234E484BF990196AA25813F10A3D0C915C2950766E0EEE5F56D4569FC1ABBC7ACDC5659A6A0690635B237C03F95A2B62CFD41F9716DB009B9AAD242CEB543F2ADA46670E53BF564E0ABC76CAA3F368134B619499072B8D97C1D
310
39BA50B5B75A9AC187FB70B756F5785C79C95949B954F001B4DAC4B54F1525ADD63D2B736A039C19C47C1F942F88FC4794EFDE14E48DA73B6FE7692D9293426C19CF911B7B52FF8C49FB62756F872FE0B3D1EAC335DDCCBF5AEC3B9DB143C238953F804BA566FEDFF3378C591FA9BDF405FE2B0A8CF1990EE53A2219A8E731
310
2D9010054A23639802976FC39D19ACC0946076EC2259D005E4E0C5775EF11DFF8D6CB055ADBEF72C90D011DF9EC1FC88655D16B0ED04580E78B256AC9D3B15F38BFFA5666E96EB0FEB8A6F49441F35B12CE9362D5289B3730FDEBE4183440C3C7AA16FDF198FE1E86112D6FD24E45A9540B455CC55E093F6B05083BDE68182
310
08FB12A638CFFF8586C7544434CB484159D56AE98E2185D58E64749F802A6C023A9B8E50CCE96BAA3A89C18A815938EB239E962A64DDA1D7F1B47DC297AFAB8F00A519DCBEFD41DEFA8419EEE93E6219E39BF06DD330A109F061CF10DDDF86F0D61175941420BEC6724B393AC49B38DD6E2B01DE3D12C56FAB453F531D911C
310
BEB405D46A6C6AD2033BA3F608D7F06D75A221E004073B2B36298E7194E551E57DDD6305A2967B427E58E5E586E4AC2AE439619AB4FEB4D677C2FB5D8CF84E64F46C06EBFA69DD82B2631A9F48A83A828EF83448CFDD7436F196D3B975E9CEDF599E37B9B4E6DE9D67B9B7939BC9D5E5D5727E83F00F2BA03DA1FA358868E2
310
44F42B9EEA307F5DEDCBD60C1E8914CE4353504ED23CBFAE6CB4C5BE833D0078B771959719CD69218982EFA37AC9BE1074150319CDFC2A27093D43CAA787F5C806CC9CB1EFB32A35FA7DB457CF2E542D1C15229FAB3C2C489A8D366AC7EDB248B4DB6D28BB67C3E8ED508D743CD1870A96A53108273612CA722A413B67B03D
310
CFA90062FA5D79AC6F0F67EC7E6DFA4149C28CB6963C13B4C49900AA413A552487F3C66F68E15417756DE2B0B35FF0A70BD13490EA6B13FC26D3880A3BC4F1A81A9F5A3820802EAC2341809E144986CEBAD9D48DBB5D2A36A01F9C805A7FB7E49C6E49FB3520DE9C94254EED01ADD6B66905D13F72BC35C72012AF61253B5F
310
F6139D33B59A005C0377BA075A8817AD7A87FAFAB95BAE5DAF1944E4AC7BD24F41D048B524E1497D2F5041D726DD2C3F3B68058CD527A3CCAA04B93C5F92C529C05CA902078A800A2DB32412505DFCFEF49933DC4573E33E05049E162CCF59A10737FA2E6BAC9F71338D9F400B545D3FC474E2BA4F75D7AF2F229B90086A93
310
58BC60A22D38E5C1086B00E4C171AAAF678ECAC168F96A69E803C383D01AB4074D69730D37503CEAE6A84AA54F96E54F1B7FA75E0A1470B4ECC1DF504B0304140006080000C270623B000000000000000000000000350000006662782F35423231414145462D414143322D343846332D424346452D38323145353146333438
310
30382F76657274696365732E62696E504B0304140006080800C270623BF270F1330600000004000000360000006662782F35423231414145462D414143322D343846332D424346452D3832314535314633343830382F747269616E676C65732E62696E636660600000504B0304140006080000C270623B0000000000000000
310
00000000370000006662782F35423231414145462D414143322D343846332D424346452D3832314535314633343830382F617474726962757465732E62696E504B0304140006080800C270623B08DA0BD19000000041010000360000006662782F35423231414145462D414143322D343846332D424346452D383231453531
310
4633343830382F6469726563746F72792E786D6C858F410AC3201045AF22B36F53E9A60B35CBEEBAE80D244E44489C6234F4F835464A48035D0DF398FF9F8AF63D0E6CC63039F212F8F9020C7D47C6792B21C5FE7403D62A1188E2E60C98D7234A5830286103A55745067B9D86B8A3CF9C7F90C11DE607FB144396D7B6A82D
310
282E9A152AD114D5EF2CB866EEE831B8EEA07A7BB5A8D7D61A2BAAEB7FD5F70921FF497D00504B0304140006080800C270623B7FFB76DCFC000000A00100003B0000006662782F35423231414145462D414143322D343846332D424346452D3832314535314633343830382F7265736F75726365732F636F72652E786D6C8D
310
504B6E833010BD0A9A6D65B029250419478572835EC032136A25D8C89FAAC7AF09546A77DDCC8CDE47F3F4F8E56BB9679FE8BCB6A6039653C8D0283B69337710C39534905D0477D6865F32C88C5CB0830D06C16767E37A40CA9A802624D4D8090F507A8F0132754F47075E7DE02273194352F85BBE4A759333E62C4F74D209
310
EE834B01B2FDC9364138F4363A859E173B2B788C7A3A347A4A3FF555A30341D9389EEB8192B78AF5A4AA5E18793D8D3D198691F6D5696C9ABAE4C566163CE8E527A37228034E204A4ACF843142CB7756B5B46E69F5449B96525E6CF23FA6B84EFF34456DC27379C4DD6D1E044B411E84E0C5D6575A8F32D3DEBA15DF504B01
310
0214000A0000080000C270623B3DEE336E79000000790000001B00000000000000000000000000000000006175746F6465736B2D64657369676E2D7061636B6167652E786D6C504B01021400140006080800C270623BD486FD9CA0000000F40000001300000000000000000000000000B20000005B436F6E74656E745F5479
310
7065735D2E786D6C504B01021400140006080800C270623B6C505844EA0000007C010000080000000000000000000000000083010000636F72652E786D6C504B01021400140006080800C270623B55019EA25F0000007C000000070000000000000000000000000093020000636E782E786D6C504B01021400140006080800
310
C270623B85AE40E170010000D40300000C00000000000000000000000000170300006662782F636F72652E786D6C504B01021400140006080800C270623BD959F09C7C0000009D0000000B00000000000000000000000000B10400006662782F636E782E786D6C504B01021400140006080800C270623BD97BE6F829010000
310
120200003100000000000000000000000000560500006662782F35423231414145462D414143322D343846332D424346452D3832314535314633343830382F636F72652E786D6C504B01021400140006080800C270623BAB1CAE584E010000330300003000000000000000000000000000CE0600006662782F354232314141
310
45462D414143322D343846332D424346452D3832314535314633343830382F636E782E786D6C504B01021400140006080800C270623B086A6785630500003C10000034000000000000000000000000006A0800006662782F35423231414145462D414143322D343846332D424346452D3832314535314633343830382F6F62
310
6A656374732E786D6C504B01021400140006080000C270623B00000000000000000000000035000000000000000000000000001F0E00006662782F35423231414145462D414143322D343846332D424346452D3832314535314633343830382F76657274696365732E62696E504B01021400140006080800C270623BF270F1
310
3306000000040000003600000000000000000000000000720E00006662782F35423231414145462D414143322D343846332D424346452D3832314535314633343830382F747269616E676C65732E62696E504B01021400140006080000C270623B0000000000000000000000003700000000000000000000000000CC0E0000
310
6662782F35423231414145462D414143322D343846332D424346452D3832314535314633343830382F617474726962757465732E62696E504B01021400140006080800C270623B08DA0BD190000000410100003600000000000000000000000000210F00006662782F35423231414145462D414143322D343846332D424346
310
452D3832314535314633343830382F6469726563746F72792E786D6C504B01021400140006080800C270623B7FFB76DCFC000000A00100003B00000000000000000000000000051000006662782F35423231414145462D414143322D343846332D424346452D3832314535314633343830382F7265736F75726365732F636F
310
72652E786D6C504B0506000000000E000E00800400005A1100000000
  0
XRECORD
  5
16C
102
{ACAD_REACTORS
330
16A
102
}
330
16A
100
AcDbXrecord
280
     1
270
     1
271
     1
  0
XRECORD
  5
16B
102
{ACAD_REACTORS
330
16A
102
}
330
16A
100
AcDbXrecord
280
     1
270
     1
271
     1
  0
XRECORD
  5
1F2
102
{ACAD_REACTORS
330
16A
102
}
330
16A
100
AcDbXrecord
280
     1
 70
     0
 90
1673772943
  1
AEB1D1DA-B7DF-4CBA-830A-738AA2653737
310
504B03040A0000080000C270623B3DEE336E79000000790000001B0000006175746F6465736B2D64657369676E2D7061636B6167652E786D6C3C3F786D6C2076657273696F6E3D22312E302220656E636F64696E673D227574662D3822203F3E3C666F726D6174733E3C666F726D61743E687474703A2F2F736368656D612E
310
6175746F6465736B2E636F6D2F64657369676E2D7061636B6167652F323030393C2F666F726D61743E3C2F666F726D6174733E504B0304140006080800C270623BD486FD9CA0000000F4000000130000005B436F6E74656E745F54797065735D2E786D6C7D8EC10E82300C865F65E91D8A1E8C310C0EEA1BF002731658846E
310
D98AC1B77784ABF1D8FE5FBFBF75BBCE937A534CCEB38643598122B6FEE978D0B0485F9C41B54DDD7D022595594E1A469170414C76A4D9A4D207E29CF43ECE46F218070CC6BECC4078ACAA135ACF422C856C0E68EA1BF5669944DDD7BCDE7B1F8E415D77AECB980613C2E4AC91FC167A2B244592486606FC29C8FD7F045B9A
310
EF7053A7E60B504B0304140006080800C270623BC5983BD0EB0000007C01000008000000636F72652E786D6C8D904D6EC3201085AF82665B6103F1BF3091AB2427E80510262E4A0C9681AAC72F4E1CA9DD7535A337EF9B193D7EFC9EEFE84BAFDE38DB03CD08206D951B8D9D7A88E18A1B4047C157E7C22F1B202B67DDC326
310
83E0D3EAE2B24BCAD9A06D48AA75A3DE45E9BD0E80D43D353D78F5A96799C91892C3DFB245AA9B9C74465F5D826334237A1E3163DA67AE46AF20CABAA887E1FD82D9401A5C9CCA136ED8E58CEBF650B2BAA8CE557BE6F9060B1ECCFCBAAF562D831E4130425A4C2926EC83161DA93A52BC91A62384E79BFD0F1497F19F5034
310
361CD8FEEE13F320687AE431103CDFB248E51154AA5B6EE207504B0304140006080800C270623B55019EA25F0000007C00000007000000636E782E786D6C4DCB3B0E80201045D1AD90E915ED2CF8AC45050C11660C8261F98AB1B07AC9C97D42D718D865D3E909258CFD00CCE24AC6E326A164D74DC0B4128928FF32603847
310
2BA13128B1252AC747C6BAB984FC68F0B87FE8960A5C09FE86CFB69FBA01504B0304140006080800C270623BEE35DAD072010000D40300000C0000006662782F636F72652E786D6CC553ED6E8230147D95A67F1768411435A5C6457D82BD4085CA1AA125A5253EFE2E1FC6B938E37E8D1FD09C736FEF39A7946D2E75853A69
310
5B657486A3906224756E0AA5CB0C7B770A96186D38B3C6B86F65186951CB0CF730E6ACB4C63713941BEDA476806A53C809146D2B1D4679058B0CB7F9A7AC4528BC838AF61C36223F8B5286510834D471D63A0B02D038A47F637E3A5E181971CEBC57C5C4AA02A6A9939216F3799AA4DBEDFB2188B7741924BBF92E58C6877D
310
90AE66F3384D16FBC56ACF48DFCC9953F5555D6EA570B2C03CA67415445140E38F2859D3C59A266F74B9A69491BEFCAEC937C58B4D5E69378B27B9635B8B79044206E2875B88C8A15674A0877046FA10E133247C1F340402213B71ACAE3ECE00753277C626C014C6DFA84E545EC2541AD2E141BF2F18193B61EAB039B87E38
310
237E79C6F31DE1A8852EC18470B03C7AD7EB64A38629B446DAA07317A48DAD45F59A8D270EFF44DDC43F94949BCAD8FF5244A60322D3EF41FAFBC8BF00504B0304140006080800C270623BD65DADFA7E0000009D0000000B0000006662782F636E782E786D6C4DCCD10A83201886E15B91FFDC651665A0C64C771FB12C62A6
310
C3E9D8E5AF46073BFAE0E1E3E5FD6773E86DE36B0D5E40792180ACBF8769F58B809C66CC00F592C710D2DF0D901F372BE060907C89213F4F9AEC3C66977675AB7F9C488DBA1A4309AE06D6E25ADD4ADCB5BAC2A4D1BAA135EBD440A190BCF895F63DC2F20B504B0304140006080800C270623B16D345222A01000012020000
310
310000006662782F32454241454532302D334338372D344246312D393744332D3036444436323438394243322F636F72652E786D6C8D515B6EC32010BC0AE2AB55850DC4719C0813358F9EA01720405294182C1E558E5FA81DA9FDCB0F8B66676607966DEFC30D7C6B1F8CB33D241586405BE994B1971EA678461D045BCEBC
310
73F10F0D022B06DDC30243CE2EDEA57186A4B351DB9851EB949E4111828E10C85BBEF430C82F3D884AA49819E15A8D425EC54557A4CAEDCCE32C449F038069483921A7C7DDFBF148315AECBB156A761F04AD578705C2EDE1D0D2A65BEFF694D59390B3948C9AE546E538E66CB47FD6A488398B6678C4975E8BA855D663BC46
310
84204C3F49B3C1ED06376FB8DB60CCEA42FF274AA37A52948C8D0B3AC79D640172C2EAA9C19972E9747B84D1F7D1F908CABC97A0E52BE4B8C2784968CBEA89989F9F1DDB66760CD1F9FCBD2FD753E692E564DB369CD56543B9FCAE2FD7B24DFE03504B0304140006080800C270623BAB1CAE584E0100003303000030000000
310
6662782F32454241454532302D334338372D344246312D393744332D3036444436323438394243322F636E782E786D6CD593CD6EC32010845F0571AD6CE3D48AD20813A9873E410FBD12D82434182C7EAAE6EDBB2424CD25871E7B41D6EC30B3FA84F9E67BB2E40B4234DE8DB46F1925E094D7C6ED479AD3AE5951B2113C78
310
9FEE6C943839C1488B4C05DF079FE72A69D8C96C13AAD6B8631503449F83828872B949AC57D26200B826A308D316B4064D6E46FCDA41C05550DC9E483A00797BFD207EFB092A45DE9514C1BBD22178396BD39D891265658C238DEA00936C654E5E433CB65A26D9F6EDB5EBC14EBF49A45CB856E66048291F6939A9A81BB5C8
310
917738143CA680F4AA299D66A042CEB3354A2684DC9D8D178FE0D9B8B41CAAD720F880EE7EF93C0C18769E099ECC04D5A102C8049A8A05632F4DDF376CF1DE0F6BB65CB3E189ADD68CF1AED805DF7A6FEB258C81E067A2BC4BE012153DEFCAF811BEEA23DA0464EDC3E90F2011406DBDD0B965FC673EDDF97D23AE807F81F8
310
01504B0304140006080800C270623B849BF81A650500003B100000340000006662782F32454241454532302D334338372D344246312D393744332D3036444436323438394243322F6F626A656374732E786D6CAD575B739B3814FE2B0CFB0C98D869921D42C797A6E3E9A4CDD4D3CE3E64C62340266C406224913AFBEBF713
310
080CD869BD173F18248ECEF53B1705EFF7456EBD502133CE6E6DDF9DD81665314F3296DEDA95DA39D7B6F53E0C04E7AA47665B8C14F4D6D6DB7618A48257A5D94AE88E54B91AEDDE2DFEB0644C19B5AD382752DEDA327EA2057149A57842E5B39B1045DC74B7777DB7211CB24D05299F464C4B222853D014FB0C5CAC46297F
310
B89CD85E1878FA7B18E87F43357D9BCAABED19CACF985484C547C2466CA6FE6CF5E1E2F2C6B99CCDA6CEECDD85EF2CEE162BC7BF9A4E96EF96CB9BF9871B08964A8093D144D09D1D7E846F4416075EF3A9D3D8287E4AA5983346E3DA7E5858EB6C3826B4A42C411C332A21AD67F564B8F4B56F7A9FA77A6D44F6B7CFB3AA7F
310
A2C7A8D5BD7DF635E5D19F30419E830A21A94655E31F636883BFC9C16B11E7B9F99649AB208A8A8CE4569E458288573B04A9260983011B8D4EA111AE2DB043FFC0AFAF2B52E3D7D83DA5E5AECA730D4D3BAC91BD05FEA992B566D95F549C96069D10AB2A63EADA18A45E4B6A873781576F86817E4C2FCCC7C691D62E272942
310
0E339BAF2343973AF7D62B3BFC7417ED373A1F4F0B2F052FA9501A3E80561BB8F6A9BD64C4FA67454E1F8031039F1F9CF2159EFF8CF43DA882B8896C3FDBCF8C142508933B2E0AC4C69DD43F6BD2BE38DDDBF10BEAD988FA98A6DBF957C481D7293B2C186FC50FE0D2A1B9FEEFF11BFAAC8FD45EF8C2E00509C6C5D4B87213
310
931CA5E73E63088806A595736CA196EFA2BD1DAE512951D9718AE461E790A397C07BC177FC37BC51AD6AF1BD27434047F5F68CCA0F5FD66901DDDE00CB519DAC051BE3DEF2F9E5FF9233F3D5E6D3A6123B12D37B5358567497B14CA1771EC0DB576810888145CFF4F50717090C3D0EC2A61F84C28892F0B6F6B9767CDA360B
310
BD38481E0888712EE5BAE605BF90709FC998E639619457AD94AE0D69AC7645C6CC09C8C2C6A1D38B118A057DC9F42431A018A8855E1F8BACD42EEB9A5E57A7DD376CF9B6FE0C50823EE711C90F44D1A1DAC73CE7621BBD6E9B4268037B383204F7F721BA8D433DCD0580AFA1DC561CE3E16D92ED769544D93DE1C4EFEB653F
310
505D1D397E69F3A795D8A4E40CC519A94784416F2B13F38020E8EB9C6D33747164E549E17DD96301B2E6FB06FFA82ACA2D2978C5D4396E9AB4F6B4DA77CCFB438CFC4154FC64879BFAE92C50B1139A1C42350081EE40276C1A8467FE61E1AFFCD5DC595CADEE9CD9723177AEA793B97335BD9ECF2FDE5D4EAFA6579D46B526
310
61D036A87E0AC29B6888412532E3E66FEB43D6DAE13D51D2FBD8E4939736CF6F6B175371E0E10CF0DD1D5C17654E0BCA14D1E8BDD72FF95782A162C0A3D95F1724A56770F9F27133D2013B679C7BD099467F8CCE9ADDA5CE85934CD45355448C64F9E8A031DC2D596ACC6E5DD93D9B82DE2EF5CAF81363A8E47996A0DE2456
310
4A794115AACE19C55E14540231FDA13C319787334EBF34E3A022514E5B4D9E0826E25C02D5805B15ABE1BEF51B26383D44DDDAE875EE33FE4C22DA16427D6BA3BCA92CA6D28DD01DF5DC53330704308475351050232CCD31583787BA75774AFB06E5070DD0C8EF48CE19968C5D83BA5B90B244D31E54D55A372320FE4786B7
310
EA5844E135AA5467CB61A333A61683CC6A8C3257034C10CF46F41EF9F573B37CB7A61978E4AC6BD24F41D070751411697D2DD0FA1995E6AB070F9380B5FE629579952296E773720405982B9DE04011506178964401AACBDF1F1F04C755B4B0EE3240E071C98B8233B3989BABACB579C2C534794459A0FAF6212F26BEFF580F
310
FDE61EB28D88A42E49E43336DA84D3168CB006401E755313024FC76044BE5E59A661CCC0B406EDD14CDADCC22D248FBE38EA54E917CBF2A773BF5793020C02137BF837504B0304140006080000C270623B000000000000000000000000350000006662782F32454241454532302D334338372D344246312D393744332D3036
310
444436323438394243322F76657274696365732E62696E504B0304140006080800C270623BF270F1330600000004000000360000006662782F32454241454532302D334338372D344246312D393744332D3036444436323438394243322F747269616E676C65732E62696E636660600000504B0304140006080000C270623B
310
000000000000000000000000370000006662782F32454241454532302D334338372D344246312D393744332D3036444436323438394243322F617474726962757465732E62696E504B0304140006080800C270623B08DA0BD19000000041010000360000006662782F32454241454532302D334338372D344246312D393744
310
332D3036444436323438394243322F6469726563746F72792E786D6C858F410AC3201045AF22B36F53E9A60B35CBEEBAE80D244E44489C6234F4F835464A48035D0DF398FF9F8AF63D0E6CC63039F212F8F9020C7D47C6792B21C5FE7403D62A1188E2E60C98D7234A5830286103A55745067B9D86B8A3CF9C7F90C11DE607
310
FB144396D7B6A82D282E9A152AD114D5EF2CB866EEE831B8EEA07A7BB5A8D7D61A2BAAEB7FD5F70921FF497D00504B0304140006080800C270623BAD7266E1FD000000A00100003B0000006662782F32454241454532302D334338372D344246312D393744332D3036444436323438394243322F7265736F75726365732F63
310
6F72652E786D6C8D50596E833010BD0A9ADFCA6008BB8C23AAD013F4029699502BC1465EAA1EBF26A152FBD79F99D15B344F8F9DBFD67BF289D629A307C8530A096A6966A5970182BF9216923367D618FF4B0689162B0EB0C3C0D9624DD80E481AED51FB886A33E3010AE7D04322EFF118C0C90F5C452A828F0A774B37216F
310
62C1344F231D759C396F6380E4F9649FC02D3A13AC44C7B227CB59086A3E346A8E3FD555A1055E3565338EAF132946DA92F2525D485BBC4DA4E94E55D194F5547713CB7633675EAD3F19A545E171065E50DA913C27B478CFCB9ED63D2D5F68DB53CAB25DFEC714B6F99FA6A0B43F1547DCA7CD01CF639007C159B6F715D7A3
310
CCB8F76EF937504B010214000A0000080000C270623B3DEE336E79000000790000001B00000000000000000000000000000000006175746F6465736B2D64657369676E2D7061636B6167652E786D6C504B01021400140006080800C270623BD486FD9CA0000000F40000001300000000000000000000000000B20000005B43
310
6F6E74656E745F54797065735D2E786D6C504B01021400140006080800C270623BC5983BD0EB0000007C010000080000000000000000000000000083010000636F72652E786D6C504B01021400140006080800C270623B55019EA25F0000007C000000070000000000000000000000000094020000636E782E786D6C504B01
310
021400140006080800C270623BEE35DAD072010000D40300000C00000000000000000000000000180300006662782F636F72652E786D6C504B01021400140006080800C270623BD65DADFA7E0000009D0000000B00000000000000000000000000B40400006662782F636E782E786D6C504B01021400140006080800C27062
310
3B16D345222A0100001202000031000000000000000000000000005B0500006662782F32454241454532302D334338372D344246312D393744332D3036444436323438394243322F636F72652E786D6C504B01021400140006080800C270623BAB1CAE584E010000330300003000000000000000000000000000D406000066
310
62782F32454241454532302D334338372D344246312D393744332D3036444436323438394243322F636E782E786D6C504B01021400140006080800C270623B849BF81A650500003B1000003400000000000000000000000000700800006662782F32454241454532302D334338372D344246312D393744332D303644443632
310
3438394243322F6F626A656374732E786D6C504B01021400140006080000C270623B0000000000000000000000003500000000000000000000000000270E00006662782F32454241454532302D334338372D344246312D393744332D3036444436323438394243322F76657274696365732E62696E504B0102140014000608
310
0800C270623BF270F133060000000400000036000000000000000000000000007A0E00006662782F32454241454532302D334338372D344246312D393744332D3036444436323438394243322F747269616E676C65732E62696E504B01021400140006080000C270623B000000000000000000000000370000000000000000
310
0000000000D40E00006662782F32454241454532302D334338372D344246312D393744332D3036444436323438394243322F617474726962757465732E62696E504B01021400140006080800C270623B08DA0BD190000000410100003600000000000000000000000000290F00006662782F32454241454532302D33433837
310
2D344246312D393744332D3036444436323438394243322F6469726563746F72792E786D6C504B01021400140006080800C270623BAD7266E1FD000000A00100003B000000000000000000000000000D1000006662782F32454241454532302D334338372D344246312D393744332D3036444436323438394243322F726573
310
6F75726365732F636F72652E786D6C504B0506000000000E000E0080040000631100000000
  0
XRECORD
  5
16D
102
{ACAD_REACTORS
330
16A
102
}
330
16A
100
AcDbXrecord
280
     1
270
     1
271
     1
  0
XRECORD
  5
16E
102
{ACAD_REACTORS
330
16A
102
}
330
16A
100
AcDbXrecord
280
     1
270
     1
271
     1
  0
XRECORD
  5
28F8
102
{ACAD_REACTORS
330
22B
102
}
330
22B
100
AcDbXrecord
280
     1
102
DISPLAYNAME
  1
Metric50
102
FLAGS
 90
        0
  0
CELLSTYLEMAP
  5
28F7
102
{ACAD_REACTORS
330
159
102
}
330
159
100
AcDbCellStyleMap
 90
        3
300
CELLSTYLE
  1
TABLEFORMAT_BEGIN
 90
        5
170
     1
 91
        0
 92
    32768
 62
   257
 93
        1
300
CONTENTFORMAT
  1
CONTENTFORMAT_BEGIN
 90
        0
 91
        0
 92
      512
 93
        0
300

 40
0.0
140
1.0
 94
        5
 62
     0
340
11
144
6.0
309
CONTENTFORMAT_END
171
     1
301
MARGIN
  1
CELLMARGIN_BEGIN
 40
1.5
 40
1.5
 40
1.5
 40
1.5
 40
4.5
 40
4.5
309
CELLMARGIN_END
 94
        6
 95
        1
302
GRIDFORMAT
  1
GRIDFORMAT_BEGIN
 90
        0
 91
        1
 62
     0
 92
       -2
340
14
 93
        0
 40
1.125
309
GRIDFORMAT_END
 95
        2
302
GRIDFORMAT
  1
GRIDFORMAT_BEGIN
 90
        0
 91
        1
 62
     0
 92
       -2
340
14
 93
        0
 40
1.125
309
GRIDFORMAT_END
 95
        4
302
GRIDFORMAT
  1
GRIDFORMAT_BEGIN
 90
        0
 91
        1
 62
     0
 92
       -2
340
14
 93
        0
 40
1.125
309
GRIDFORMAT_END
 95
        8
302
GRIDFORMAT
  1
GRIDFORMAT_BEGIN
 90
        0
 91
        1
 62
     0
 92
       -2
340
14
 93
        0
 40
1.125
309
GRIDFORMAT_END
 95
       16
302
GRIDFORMAT
  1
GRIDFORMAT_BEGIN
 90
        0
 91
        1
 62
     0
 92
       -2
340
14
 93
        0
 40
1.125
309
GRIDFORMAT_END
 95
       32
302
GRIDFORMAT
  1
GRIDFORMAT_BEGIN
 90
        0
 91
        1
 62
     0
 92
       -2
340
14
 93
        0
 40
1.125
309
GRIDFORMAT_END
309
TABLEFORMAT_END
  1
CELLSTYLE_BEGIN
 90
        1
 91
        1
300
_TITLE
309
CELLSTYLE_END
300
CELLSTYLE
  1
TABLEFORMAT_BEGIN
 90
        5
170
     1
 91
        0
 92
        0
 62
   257
 93
        1
300
CONTENTFORMAT
  1
CONTENTFORMAT_BEGIN
 90
        0
 91
        0
 92
      512
 93
        0
300

 40
0.0
140
1.0
 94
        5
 62
     0
340
11
144
4.5
309
CONTENTFORMAT_END
171
     1
301
MARGIN
  1
CELLMARGIN_BEGIN
 40
1.5
 40
1.5
 40
1.5
 40
1.5
 40
4.5
 40
4.5
309
CELLMARGIN_END
 94
        6
 95
        1
302
GRIDFORMAT
  1
GRIDFORMAT_BEGIN
 90
        0
 91
        1
 62
     0
 92
       -2
340
14
 93
        0
 40
1.125
309
GRIDFORMAT_END
 95
        2
302
GRIDFORMAT
  1
GRIDFORMAT_BEGIN
 90
        0
 91
        1
 62
     0
 92
       -2
340
14
 93
        0
 40
1.125
309
GRIDFORMAT_END
 95
        4
302
GRIDFORMAT
  1
GRIDFORMAT_BEGIN
 90
        0
 91
        1
 62
     0
 92
       -2
340
14
 93
        0
 40
1.125
309
GRIDFORMAT_END
 95
        8
302
GRIDFORMAT
  1
GRIDFORMAT_BEGIN
 90
        0
 91
        1
 62
     0
 92
       -2
340
14
 93
        0
 40
1.125
309
GRIDFORMAT_END
 95
       16
302
GRIDFORMAT
  1
GRIDFORMAT_BEGIN
 90
        0
 91
        1
 62
     0
 92
       -2
340
14
 93
        0
 40
1.125
309
GRIDFORMAT_END
 95
       32
302
GRIDFORMAT
  1
GRIDFORMAT_BEGIN
 90
        0
 91
        1
 62
     0
 92
       -2
340
14
 93
        0
 40
1.125
309
GRIDFORMAT_END
309
TABLEFORMAT_END
  1
CELLSTYLE_BEGIN
 90
        2
 91
        1
300
_HEADER
309
CELLSTYLE_END
300
CELLSTYLE
  1
TABLEFORMAT_BEGIN
 90
        5
170
     1
 91
        0
 92
        0
 62
   257
 93
        1
300
CONTENTFORMAT
  1
CONTENTFORMAT_BEGIN
 90
        0
 91
        0
 92
      512
 93
        0
300

 40
0.0
140
1.0
 94
        2
 62
     0
340
11
144
4.5
309
CONTENTFORMAT_END
171
     1
301
MARGIN
  1
CELLMARGIN_BEGIN
 40
1.5
 40
1.5
 40
1.5
 40
1.5
 40
4.5
 40
4.5
309
CELLMARGIN_END
 94
        6
 95
        1
302
GRIDFORMAT
  1
GRIDFORMAT_BEGIN
 90
        0
 91
        1
 62
     0
 92
       -2
340
14
 93
        0
 40
1.125
309
GRIDFORMAT_END
 95
        2
302
GRIDFORMAT
  1
GRIDFORMAT_BEGIN
 90
        0
 91
        1
 62
     0
 92
       -2
340
14
 93
        0
 40
1.125
309
GRIDFORMAT_END
 95
        4
302
GRIDFORMAT
  1
GRIDFORMAT_BEGIN
 90
        0
 91
        1
 62
     0
 92
       -2
340
14
 93
        0
 40
1.125
309
GRIDFORMAT_END
 95
        8
302
GRIDFORMAT
  1
GRIDFORMAT_BEGIN
 90
        0
 91
        1
 62
     0
 92
       -2
340
14
 93
        0
 40
1.125
309
GRIDFORMAT_END
 95
       16
302
GRIDFORMAT
  1
GRIDFORMAT_BEGIN
 90
        0
 91
        1
 62
     0
 92
       -2
340
14
 93
        0
 40
1.125
309
GRIDFORMAT_END
 95
       32
302
GRIDFORMAT
  1
GRIDFORMAT_BEGIN
 90
        0
 91
        1
 62
     0
 92
       -2
340
14
 93
        0
 40
1.125
309
GRIDFORMAT_END
309
TABLEFORMAT_END
  1
CELLSTYLE_BEGIN
 90
        3
 91
        2
300
_DATA
309
CELLSTYLE_END
  0
ENDSEC
  0
SECTION
  2
ACDSDATA
 70
     2
 71
     8
  0
ACDSSCHEMA
 90
        0
  1
AcDb_Thumbnail_Schema
  2
AcDbDs::ID
280
    10
 91
        8
  2
Thumbnail_Data
280
    15
 91
        0
101
ACDSRECORD
 95
        0
 90
        1
  2
AcDbDs::TreatedAsObjectData
280
     1
291
     1
101
ACDSRECORD
 95
        0
 90
        2
  2
AcDbDs::Legacy
280
     1
291
     1
101
ACDSRECORD
  1
AcDbDs::ID
 90
        3
  2
AcDs:Indexable
280
     1
291
     1
101
ACDSRECORD
  1
AcDbDs::ID
 90
        4
  2
AcDbDs::HandleAttribute
280
     7
282
     1
  0
ACDSSCHEMA
 90
        1
  1
AcDbDs::TreatedAsObjectDataSchema
  2
AcDbDs::TreatedAsObjectData
280
     1
 91
        0
  0
ACDSSCHEMA
 90
        2
  1
AcDbDs::LegacySchema
  2
AcDbDs::Legacy
280
     1
 91
        0
  0
ACDSSCHEMA
 90
        3
  1
AcDbDs::IndexedPropertySchema
  2
AcDs:Indexable
280
     1
 91
        0
  0
ACDSSCHEMA
 90
        4
  1
AcDbDs::HandleAttributeSchema
  2
AcDbDs::HandleAttribute
280
     7
 91
        1
284
     1
  0
ACDSRECORD
 90
        0
  2
AcDbDs::ID
280
    10
320
22
  2
Thumbnail_Data
280
    15
 94
     3270
310
89504E470D0A1A0A0000000D49484452000001340000010008030000000AB47A1600000300504C5445212830000000C8C8C80000000000000000000000000000000000000000000000000000330000660000990000CC0000FF0033000033330033660033990033CC0033FF0066000066330066660066990066CC0066FF0099
310
000099330099660099990099CC0099FF00CC0000CC3300CC6600CC9900CCCC00CCFF00FF0000FF3300FF6600FF9900FFCC00FFFF3300003300333300663300993300CC3300FF3333003333333333663333993333CC3333FF3366003366333366663366993366CC3366FF3399003399333399663399993399CC3399FF33CC00
310
33CC3333CC6633CC9933CCCC33CCFF33FF0033FF3333FF6633FF9933FFCC33FFFF6600006600336600666600996600CC6600FF6633006633336633666633996633CC6633FF6666006666336666666666996666CC6666FF6699006699336699666699996699CC6699FF66CC0066CC3366CC6666CC9966CCCC66CCFF66FF0066
310
FF3366FF6666FF9966FFCC66FFFF9900009900339900669900999900CC9900FF9933009933339933669933999933CC9933FF9966009966339966669966999966CC9966FF9999009999339999669999999999CC9999FF99CC0099CC3399CC6699CC9999CCCC99CCFF99FF0099FF3399FF6699FF9999FFCC99FFFFCC0000CC00
310
33CC0066CC0099CC00CCCC00FFCC3300CC3333CC3366CC3399CC33CCCC33FFCC6600CC6633CC6666CC6699CC66CCCC66FFCC9900CC9933CC9966CC9999CC99CCCC99FFCCCC00CCCC33CCCC66CCCC99CCCCCCCCCCFFCCFF00CCFF33CCFF66CCFF99CCFFCCCCFFFFFF0000FF0033FF0066FF0099FF00CCFF00FFFF3300FF3333
310
FF3366FF3399FF33CCFF33FFFF6600FF6633FF6666FF6699FF66CCFF66FFFF9900FF9933FF9966FF9999FF99CCFF99FFFFCC00FFCC33FFCC66FFCC99FFCCCCFFCCFFFFFF00FFFF33FFFF66FFFF99FFFFCCFFFFFF0000000D0D0D1A1A1A2828283535354343435050505D5D5D6B6B6B787878868686939393A1A1A1AEAEAEBB
310
BBBBC9C9C9D6D6D6E4E4E4F1F1F1FFFFFF000000000000000000000000000000000000000000000000000000000000B21171F6000004F14944415478DAED9C5D72A3301006759CEFFEE7E11AFBBEA918C368F40BC6C496BA370FA9CAC6A0CE48331ACB84000000000000000000000000000000000000000000000000000000
310
0000000000000000000000000000000000000000000000000000000070907F40109C081B14200D69489B5B1A1993483B115D48431AD2908634A4C10DD296C9B82DD296DFAFD2CF964B2F74CF2FDC2D4D3F5F12D2FAA5E94140DAA148D3FA0F693A284D95354D2F5C71497F6CBE5B2F1B2F0EEE7FE97669F29C999ED16BC52F
310
7B5EDAF3B7DDAB14A595467291B4F485958CC967CFB2B4FDA564469C8ACA68AC4B2BB8B6D27A467259A429739B45696B9CB5D7B4AAB496836CA4FD5E391F38D1856A23B96E7A2AB93917064B7477D5354DF66655505472B6BE9437A4F81595FF85AE915C2B4DF1B7F1CDA591F69234F91F34234DDBDF2B2B2DB9FDE248DEB2
310
A635A535770472434C12C1769D4C32A866CF5AE650E748AE9216C7476B7A9E9156B8AC2A0EF6B55CC5849548EB18C95BA415674D9F34739B6A4489540B9C7D06AB1A7B6569A11ACB2F4BF3B5972ED9B037A455EB349978ED8CB4474E6F8EE40D91D62E6E43E6B6EB25C7BEC898DFCC1B88A525DF95234D52E748AE9366CBD1
310
90CB6CBEE4089592C32EC451C233635269022D6EBDCB6593DA9AD61CC985D2ECED15AEE436EC7D2547569A545E7596B4E03EB4A63547F21E69C9DE32BBF72CF7D3DAD26A1BECA59C9EFA22AD3592774D4FDF48C8AD695D3B02B7D21C96A6A3755AC748AE4C04C1FD4D5D4960236D9F621D91F692347F57B95265C9E6EAF248
310
2E96F6F813D928D2A9488B12412864CF50CF9E7ED871BCA4FDB4E48AC591FC4DE7B6953D69779F8834A4BDB223185A5AE73BACBC594CA4DDFE6671BAF7944958DAEB259B2065EB0E49932502572CFD4833DDE9A8705FDFED7B16E65BA77C36690A7EF3B845DA568D2B6D32EC9B9A6707E7BBA52943559AABD4E2E919479A09
310
396DD336DDDA0C2E2DF36E8991B66EB2A2E56D9F9EDB96267F8DC1A5495E5A8882CB2700D71AA8F574478E347969B3951C48BB237B661201D24E941C483B5EDC22EDCC360A696CD8690DD11A624D9B3D7BDA4DD3F6CE53885A698D4EDAE8C56DFC7EEC73C3BEBF39FCDCAA07DB4A6B75D2462F6E33AD21B31397E233B37BD8
310
553B69034B332705B25D8EA8CF116C2BADD5499B4F9AFBE840323DA566276D74694A9A90D19455E6889342D791D2E9A45172D4BB1C812E07D2680DB18DA235446B88D61091C69A46F61CA54E4BDFC2DB7B68C959B5D676F345073AC05FF6D30AA7868CA3E4ACDAD4D20AC7127CF7CC9E553B646D5869217B6A28333D89B45A
310
A4D9E3A2C959B5BF95F629ADA1ECA921FB8882DC59B599A57DDEA9A12F91F659A786BE411AC52DDB2836ECB486680D313D59D3AEC99EF6E34FE55276DB8CDA3A79DAD650B403D89E75123F252744CFD031078CE690566C0DD9FE4688E3717FBA8839A9B59E251A5E5AAD35145269F6138BF6F4900DCDD9A585687A9A0796C8
310
2C6899C7374D20CD3D3AC47D0A2F84DAC120F77C98F2235B8793C607CABEBD35F4B52507D2680DB18DA235446B88D610D393358DECF90175DA5AA951A71D90963C7E14691D7BCFAD638134A4210D6963644F12012507C52DDB285A43B486680DCD04D2908634A4210D6948431AD2908634A4210D6948431AD2908634A4210D
310
6948431AD2908634A4210D6948431AD2908634A4210D6948431AD2900648431AD2908634401AD2908634A401D2903680B4FFCBD163EB738BC0460000000049454E44AE4260826BE816B4BA9D90099369A2082EAF3FCD5C5F47D0BAD848D33BEAAD3115847619DACEA89F5B208D032D18DC6EE170666EDE7B639A0434D7154E
310
42AF0DB756EF6A78C69760FB7937B4B895F8D04CC3CB2CAE17FAB9D576B66FF94B689366A3A70F2F53271D9383264A684EF1B4AB35785D5658199AC384A61CC1C581AAEF41E35D17EF59DAAFFBD3C62E9EC20A39EC7ACC3C4770DE0CA1FD871CC2C264E20BED4503EB71086D85B687682692DDF751C20096A6E3F37D0F1CBB
310
BC3C9C91118206383BEEE85F4D4EFC0A9A590467AEE8145A9D892CA13AAD57477025DF404D6803851CD7F2BD56272238C9B140F17C67C851F1EE942315CF5AD040687E5F98BF3E1D07EFF91568B097AC3EB3B4977BCF18911C68DE969DF61AFE7BDED324334E83DD0592C83804ACDE667D44EC7D86B7A0657B4FFD02DA5ADA
310
ED4256D97BDE85366D87AA43DB2B7358CD02E16F95710A2D50469F871CB8024D3D6F0F0D516881796B47072A8E3B6195EAB975026833123085BEBF068E20AF8805F64BAF7683F524347184665BDAD4C2D2B25BF267D0D0081A4E1CC1D409B4AD30B6EB4F7BCB18415368E334D8112A9531687ED790281C72608016813B516C
310
E7900D2D49EFCDD0DCC64FC07FE6B8DC4F42CB2F667B2C7240261E7742629006FB617CE2C446EA2D751D08DA6118E9B4BF3BE5033E11725408EC6B841C96CD9D3E6A14A7E53383D37035C37EEE0690A55B04C29EB26C030A1DEB71B038EC268BEDB2F75268E97883D092E5D3ED03B256A010DAA588433C1D58B1C708F0A649
310
7D59CDCE9B032BE334D8EF74B2F94D82DD059B9601A1B16B88D0088DD008EDB50D765ADAEBA05DDF979ED0088DD0088DD0CA38EE71750FDAE745684DA051F36568D43518B4B0FB5B575214455114455114455114455114455114455114455114455114455114455114455114455114455114455114455114455114455114F5
310
32FD01B100840B6B41BB2A0000000049454E44AE4260829D1CA50000000049454E44AE4260829464D3889A05F4B587861CB45CC1EDF39075306B280EDA8EF9A7BA1DD187BD8DDA8DD3A8B623783E3497E098A9A2F714EF979EF4B23810E52994258786C8BDD07CD71BF6C29A2626FF3C0A1A35A026A03DA679921E0C09EC96
310
2576D22AED089E010D71DA43A11D871CE2F8B773C51735EDB81B2556AF84CF021AA0011AA03D0A1A1C01428E2F8E72001AA0011AA0011AA0011AE234681A342D0E1A8BD7536A4D31919BA7BF1CDBD1E7E9DACF678011934A99E454CDD0CB33B27DF76F6B1AD166AD33BB8D80486C6E29DFD1029ACB4C40FEFA2392EFB4EDCA
310
928F3B02F102ECE2CBB0A8E6F9837C2FE4C82C80560CDA0851024DBBA36E90CCD0D02077DA2804028140201008040281402010080402814020EF963F294604A98DA3964E0000000049454E44AE42608240D2C46D12811D11498041F220691E9A9434CAEE7888BA2874DA4CEE3E23953C3D4494C9A6FF4D810A34A47E9783DE
310
27691B0DE8766E09D000ED3268480D29814690B40E7953909FDE54BA3290B4A6CF01B45E6648DD0992064983A4C110001AA0011AA0011AA0011AA0011AA0011AA0011AA0011AA00D85F6071FF2081925625F020000000049454E44AE426082
  0
ACDSRECORD
 90
        0
  2
AcDbDs::ID
280
    10
320
D3
  2
Thumbnail_Data
280
    15
 94
     1155
310
89504E470D0A1A0A0000000D4948445200000100000000B5080300000087DCD12600000300504C5445FFFFFF000000C8C8C80000000000000000000000000000000000000000000000000000330000660000990000CC0000FF0033000033330033660033990033CC0033FF0066000066330066660066990066CC0066FF0099
310
000099330099660099990099CC0099FF00CC0000CC3300CC6600CC9900CCCC00CCFF00FF0000FF3300FF6600FF9900FFCC00FFFF3300003300333300663300993300CC3300FF3333003333333333663333993333CC3333FF3366003366333366663366993366CC3366FF3399003399333399663399993399CC3399FF33CC00
310
33CC3333CC6633CC9933CCCC33CCFF33FF0033FF3333FF6633FF9933FFCC33FFFF6600006600336600666600996600CC6600FF6633006633336633666633996633CC6633FF6666006666336666666666996666CC6666FF6699006699336699666699996699CC6699FF66CC0066CC3366CC6666CC9966CCCC66CCFF66FF0066
310
FF3366FF6666FF9966FFCC66FFFF9900009900339900669900999900CC9900FF9933009933339933669933999933CC9933FF9966009966339966669966999966CC9966FF9999009999339999669999999999CC9999FF99CC0099CC3399CC6699CC9999CCCC99CCFF99FF0099FF3399FF6699FF9999FFCC99FFFFCC0000CC00
310
33CC0066CC0099CC00CCCC00FFCC3300CC3333CC3366CC3399CC33CCCC33FFCC6600CC6633CC6666CC6699CC66CCCC66FFCC9900CC9933CC9966CC9999CC99CCCC99FFCCCC00CCCC33CCCC66CCCC99CCCCCCCCCCFFCCFF00CCFF33CCFF66CCFF99CCFFCCCCFFFFFF0000FF0033FF0066FF0099FF00CCFF00FFFF3300FF3333
310
FF3366FF3399FF33CCFF33FFFF6600FF6633FF6666FF6699FF66CCFF66FFFF9900FF9933FF9966FF9999FF99CCFF99FFFFCC00FFCC33FFCC66FFCC99FFCCCCFFCCFFFFFF00FFFF33FFFF66FFFF99FFFFCCFFFFFF0000000D0D0D1A1A1A2828283535354343435050505D5D5D6B6B6B787878868686939393A1A1A1AEAEAEBB
310
BBBBC9C9C9D6D6D6E4E4E4F1F1F1FFFFFF000000000000000000000000000000000000000000000000000000000000B0E2D2350000013E4944415478DAEDDDB11184301443C1DF7F998A5D0483134A30A07540018FB1F6A26356F99935D547801D20C97EB43D9F009D6F3FAE8000AE8000020860040570050410800214A080
310
0D1040000A508002364000012840010AD8000104A000052860030410800214A0800D1040000A508002364000012840010AD8000104A000052860030410800214A0800D104080BF2A9093E70D0AE4F05B39AE404B80082080004650005740000104A000056C80000250800214B001020840010A50C006082000052840011B20
310
800014A000056C80000250800214B001020840010A50C006082000052840011B20800014A000056C80000250800214B001020840010A50C006082000052840011B20800014A000056C80000250800214B0015F0F50F2EFF2BE2F303EB222802B208000021841016C407D80FD1BBCEF690304B803949F0B2119936F10150AC9
310
0000000049454E44AE426082
  0
ENDSEC
  0
EOF
