  0
SECTION
  2
HEADER
  9
$ACADVER
  1
AC1027
  9
$ACADMAINTVER
 70
   106
  9
$DWGCODEPAGE
  3
ANSI_932
  9
$LASTSAVEDBY
  1
takamura205
  9
$REQUIREDVERSIONS
160
                 0
  9
$INSBASE
 10
0.0
 20
0.0
 30
0.0
  9
$EXTMIN
 10
33316.24093491148
 20
28289.23237812787
 30
0.0
  9
$EXTMAX
 10
35416.24093491148
 20
29774.23237812787
 30
0.0
  9
$LIMMIN
 10
0.0
 20
0.0
  9
$LIMMAX
 10
420.0
 20
297.0
  9
$ORTHOMODE
 70
     0
  9
$REGENMODE
 70
     1
  9
$FILLMODE
 70
     1
  9
$QTEXTMODE
 70
     0
  9
$MIRRTEXT
 70
     0
  9
$LTSCALE
 40
1.0
  9
$ATTMODE
 70
     1
  9
$TEXTSIZE
 40
2.5
  9
$TRACEWID
 40
1.0
  9
$TEXTSTYLE
  7
Standard
  9
$CLAYER
  8
寸法線
  9
$CELTYPE
  6
ByLayer
  9
$CECOLOR
 62
   256
  9
$CELTSCALE
 40
1.0
  9
$DISPSILH
 70
     0
  9
$DIMSCALE
 40
1.0
  9
$DIMASZ
 40
2.5
  9
$DIMEXO
 40
0.625
  9
$DIMDLI
 40
3.75
  9
$DIMRND
 40
0.0
  9
$DIMDLE
 40
0.0
  9
$DIMEXE
 40
1.25
  9
$DIMTP
 40
0.0
  9
$DIMTM
 40
0.0
  9
$DIMTXT
 40
20.0
  9
$DIMCEN
 40
2.5
  9
$DIMTSZ
 40
0.0
  9
$DIMTOL
 70
     0
  9
$DIMLIM
 70
     0
  9
$DIMTIH
 70
     0
  9
$DIMTOH
 70
     0
  9
$DIMSE1
 70
     0
  9
$DIMSE2
 70
     0
  9
$DIMTAD
 70
     1
  9
$DIMZIN
 70
     8
  9
$DIMBLK
  1

  9
$DIMASO
 70
     1
  9
$DIMSHO
 70
     1
  9
$DIMPOST
  1

  9
$DIMAPOST
  1

  9
$DIMALT
 70
     0
  9
$DIMALTD
 70
     3
  9
$DIMALTF
 40
0.03937007874016
  9
$DIMLFAC
 40
1.0
  9
$DIMTOFL
 70
     1
  9
$DIMTVP
 40
0.0
  9
$DIMTIX
 70
     0
  9
$DIMSOXD
 70
     0
  9
$DIMSAH
 70
     0
  9
$DIMBLK1
  1

  9
$DIMBLK2
  1

  9
$DIMSTYLE
  2
ISO-25
  9
$DIMCLRD
 70
     0
  9
$DIMCLRE
 70
     0
  9
$DIMCLRT
 70
     0
  9
$DIMTFAC
 40
1.0
  9
$DIMGAP
 40
0.625
  9
$DIMJUST
 70
     0
  9
$DIMSD1
 70
     0
  9
$DIMSD2
 70
     0
  9
$DIMTOLJ
 70
     0
  9
$DIMTZIN
 70
     8
  9
$DIMALTZ
 70
     0
  9
$DIMALTTZ
 70
     0
  9
$DIMUPT
 70
     0
  9
$DIMDEC
 70
     2
  9
$DIMTDEC
 70
     2
  9
$DIMALTU
 70
     2
  9
$DIMALTTD
 70
     3
  9
$DIMTXSTY
  7
Standard
  9
$DIMAUNIT
 70
     0
  9
$DIMADEC
 70
     0
  9
$DIMALTRND
 40
0.0
  9
$DIMAZIN
 70
     0
  9
$DIMDSEP
 70
    44
  9
$DIMATFIT
 70
     3
  9
$DIMFRAC
 70
     0
  9
$DIMLDRBLK
  1

  9
$DIMLUNIT
 70
     2
  9
$DIMLWD
 70
    -2
  9
$DIMLWE
 70
    -2
  9
$DIMTMOVE
 70
     0
  9
$DIMFXL
 40
1.0
  9
$DIMFXLON
 70
     0
  9
$DIMJOGANG
 40
0.7853981633974483
  9
$DIMTFILL
 70
     0
  9
$DIMTFILLCLR
 70
     0
  9
$DIMARCSYM
 70
     0
  9
$DIMLTYPE
  6

  9
$DIMLTEX1
  6

  9
$DIMLTEX2
  6

  9
$DIMTXTDIRECTION
 70
     0
  9
$LUNITS
 70
     2
  9
$LUPREC
 70
     4
  9
$SKETCHINC
 40
1.0
  9
$FILLETRAD
 40
1.0
  9
$AUNITS
 70
     0
  9
$AUPREC
 70
     0
  9
$MENU
  1
.
  9
$ELEVATION
 40
0.0
  9
$PELEVATION
 40
0.0
  9
$THICKNESS
 40
0.0
  9
$LIMCHECK
 70
     0
  9
$CHAMFERA
 40
0.0
  9
$CHAMFERB
 40
0.0
  9
$CHAMFERC
 40
0.0
  9
$CHAMFERD
 40
0.0
  9
$SKPOLY
 70
     0
  9
$TDCREATE
 40
2457175.672123785
  9
$TDUCREATE
 40
2457175.297123785
  9
$TDUPDATE
 40
2457871.476339317
  9
$TDUUPDATE
 40
2457871.101339317
  9
$TDINDWG
 40
0.6109624074
  9
$TDUSRTIMER
 40
0.6109623032
  9
$USRTIMER
 70
     1
  9
$ANGBASE
 50
0.0
  9
$ANGDIR
 70
     0
  9
$PDMODE
 70
     0
  9
$PDSIZE
 40
0.0
  9
$PLINEWID
 40
0.0
  9
$SPLFRAME
 70
     0
  9
$SPLINETYPE
 70
     6
  9
$SPLINESEGS
 70
     8
  9
$HANDSEED
  5
E5D
  9
$SURFTAB1
 70
     6
  9
$SURFTAB2
 70
     6
  9
$SURFTYPE
 70
     6
  9
$SURFU
 70
     6
  9
$SURFV
 70
     6
  9
$UCSBASE
  2

  9
$UCSNAME
  2

  9
$UCSORG
 10
0.0
 20
0.0
 30
0.0
  9
$UCSXDIR
 10
1.0
 20
0.0
 30
0.0
  9
$UCSYDIR
 10
0.0
 20
1.0
 30
0.0
  9
$UCSORTHOREF
  2

  9
$UCSORTHOVIEW
 70
     0
  9
$UCSORGTOP
 10
0.0
 20
0.0
 30
0.0
  9
$UCSORGBOTTOM
 10
0.0
 20
0.0
 30
0.0
  9
$UCSORGLEFT
 10
0.0
 20
0.0
 30
0.0
  9
$UCSORGRIGHT
 10
0.0
 20
0.0
 30
0.0
  9
$UCSORGFRONT
 10
0.0
 20
0.0
 30
0.0
  9
$UCSORGBACK
 10
0.0
 20
0.0
 30
0.0
  9
$PUCSBASE
  2

  9
$PUCSNAME
  2

  9
$PUCSORG
 10
0.0
 20
0.0
 30
0.0
  9
$PUCSXDIR
 10
1.0
 20
0.0
 30
0.0
  9
$PUCSYDIR
 10
0.0
 20
1.0
 30
0.0
  9
$PUCSORTHOREF
  2

  9
$PUCSORTHOVIEW
 70
     0
  9
$PUCSORGTOP
 10
0.0
 20
0.0
 30
0.0
  9
$PUCSORGBOTTOM
 10
0.0
 20
0.0
 30
0.0
  9
$PUCSORGLEFT
 10
0.0
 20
0.0
 30
0.0
  9
$PUCSORGRIGHT
 10
0.0
 20
0.0
 30
0.0
  9
$PUCSORGFRONT
 10
0.0
 20
0.0
 30
0.0
  9
$PUCSORGBACK
 10
0.0
 20
0.0
 30
0.0
  9
$USERI1
 70
     0
  9
$USERI2
 70
     0
  9
$USERI3
 70
     0
  9
$USERI4
 70
     0
  9
$USERI5
 70
     0
  9
$USERR1
 40
0.0
  9
$USERR2
 40
0.0
  9
$USERR3
 40
0.0
  9
$USERR4
 40
0.0
  9
$USERR5
 40
0.0
  9
$WORLDVIEW
 70
     1
  9
$SHADEDGE
 70
     3
  9
$SHADEDIF
 70
    70
  9
$TILEMODE
 70
     1
  9
$MAXACTVP
 70
    64
  9
$PINSBASE
 10
0.0
 20
0.0
 30
0.0
  9
$PLIMCHECK
 70
     0
  9
$PEXTMIN
 10
25.69999999999999
 20
19.5
 30
0.0
  9
$PEXTMAX
 10
231.3
 20
175.5
 30
0.0
  9
$PLIMMIN
 10
-4.9847412109375
 20
-4.984749794006347
  9
$PLIMMAX
 10
415.0042419433593
 20
292.0259008407593
  9
$UNITMODE
 70
     0
  9
$VISRETAIN
 70
     1
  9
$PLINEGEN
 70
     0
  9
$PSLTSCALE
 70
     1
  9
$TREEDEPTH
 70
  3020
  9
$CMLSTYLE
  2
Standard
  9
$CMLJUST
 70
     0
  9
$CMLSCALE
 40
20.0
  9
$PROXYGRAPHICS
 70
     1
  9
$MEASUREMENT
 70
     1
  9
$CELWEIGHT
370
    -1
  9
$ENDCAPS
280
     0
  9
$JOINSTYLE
280
     0
  9
$LWDISPLAY
290
     0
  9
$INSUNITS
 70
     4
  9
$HYPERLINKBASE
  1

  9
$STYLESHEET
  1
monochrome.stb
  9
$XEDIT
290
     1
  9
$CEPSNTYPE
380
     0
  9
$PSTYLEMODE
290
     0
  9
$FINGERPRINTGUID
  2
{083708C7-F509-4151-B42C-06F3721D7F80}
  9
$VERSIONGUID
  2
{DAF651A4-BBF7-40A5-8086-323E32F52CAD}
  9
$EXTNAMES
290
     1
  9
$PSVPSCALE
 40
0.0
  9
$OLESTARTUP
290
     0
  9
$SORTENTS
280
   127
  9
$INDEXCTL
280
     0
  9
$HIDETEXT
280
     1
  9
$XCLIPFRAME
280
     2
  9
$HALOGAP
280
     0
  9
$OBSCOLOR
 70
   257
  9
$OBSLTYPE
280
     0
  9
$INTERSECTIONDISPLAY
280
     0
  9
$INTERSECTIONCOLOR
 70
   257
  9
$DIMASSOC
280
     2
  9
$PROJECTNAME
  1

  9
$CAMERADISPLAY
290
     0
  9
$LENSLENGTH
 40
50.0
  9
$CAMERAHEIGHT
 40
1524.0
  9
$STEPSPERSEC
 40
2.0
  9
$STEPSIZE
 40
6.0
  9
$3DDWFPREC
 40
2.0
  9
$PSOLWIDTH
 40
5.0
  9
$PSOLHEIGHT
 40
80.0
  9
$LOFTANG1
 40
1.570796326794896
  9
$LOFTANG2
 40
1.570796326794896
  9
$LOFTMAG1
 40
0.0
  9
$LOFTMAG2
 40
0.0
  9
$LOFTPARAM
 70
     7
  9
$LOFTNORMALS
280
     1
  9
$LATITUDE
 40
37.795
  9
$LONGITUDE
 40
-122.394
  9
$NORTHDIRECTION
 40
0.0
  9
$TIMEZONE
 70
 -8000
  9
$LIGHTGLYPHDISPLAY
280
     1
  9
$TILEMODELIGHTSYNCH
280
     1
  9
$CMATERIAL
347
E3
  9
$SOLIDHIST
280
     0
  9
$SHOWHIST
280
     1
  9
$DWFFRAME
280
     2
  9
$DGNFRAME
280
     0
  9
$REALWORLDSCALE
290
     1
  9
$INTERFERECOLOR
 62
     1
  9
$INTERFEREOBJVS
345
F0
  9
$INTERFEREVPVS
346
ED
  9
$CSHADOW
280
     0
  9
$SHADOWPLANELOCATION
 40
0.0
  0
ENDSEC
  0
SECTION
  2
CLASSES
  0
CLASS
  1
ACDBDICTIONARYWDFLT
  2
AcDbDictionaryWithDefault
  3
ObjectDBX Classes
 90
        0
 91
        1
280
     0
281
     0
  0
CLASS
  1
DICTIONARYVAR
  2
AcDbDictionaryVar
  3
ObjectDBX Classes
 90
        0
 91
       10
280
     0
281
     0
  0
CLASS
  1
TABLESTYLE
  2
AcDbTableStyle
  3
ObjectDBX Classes
 90
     4095
 91
        1
280
     0
281
     0
  0
CLASS
  1
MATERIAL
  2
AcDbMaterial
  3
ObjectDBX Classes
 90
     1153
 91
        3
280
     0
281
     0
  0
CLASS
  1
VISUALSTYLE
  2
AcDbVisualStyle
  3
ObjectDBX Classes
 90
     4095
 91
       24
280
     0
281
     0
  0
CLASS
  1
SCALE
  2
AcDbScale
  3
ObjectDBX Classes
 90
     1153
 91
       17
280
     0
281
     0
  0
CLASS
  1
MLEADERSTYLE
  2
AcDbMLeaderStyle
  3
ACDB_MLEADERSTYLE_CLASS
 90
     4095
 91
        2
280
     0
281
     0
  0
CLASS
  1
CELLSTYLEMAP
  2
AcDbCellStyleMap
  3
ObjectDBX Classes
 90
     1152
 91
        1
280
     0
281
     0
  0
CLASS
  1
EXACXREFPANELOBJECT
  2
ExAcXREFPanelObject
  3
EXAC_ESW
 90
     1025
 91
        0
280
     0
281
     0
  0
CLASS
  1
NPOCOLLECTION
  2
AcDbImpNonPersistentObjectsCollection
  3
ObjectDBX Classes
 90
     1153
 91
        0
280
     0
281
     0
  0
CLASS
  1
LAYER_INDEX
  2
AcDbLayerIndex
  3
ObjectDBX Classes
 90
        0
 91
        0
280
     0
281
     0
  0
CLASS
  1
SPATIAL_INDEX
  2
AcDbSpatialIndex
  3
ObjectDBX Classes
 90
        0
 91
        0
280
     0
281
     0
  0
CLASS
  1
IDBUFFER
  2
AcDbIdBuffer
  3
ObjectDBX Classes
 90
        0
 91
        0
280
     0
281
     0
  0
CLASS
  1
ACDBSECTIONVIEWSTYLE
  2
AcDbSectionViewStyle
  3
ObjectDBX Classes
 90
     1025
 91
        1
280
     0
281
     0
  0
CLASS
  1
ACDBDETAILVIEWSTYLE
  2
AcDbDetailViewStyle
  3
ObjectDBX Classes
 90
     1025
 91
        1
280
     0
281
     0
  0
CLASS
  1
DIMASSOC
  2
AcDbDimAssoc
  3
"AcDbDimAssoc|Product Desc:     AcDim ARX App For Dimension|Company:          Autodesk, Inc.|WEB Address:      www.autodesk.com"
 90
        0
 91
        9
280
     0
281
     0
  0
CLASS
  1
SORTENTSTABLE
  2
AcDbSortentsTable
  3
ObjectDBX Classes
 90
        0
 91
        1
280
     0
281
     0
  0
CLASS
  1
PLOTSETTINGS
  2
AcDbPlotSettings
  3
ObjectDBX Classes
 90
        0
 91
        1
280
     0
281
     0
  0
ENDSEC
  0
SECTION
  2
TABLES
  0
TABLE
  2
VPORT
  5
8
330
0
100
AcDbSymbolTable
 70
     1
  0
VPORT
  5
E1
330
8
100
AcDbSymbolTableRecord
100
AcDbViewportTableRecord
  2
*Active
 70
     0
 10
0.0
 20
0.0
 11
1.0
 21
1.0
 12
34436.90606385954
 22
28732.46541505114
 13
0.0
 23
0.0
 14
10.0
 24
10.0
 15
10.0
 25
10.0
 16
0.0
 26
0.0
 36
1.0
 17
0.0
 27
0.0
 37
0.0
 40
2955.263739516038
 41
1.203585147247119
 42
50.0
 43
0.0
 44
0.0
 50
0.0
 51
0.0
 71
     0
 72
  1000
 73
     1
 74
     3
 75
     0
 76
     1
 77
     0
 78
     0
281
     0
 65
     1
110
0.0
120
0.0
130
0.0
111
1.0
121
0.0
131
0.0
112
0.0
122
1.0
132
0.0
 79
     0
146
0.0
348
EC
 60
     3
 61
     5
292
     1
282
     1
141
0.0
142
0.0
 63
   250
421
  3355443
1001
ACAD_NAV_VCDISPLAY
1070
     3
  0
ENDTAB
  0
TABLE
  2
LTYPE
  5
5
330
0
100
AcDbSymbolTable
 70
     4
  0
LTYPE
  5
14
330
5
100
AcDbSymbolTableRecord
100
AcDbLinetypeTableRecord
  2
ByBlock
 70
     0
  3

 72
    65
 73
     0
 40
0.0
  0
LTYPE
  5
15
330
5
100
AcDbSymbolTableRecord
100
AcDbLinetypeTableRecord
  2
ByLayer
 70
     0
  3

 72
    65
 73
     0
 40
0.0
  0
LTYPE
  5
16
330
5
100
AcDbSymbolTableRecord
100
AcDbLinetypeTableRecord
  2
Continuous
 70
     0
  3
Solid line
 72
    65
 73
     0
 40
0.0
  0
LTYPE
  5
25A
330
5
100
AcDbSymbolTableRecord
100
AcDbLinetypeTableRecord
  2
ACAD_ISO04W100
 70
     0
  3
ISO long-dash dot ____ . ____ . ____ . ____ . _
 72
    65
 73
     4
 40
30.0
 49
24.0
 74
     0
 49
-3.0
 74
     0
 49
0.0
 74
     0
 49
-3.0
 74
     0
  0
LTYPE
  5
25E
330
5
100
AcDbSymbolTableRecord
100
AcDbLinetypeTableRecord
  2
ACAD_ISO02W100
 70
     0
  3
ISO dash __ __ __ __ __ __ __ __ __ __ __ __ __
 72
    65
 73
     2
 40
15.0
 49
12.0
 74
     0
 49
-3.0
 74
     0
  0
LTYPE
  5
260
330
5
100
AcDbSymbolTableRecord
100
AcDbLinetypeTableRecord
  2
ACAD_ISO07W100
 70
     0
  3
ISO dot . . . . . . . . . . . . . . . . . . . .
 72
    65
 73
     2
 40
3.0
 49
0.0
 74
     0
 49
-3.0
 74
     0
  0
ENDTAB
  0
TABLE
  2
LAYER
  5
2
102
{ACAD_XDICTIONARY
360
1F6
102
}
330
0
100
AcDbSymbolTable
 70
    14
  0
LAYER
  5
10
102
{ACAD_XDICTIONARY
360
133
102
}
330
2
100
AcDbSymbolTableRecord
100
AcDbLayerTableRecord
  2
0
 70
     0
 62
     7
  6
Continuous
370
    -3
390
F
347
E5
348
0
  0
LAYER
  5
255
330
2
100
AcDbSymbolTableRecord
100
AcDbLayerTableRecord
  2
中心線
 70
     0
 62
     3
  6
ACAD_ISO04W100
370
     9
390
F
347
E5
348
0
1001
AcAecLayerStandard
1000

1000

1001
AcCmTransparency
1071
        0
  0
LAYER
  5
25B
330
2
100
AcDbSymbolTableRecord
100
AcDbLayerTableRecord
  2
外形線②
 70
     0
 62
     7
  6
Continuous
370
    15
390
F
347
E5
348
0
1001
AcAecLayerStandard
1000

1000

1001
AcCmTransparency
1071
        0
  0
LAYER
  5
25C
330
2
100
AcDbSymbolTableRecord
100
AcDbLayerTableRecord
  2
寸法線
 70
     0
 62
     3
  6
Continuous
370
    13
390
F
347
E5
348
0
1001
AcAecLayerStandard
1000

1000

1001
AcCmTransparency
1071
        0
  0
LAYER
  5
25D
330
2
100
AcDbSymbolTableRecord
100
AcDbLayerTableRecord
  2
点線
 70
     0
 62
     4
  6
ACAD_ISO02W100
370
     9
390
F
347
E5
348
0
1001
AcAecLayerStandard
1000

1000

1001
AcCmTransparency
1071
        0
  0
LAYER
  5
25F
330
2
100
AcDbSymbolTableRecord
100
AcDbLayerTableRecord
  2
オフセット
 70
     0
 62
    -6
  6
Continuous
370
    13
390
F
347
E5
348
0
1001
AcAecLayerStandard
1000

1000

1001
AcCmTransparency
1071
        0
  0
LAYER
  5
271
330
2
100
AcDbSymbolTableRecord
100
AcDbLayerTableRecord
  2
Defpoints
 70
     0
 62
     7
  6
Continuous
290
     0
370
    -3
390
F
347
E5
348
0
  0
LAYER
  5
2F1
330
2
100
AcDbSymbolTableRecord
100
AcDbLayerTableRecord
  2
ビューポート
 70
     0
 62
     3
  6
Continuous
370
    15
390
F
347
E5
348
0
1001
AcAecLayerStandard
1000

1000

1001
AcCmTransparency
1071
        0
  0
LAYER
  5
382
330
2
100
AcDbSymbolTableRecord
100
AcDbLayerTableRecord
  2
外形線
 70
     0
 62
     7
  6
Continuous
370
    15
390
F
347
E5
348
0
1001
AcAecLayerStandard
1000

1000

1001
AcCmTransparency
1071
        0
  0
LAYER
  5
430
330
2
100
AcDbSymbolTableRecord
100
AcDbLayerTableRecord
  2
LED器具
 70
     0
 62
     4
  6
Continuous
370
    13
390
F
347
E5
348
0
1001
AcAecLayerStandard
1000

1000

1001
AcCmTransparency
1071
        0
  0
LAYER
  5
44D
330
2
100
AcDbSymbolTableRecord
100
AcDbLayerTableRecord
  2
孔
 70
     0
 62
     4
  6
Continuous
370
    15
390
F
347
E5
348
0
1001
AcAecLayerStandard
1000

1000

1001
AcCmTransparency
1071
        0
  0
LAYER
  5
AAC
330
2
100
AcDbSymbolTableRecord
100
AcDbLayerTableRecord
  2
枠線
 70
     0
 62
     2
  6
Continuous
370
     9
390
F
347
E5
348
0
1001
AcAecLayerStandard
1000

1000

1001
AcCmTransparency
1071
        0
  0
LAYER
  5
CEA
102
{ACAD_XDICTIONARY
360
CEB
102
}
330
2
100
AcDbSymbolTableRecord
100
AcDbLayerTableRecord
  2
1
 70
     0
 62
     7
  6
Continuous
370
    -3
390
F
347
E5
348
0
  0
LAYER
  5
DBB
330
2
100
AcDbSymbolTableRecord
100
AcDbLayerTableRecord
  2
○
 70
     0
 62
     3
  6
Continuous
370
     9
390
F
347
E5
348
0
1001
AcAecLayerStandard
1000

1000

1001
AcCmTransparency
1071
        0
  0
ENDTAB
  0
TABLE
  2
STYLE
  5
3
330
0
100
AcDbSymbolTable
 70
     4
  0
STYLE
  5
11
330
3
100
AcDbSymbolTableRecord
100
AcDbTextStyleTableRecord
  2
Standard
 70
     0
 40
0.0
 41
1.0
 50
0.0
 71
     0
 42
2.5
  3
arial.ttf
  4

1001
ACAD
1000
Arial
1071
       34
  0
STYLE
  5
129
330
3
100
AcDbSymbolTableRecord
100
AcDbTextStyleTableRecord
  2
Annotative
 70
     0
 40
0.0
 41
1.0
 50
0.0
 71
     0
 42
2.5
  3
arial.ttf
  4

1001
AcadAnnotative
1000
AnnotativeData
1002
{
1070
     1
1070
     1
1002
}
1001
ACAD
1000
Arial
1071
       34
  0
STYLE
  5
259
330
3
100
AcDbSymbolTableRecord
100
AcDbTextStyleTableRecord
  2

 70
     1
 40
0.0
 41
1.0
 50
0.0
 71
     0
 42
2.5
  3
ltypeshp.shx
  4

  0
STYLE
  5
CEC
330
3
100
AcDbSymbolTableRecord
100
AcDbTextStyleTableRecord
  2
BIGFONT
 70
     0
 40
1.0
 41
1.0
 50
0.0
 71
     0
 42
1.0
  3
TXT
  4
BIGFONT
  0
ENDTAB
  0
TABLE
  2
VIEW
  5
6
330
0
100
AcDbSymbolTable
 70
     0
  0
ENDTAB
  0
TABLE
  2
UCS
  5
7
330
0
100
AcDbSymbolTable
 70
     0
  0
ENDTAB
  0
TABLE
  2
APPID
  5
9
330
0
100
AcDbSymbolTable
 70
    13
  0
APPID
  5
12
330
9
100
AcDbSymbolTableRecord
100
AcDbRegAppTableRecord
  2
ACAD
 70
     0
  0
APPID
  5
A0
330
9
100
AcDbSymbolTableRecord
100
AcDbRegAppTableRecord
  2
ACAD_PSEXT
 70
     0
  0
APPID
  5
12A
330
9
100
AcDbSymbolTableRecord
100
AcDbRegAppTableRecord
  2
AcadAnnoPO
 70
     0
  0
APPID
  5
12B
330
9
100
AcDbSymbolTableRecord
100
AcDbRegAppTableRecord
  2
AcadAnnotative
 70
     0
  0
APPID
  5
12C
330
9
100
AcDbSymbolTableRecord
100
AcDbRegAppTableRecord
  2
ACAD_DSTYLE_DIMJAG
 70
     0
  0
APPID
  5
12D
330
9
100
AcDbSymbolTableRecord
100
AcDbRegAppTableRecord
  2
ACAD_DSTYLE_DIMTALN
 70
     0
  0
APPID
  5
15C
330
9
100
AcDbSymbolTableRecord
100
AcDbRegAppTableRecord
  2
ACAD_MLEADERVER
 70
     0
  0
APPID
  5
20E
330
9
100
AcDbSymbolTableRecord
100
AcDbRegAppTableRecord
  2
ACAD_NAV_VCDISPLAY
 70
     0
  0
APPID
  5
256
330
9
100
AcDbSymbolTableRecord
100
AcDbRegAppTableRecord
  2
AcAecLayerStandard
 70
     0
  0
APPID
  5
257
330
9
100
AcDbSymbolTableRecord
100
AcDbRegAppTableRecord
  2
AcCmTransparency
 70
     0
  0
APPID
  5
264
330
9
100
AcDbSymbolTableRecord
100
AcDbRegAppTableRecord
  2
ACAD_EXEMPT_FROM_CAD_STANDARDS
 70
     0
  0
APPID
  5
26F
330
9
100
AcDbSymbolTableRecord
100
AcDbRegAppTableRecord
  2
ACAD_DSTYLE_DIMRADIAL_EXTENSION
 70
     0
  0
APPID
  5
A2B
330
9
100
AcDbSymbolTableRecord
100
AcDbRegAppTableRecord
  2
AcadAnnoMonitorAlertIconDisabled
 70
     0
  0
ENDTAB
  0
TABLE
  2
DIMSTYLE
  5
A
330
0
100
AcDbSymbolTable
 70
     3
100
AcDbDimStyleTable
 71
     2
340
27
340
12E
  0
DIMSTYLE
105
1A7
330
A
100
AcDbSymbolTableRecord
100
AcDbDimStyleTableRecord
  2
Standard
 70
     0
340
11
  0
DIMSTYLE
105
12E
330
A
100
AcDbSymbolTableRecord
100
AcDbDimStyleTableRecord
  2
Annotative
 70
     0
 40
0.0
 41
2.5
 42
0.625
 43
3.75
 44
1.25
 73
     0
 74
     0
 77
     1
 78
     8
140
2.5
141
2.5
143
0.03937007874016
147
0.625
171
     3
172
     1
271
     2
272
     2
274
     3
278
    44
283
     0
284
     8
340
11
1001
AcadAnnotative
1000
AnnotativeData
1002
{
1070
     1
1070
     1
1002
}
1001
ACAD_DSTYLE_DIMJAG
1070
   388
1040
1.5
1001
ACAD_DSTYLE_DIMTALN
1070
   392
1070
     0
  0
DIMSTYLE
105
27
102
{ACAD_REACTORS
330
9D8
330
A4F
330
A67
330
C54
330
C6E
330
C86
330
CA0
330
CBA
330
CD2
102
}
330
A
100
AcDbSymbolTableRecord
100
AcDbDimStyleTableRecord
  2
ISO-25
 70
     0
 41
2.5
 42
0.625
 43
3.75
 44
1.25
 73
     0
 74
     0
 77
     1
 78
     8
140
20.0
141
2.5
143
0.03937007874016
147
0.625
171
     3
172
     1
271
     2
272
     2
274
     3
278
    44
283
     0
284
     8
340
11
1001
ACAD_DSTYLE_DIMJAG
1070
   388
1040
1.5
1001
ACAD_DSTYLE_DIMTALN
1070
   392
1070
     0
  0
ENDTAB
  0
TABLE
  2
BLOCK_RECORD
  5
1
330
0
100
AcDbSymbolTable
 70
    10
  0
BLOCK_RECORD
  5
1F
102
{ACAD_XDICTIONARY
360
1C5
102
}
330
1
100
AcDbSymbolTableRecord
100
AcDbBlockTableRecord
  2
*Model_Space
340
22
 70
     0
280
     1
281
     0
  0
BLOCK_RECORD
  5
D2
330
1
100
AcDbSymbolTableRecord
100
AcDbBlockTableRecord
  2
*Paper_Space
340
D3
 70
     0
280
     1
281
     0
  0
BLOCK_RECORD
  5
D6
330
1
100
AcDbSymbolTableRecord
100
AcDbBlockTableRecord
  2
*Paper_Space0
340
D7
 70
     0
280
     1
281
     0
  0
BLOCK_RECORD
  5
9D9
330
1
100
AcDbSymbolTableRecord
100
AcDbBlockTableRecord
  2
*D1
340
0
 70
     0
280
     1
281
     0
  0
BLOCK_RECORD
  5
A50
330
1
100
AcDbSymbolTableRecord
100
AcDbBlockTableRecord
  2
*D2
340
0
 70
     0
280
     1
281
     0
  0
BLOCK_RECORD
  5
A68
330
1
100
AcDbSymbolTableRecord
100
AcDbBlockTableRecord
  2
*D3
340
0
 70
     0
280
     1
281
     0
  0
BLOCK_RECORD
  5
C55
330
1
100
AcDbSymbolTableRecord
100
AcDbBlockTableRecord
  2
*D4
340
0
 70
     0
280
     1
281
     0
  0
BLOCK_RECORD
  5
C6F
330
1
100
AcDbSymbolTableRecord
100
AcDbBlockTableRecord
  2
*D5
340
0
 70
     0
280
     1
281
     0
  0
BLOCK_RECORD
  5
C87
330
1
100
AcDbSymbolTableRecord
100
AcDbBlockTableRecord
  2
*D6
340
0
 70
     0
280
     1
281
     0
  0
BLOCK_RECORD
  5
CA1
330
1
100
AcDbSymbolTableRecord
100
AcDbBlockTableRecord
  2
*D7
340
0
 70
     0
280
     1
281
     0
  0
BLOCK_RECORD
  5
CBB
330
1
100
AcDbSymbolTableRecord
100
AcDbBlockTableRecord
  2
*D8
340
0
 70
     0
280
     1
281
     0
  0
BLOCK_RECORD
  5
CD3
330
1
100
AcDbSymbolTableRecord
100
AcDbBlockTableRecord
  2
*D9
340
0
 70
     0
280
     1
281
     0
  0
ENDTAB
  0
ENDSEC
  0
SECTION
  2
BLOCKS
  0
BLOCK
  5
20
330
1F
100
AcDbEntity
  8
0
100
AcDbBlockBegin
  2
*Model_Space
 70
     0
 10
0.0
 20
0.0
 30
0.0
  3
*Model_Space
  1

  0
ENDBLK
  5
21
330
1F
100
AcDbEntity
  8
0
100
AcDbBlockEnd
  0
BLOCK
  5
D4
330
D2
100
AcDbEntity
 67
     1
  8
0
100
AcDbBlockBegin
  2
*Paper_Space
 70
     0
 10
0.0
 20
0.0
 30
0.0
  3
*Paper_Space
  1

  0
ENDBLK
  5
D5
330
D2
100
AcDbEntity
 67
     1
  8
0
100
AcDbBlockEnd
  0
BLOCK
  5
D8
330
D6
100
AcDbEntity
 67
     1
  8
0
100
AcDbBlockBegin
  2
*Paper_Space0
 70
     0
 10
0.0
 20
0.0
 30
0.0
  3
*Paper_Space0
  1

  0
ENDBLK
  5
D9
330
D6
100
AcDbEntity
 67
     1
  8
0
100
AcDbBlockEnd
  0
BLOCK
  5
9DA
330
9D9
100
AcDbEntity
  8
0
100
AcDbBlockBegin
  2
*D1
 70
     1
 10
0.0
 20
0.0
 30
0.0
  3
*D1
  1

  0
LINE
  5
BF5
330
9D9
100
AcDbEntity
  8
寸法線
 62
     0
440
 16777216
370
    -2
100
AcDbLine
 10
33489.19848660889
 20
29201.35581956039
 30
0.0
 11
33489.19848660889
 21
29274.57545246653
 31
0.0
  0
LINE
  5
BF6
330
9D9
100
AcDbEntity
  8
寸法線
 62
     0
440
 16777216
370
    -2
100
AcDbLine
 10
34731.19848660889
 20
29201.35581956038
 30
0.0
 11
34731.19848660889
 21
29274.57545246653
 31
0.0
  0
LINE
  5
BF7
330
9D9
100
AcDbEntity
  8
寸法線
 62
     0
440
 16777216
370
    -2
100
AcDbLine
 10
33491.69848660889
 20
29273.32545246654
 30
0.0
 11
34728.69848660889
 21
29273.32545246654
 31
0.0
  0
SOLID
  5
BF8
330
9D9
100
AcDbEntity
  8
寸法線
 62
     0
440
 16777216
100
AcDbTrace
 10
33491.69848660889
 20
29273.74211913321
 30
0.0
 11
33491.69848660889
 21
29272.90878579987
 31
0.0
 12
33489.19848660889
 22
29273.32545246654
 32
0.0
 13
33489.19848660889
 23
29273.32545246654
 33
0.0
  0
SOLID
  5
BF9
330
9D9
100
AcDbEntity
  8
寸法線
 62
     0
440
 16777216
100
AcDbTrace
 10
34728.69848660889
 20
29273.74211913321
 30
0.0
 11
34728.69848660889
 21
29272.90878579987
 31
0.0
 12
34731.19848660889
 22
29273.32545246654
 32
0.0
 13
34731.19848660889
 23
29273.32545246654
 33
0.0
  0
MTEXT
  5
BFA
330
9D9
100
AcDbEntity
  8
寸法線
 62
     0
440
 16777216
100
AcDbMText
 10
34110.19848660889
 20
29283.99138016094
 30
0.0
 40
20.0
 41
0.0
 46
0.0
 71
     5
 72
     1
  1
1242
 73
     1
 44
1.0
  0
POINT
  5
BFB
330
9D9
100
AcDbEntity
  8
Defpoints
 62
     0
440
 16777216
100
AcDbPoint
 10
33489.19848660889
 20
29200.73081956038
 30
0.0
  0
POINT
  5
BFC
330
9D9
100
AcDbEntity
  8
Defpoints
 62
     0
440
 16777216
100
AcDbPoint
 10
34731.19848660889
 20
29200.73081956038
 30
0.0
  0
POINT
  5
BFD
330
9D9
100
AcDbEntity
  8
Defpoints
 62
     0
440
 16777216
100
AcDbPoint
 10
34731.19848660889
 20
29273.32545246654
 30
0.0
  0
ENDBLK
  5
9DB
330
9D9
100
AcDbEntity
  8
0
100
AcDbBlockEnd
  0
BLOCK
  5
A51
330
A50
100
AcDbEntity
  8
0
100
AcDbBlockBegin
  2
*D2
 70
     1
 10
0.0
 20
0.0
 30
0.0
  3
*D2
  1

  0
LINE
  5
BFE
330
A50
100
AcDbEntity
  8
寸法線
 62
     0
440
 16777216
370
    -2
100
AcDbLine
 10
34730.82348660889
 20
29049.60326060757
 30
0.0
 11
34843.29634583286
 21
29049.60326060757
 31
0.0
  0
LINE
  5
BFF
330
A50
100
AcDbEntity
  8
寸法線
 62
     0
440
 16777216
370
    -2
100
AcDbLine
 10
34730.82348660889
 20
28997.60326060757
 30
0.0
 11
34843.29634583286
 21
28997.60326060757
 31
0.0
  0
LINE
  5
C00
330
A50
100
AcDbEntity
  8
寸法線
 62
     0
440
 16777216
370
    -2
100
AcDbLine
 10
34842.04634583286
 20
29047.10326060758
 30
0.0
 11
34842.04634583286
 21
29000.10326060757
 31
0.0
  0
SOLID
  5
C01
330
A50
100
AcDbEntity
  8
寸法線
 62
     0
440
 16777216
100
AcDbTrace
 10
34841.6296791662
 20
29047.10326060758
 30
0.0
 11
34842.46301249953
 21
29047.10326060758
 31
0.0
 12
34842.04634583286
 22
29049.60326060757
 32
0.0
 13
34842.04634583286
 23
29049.60326060757
 33
0.0
  0
SOLID
  5
C02
330
A50
100
AcDbEntity
  8
寸法線
 62
     0
440
 16777216
100
AcDbTrace
 10
34841.6296791662
 20
29000.10326060757
 30
0.0
 11
34842.46301249953
 21
29000.10326060757
 31
0.0
 12
34842.04634583286
 22
28997.60326060757
 32
0.0
 13
34842.04634583286
 23
28997.60326060757
 33
0.0
  0
MTEXT
  5
C03
330
A50
100
AcDbEntity
  8
寸法線
 62
     0
440
 16777216
100
AcDbMText
 10
34831.20988607842
 20
29023.60326060758
 30
0.0
 40
20.0
 41
0.0
 46
0.0
 71
     5
 72
     1
  1
52
 11
0.0000000000000001
 21
1.0
 31
0.0
 73
     1
 44
1.0
  0
POINT
  5
C04
330
A50
100
AcDbEntity
  8
Defpoints
 62
     0
440
 16777216
100
AcDbPoint
 10
34730.19848660889
 20
29049.60326060757
 30
0.0
  0
POINT
  5
C05
330
A50
100
AcDbEntity
  8
Defpoints
 62
     0
440
 16777216
100
AcDbPoint
 10
34730.19848660889
 20
28997.60326060757
 30
0.0
  0
POINT
  5
C06
330
A50
100
AcDbEntity
  8
Defpoints
 62
     0
440
 16777216
100
AcDbPoint
 10
34842.04634583286
 20
28997.60326060757
 30
0.0
  0
ENDBLK
  5
A52
330
A50
100
AcDbEntity
  8
0
100
AcDbBlockEnd
  0
BLOCK
  5
A69
330
A68
100
AcDbEntity
  8
0
100
AcDbBlockBegin
  2
*D3
 70
     1
 10
0.0
 20
0.0
 30
0.0
  3
*D3
  1

  0
LINE
  5
DE3
330
A68
100
AcDbEntity
  8
寸法線
 62
     0
440
 16777216
370
    -2
100
AcDbLine
 10
34730.82348660889
 20
29033.35326060758
 30
0.0
 11
34800.40076986596
 21
29033.35326060758
 31
0.0
  0
LINE
  5
DE4
330
A68
100
AcDbEntity
  8
寸法線
 62
     0
440
 16777216
370
    -2
100
AcDbLine
 10
34730.82348660889
 20
28997.60326060757
 30
0.0
 11
34800.40076986596
 21
28997.60326060757
 31
0.0
  0
LINE
  5
DE5
330
A68
100
AcDbEntity
  8
寸法線
 62
     0
440
 16777216
370
    -2
100
AcDbLine
 10
34799.15076986596
 20
29000.10326060757
 30
0.0
 11
34799.15076986596
 21
29030.85326060758
 31
0.0
  0
LINE
  5
DE6
330
A68
100
AcDbEntity
  8
寸法線
 62
     0
440
 16777216
370
    -2
100
AcDbLine
 10
34799.15076986596
 20
29033.35326060758
 30
0.0
 11
34799.15076986596
 21
29128.57646422935
 31
0.0
  0
SOLID
  5
DE7
330
A68
100
AcDbEntity
  8
寸法線
 62
     0
440
 16777216
100
AcDbTrace
 10
34798.73410319929
 20
29000.10326060757
 30
0.0
 11
34799.56743653262
 21
29000.10326060757
 31
0.0
 12
34799.15076986596
 22
28997.60326060757
 32
0.0
 13
34799.15076986596
 23
28997.60326060757
 33
0.0
  0
SOLID
  5
DE8
330
A68
100
AcDbEntity
  8
寸法線
 62
     0
440
 16777216
100
AcDbTrace
 10
34798.73410319929
 20
29030.85326060758
 30
0.0
 11
34799.56743653262
 21
29030.85326060758
 31
0.0
 12
34799.15076986596
 22
29033.35326060758
 32
0.0
 13
34799.15076986596
 23
29033.35326060758
 33
0.0
  0
MTEXT
  5
DE9
330
A68
100
AcDbEntity
  8
寸法線
 62
     0
440
 16777216
100
AcDbMText
 10
34786.50667027523
 20
29094.13836736714
 30
0.0
 40
20.0
 41
0.0
 46
0.0
 71
     5
 72
     1
  1
35,75
 11
0.0000000000000001
 21
1.0
 31
0.0
 73
     1
 44
1.0
  0
POINT
  5
DEA
330
A68
100
AcDbEntity
  8
Defpoints
 62
     0
440
 16777216
100
AcDbPoint
 10
34730.19848660889
 20
29033.35326060758
 30
0.0
  0
POINT
  5
DEB
330
A68
100
AcDbEntity
  8
Defpoints
 62
     0
440
 16777216
100
AcDbPoint
 10
34730.19848660889
 20
28997.60326060757
 30
0.0
  0
POINT
  5
DEC
330
A68
100
AcDbEntity
  8
Defpoints
 62
     0
440
 16777216
100
AcDbPoint
 10
34799.15076986596
 20
28997.60326060757
 30
0.0
  0
ENDBLK
  5
A6A
330
A68
100
AcDbEntity
  8
0
100
AcDbBlockEnd
  0
BLOCK
  5
C56
330
C55
100
AcDbEntity
  8
0
100
AcDbBlockBegin
  2
*D4
 70
     1
 10
0.0
 20
0.0
 30
0.0
  3
*D4
  1

  0
LINE
  5
C63
330
C55
100
AcDbEntity
  8
寸法線
 62
     0
440
 16777216
370
    -2
100
AcDbLine
 10
34730.82348660889
 20
28997.60326060757
 30
0.0
 11
34843.29634583286
 21
28997.60326060757
 31
0.0
  0
LINE
  5
C64
330
C55
100
AcDbEntity
  8
寸法線
 62
     0
440
 16777216
370
    -2
100
AcDbLine
 10
34017.62348660889
 20
28972.60326060758
 30
0.0
 11
34843.29634583286
 21
28972.60326060758
 31
0.0
  0
LINE
  5
C65
330
C55
100
AcDbEntity
  8
寸法線
 62
     0
440
 16777216
370
    -2
100
AcDbLine
 10
34842.04634583286
 20
28995.10326060758
 30
0.0
 11
34842.04634583286
 21
28975.10326060757
 31
0.0
  0
LINE
  5
C66
330
C55
100
AcDbEntity
  8
寸法線
 62
     0
440
 16777216
370
    -2
100
AcDbLine
 10
34842.04634583286
 20
28972.60326060758
 30
0.0
 11
34842.04634583286
 21
28939.71274219012
 31
0.0
  0
SOLID
  5
C67
330
C55
100
AcDbEntity
  8
寸法線
 62
     0
440
 16777216
100
AcDbTrace
 10
34841.6296791662
 20
28995.10326060758
 30
0.0
 11
34842.46301249953
 21
28995.10326060758
 31
0.0
 12
34842.04634583286
 22
28997.60326060757
 32
0.0
 13
34842.04634583286
 23
28997.60326060757
 33
0.0
  0
SOLID
  5
C68
330
C55
100
AcDbEntity
  8
寸法線
 62
     0
440
 16777216
100
AcDbTrace
 10
34841.6296791662
 20
28975.10326060757
 30
0.0
 11
34842.46301249953
 21
28975.10326060757
 31
0.0
 12
34842.04634583286
 22
28972.60326060758
 32
0.0
 13
34842.04634583286
 23
28972.60326060758
 33
0.0
  0
MTEXT
  5
C69
330
C55
100
AcDbEntity
  8
寸法線
 62
     0
440
 16777216
100
AcDbMText
 10
34831.20988607842
 20
28954.90800139885
 30
0.0
 40
20.0
 41
0.0
 46
0.0
 71
     5
 72
     1
  1
25
 11
0.0000000000000001
 21
1.0
 31
0.0
 73
     1
 44
1.0
  0
POINT
  5
C6A
330
C55
100
AcDbEntity
  8
Defpoints
 62
     0
440
 16777216
100
AcDbPoint
 10
34730.19848660889
 20
28997.60326060757
 30
0.0
  0
POINT
  5
C6B
330
C55
100
AcDbEntity
  8
Defpoints
 62
     0
440
 16777216
100
AcDbPoint
 10
34016.99848660889
 20
28972.60326060758
 30
0.0
  0
POINT
  5
C6C
330
C55
100
AcDbEntity
  8
Defpoints
 62
     0
440
 16777216
100
AcDbPoint
 10
34842.04634583286
 20
28972.60326060758
 30
0.0
  0
ENDBLK
  5
C57
330
C55
100
AcDbEntity
  8
0
100
AcDbBlockEnd
  0
BLOCK
  5
C70
330
C6F
100
AcDbEntity
  8
0
100
AcDbBlockBegin
  2
*D5
 70
     1
 10
0.0
 20
0.0
 30
0.0
  3
*D5
  1

  0
LINE
  5
C7C
330
C6F
100
AcDbEntity
  8
寸法線
 62
     0
440
 16777216
370
    -2
100
AcDbLine
 10
34966.19848660889
 20
28997.72826060758
 30
0.0
 11
34966.19848660889
 21
29117.82041093495
 31
0.0
  0
LINE
  5
C7D
330
C6F
100
AcDbEntity
  8
寸法線
 62
     0
440
 16777216
370
    -2
100
AcDbLine
 10
35011.19848660888
 20
28997.72826060758
 30
0.0
 11
35011.19848660888
 21
29117.82041093495
 31
0.0
  0
LINE
  5
C7E
330
C6F
100
AcDbEntity
  8
寸法線
 62
     0
440
 16777216
370
    -2
100
AcDbLine
 10
34968.69848660888
 20
29116.57041093495
 30
0.0
 11
35008.69848660888
 21
29116.57041093495
 31
0.0
  0
SOLID
  5
C7F
330
C6F
100
AcDbEntity
  8
寸法線
 62
     0
440
 16777216
100
AcDbTrace
 10
34968.69848660888
 20
29116.98707760161
 30
0.0
 11
34968.69848660888
 21
29116.15374426828
 31
0.0
 12
34966.19848660889
 22
29116.57041093495
 32
0.0
 13
34966.19848660889
 23
29116.57041093495
 33
0.0
  0
SOLID
  5
C80
330
C6F
100
AcDbEntity
  8
寸法線
 62
     0
440
 16777216
100
AcDbTrace
 10
35008.69848660888
 20
29116.98707760161
 30
0.0
 11
35008.69848660888
 21
29116.15374426828
 31
0.0
 12
35011.19848660888
 22
29116.57041093495
 32
0.0
 13
35011.19848660888
 23
29116.57041093495
 33
0.0
  0
MTEXT
  5
C81
330
C6F
100
AcDbEntity
  8
寸法線
 62
     0
440
 16777216
100
AcDbMText
 10
34988.69848660888
 20
29127.36594299497
 30
0.0
 40
20.0
 41
0.0
 46
0.0
 71
     5
 72
     1
  1
45
 73
     1
 44
1.0
  0
POINT
  5
C82
330
C6F
100
AcDbEntity
  8
Defpoints
 62
     0
440
 16777216
100
AcDbPoint
 10
34966.19848660889
 20
28997.10326060758
 30
0.0
  0
POINT
  5
C83
330
C6F
100
AcDbEntity
  8
Defpoints
 62
     0
440
 16777216
100
AcDbPoint
 10
35011.19848660888
 20
28997.10326060758
 30
0.0
  0
POINT
  5
C84
330
C6F
100
AcDbEntity
  8
Defpoints
 62
     0
440
 16777216
100
AcDbPoint
 10
35011.19848660888
 20
29116.57041093495
 30
0.0
  0
ENDBLK
  5
C71
330
C6F
100
AcDbEntity
  8
0
100
AcDbBlockEnd
  0
BLOCK
  5
C88
330
C87
100
AcDbEntity
  8
0
100
AcDbBlockBegin
  2
*D6
 70
     1
 10
0.0
 20
0.0
 30
0.0
  3
*D6
  1

  0
LINE
  5
C95
330
C87
100
AcDbEntity
  8
寸法線
 62
     0
440
 16777216
370
    -2
100
AcDbLine
 10
34990.19848660889
 20
29060.22826060758
 30
0.0
 11
34990.19848660889
 21
29090.99448836116
 31
0.0
  0
LINE
  5
C96
330
C87
100
AcDbEntity
  8
寸法線
 62
     0
440
 16777216
370
    -2
100
AcDbLine
 10
34966.19848660889
 20
29060.22826060758
 30
0.0
 11
34966.19848660889
 21
29090.99448836116
 31
0.0
  0
LINE
  5
C97
330
C87
100
AcDbEntity
  8
寸法線
 62
     0
440
 16777216
370
    -2
100
AcDbLine
 10
34987.69848660889
 20
29089.74448836116
 30
0.0
 11
34968.69848660888
 21
29089.74448836116
 31
0.0
  0
LINE
  5
C98
330
C87
100
AcDbEntity
  8
寸法線
 62
     0
440
 16777216
370
    -2
100
AcDbLine
 10
34966.19848660889
 20
29089.74448836116
 30
0.0
 11
34933.53989179306
 21
29089.74448836116
 31
0.0
  0
SOLID
  5
C99
330
C87
100
AcDbEntity
  8
寸法線
 62
     0
440
 16777216
100
AcDbTrace
 10
34987.69848660889
 20
29090.16115502783
 30
0.0
 11
34987.69848660889
 21
29089.32782169449
 31
0.0
 12
34990.19848660889
 22
29089.74448836116
 32
0.0
 13
34990.19848660889
 23
29089.74448836116
 33
0.0
  0
SOLID
  5
C9A
330
C87
100
AcDbEntity
  8
寸法線
 62
     0
440
 16777216
100
AcDbTrace
 10
34968.69848660888
 20
29090.16115502783
 30
0.0
 11
34968.69848660888
 21
29089.32782169449
 31
0.0
 12
34966.19848660889
 22
29089.74448836116
 32
0.0
 13
34966.19848660889
 23
29089.74448836116
 33
0.0
  0
MTEXT
  5
C9B
330
C87
100
AcDbEntity
  8
寸法線
 62
     0
440
 16777216
100
AcDbMText
 10
34948.61918920097
 20
29100.41041605557
 30
0.0
 40
20.0
 41
0.0
 46
0.0
 71
     5
 72
     1
  1
24
 73
     1
 44
1.0
  0
POINT
  5
C9C
330
C87
100
AcDbEntity
  8
Defpoints
 62
     0
440
 16777216
100
AcDbPoint
 10
34990.19848660889
 20
29059.60326060758
 30
0.0
  0
POINT
  5
C9D
330
C87
100
AcDbEntity
  8
Defpoints
 62
     0
440
 16777216
100
AcDbPoint
 10
34966.19848660889
 20
29059.60326060758
 30
0.0
  0
POINT
  5
C9E
330
C87
100
AcDbEntity
  8
Defpoints
 62
     0
440
 16777216
100
AcDbPoint
 10
34966.19848660889
 20
29089.74448836116
 30
0.0
  0
ENDBLK
  5
C89
330
C87
100
AcDbEntity
  8
0
100
AcDbBlockEnd
  0
BLOCK
  5
CA2
330
CA1
100
AcDbEntity
  8
0
100
AcDbBlockBegin
  2
*D7
 70
     1
 10
0.0
 20
0.0
 30
0.0
  3
*D7
  1

  0
LINE
  5
CAF
330
CA1
100
AcDbEntity
  8
寸法線
 62
     0
440
 16777216
370
    -2
100
AcDbLine
 10
34990.19848660889
 20
29050.22826060758
 30
0.0
 11
34990.19848660889
 21
29090.99448836116
 31
0.0
  0
LINE
  5
CB0
330
CA1
100
AcDbEntity
  8
寸法線
 62
     0
440
 16777216
370
    -2
100
AcDbLine
 10
35011.19848660888
 20
29050.22826060758
 30
0.0
 11
35011.19848660888
 21
29090.99448836116
 31
0.0
  0
LINE
  5
CB1
330
CA1
100
AcDbEntity
  8
寸法線
 62
     0
440
 16777216
370
    -2
100
AcDbLine
 10
34992.69848660889
 20
29089.74448836116
 30
0.0
 11
35008.69848660888
 21
29089.74448836116
 31
0.0
  0
LINE
  5
CB2
330
CA1
100
AcDbEntity
  8
寸法線
 62
     0
440
 16777216
370
    -2
100
AcDbLine
 10
35011.19848660888
 20
29089.74448836116
 30
0.0
 11
35040.0780909745
 21
29089.74448836116
 31
0.0
  0
SOLID
  5
CB3
330
CA1
100
AcDbEntity
  8
寸法線
 62
     0
440
 16777216
100
AcDbTrace
 10
34992.69848660889
 20
29090.16115502783
 30
0.0
 11
34992.69848660889
 21
29089.32782169449
 31
0.0
 12
34990.19848660889
 22
29089.74448836116
 32
0.0
 13
34990.19848660889
 23
29089.74448836116
 33
0.0
  0
SOLID
  5
CB4
330
CA1
100
AcDbEntity
  8
寸法線
 62
     0
440
 16777216
100
AcDbTrace
 10
35008.69848660888
 20
29090.16115502783
 30
0.0
 11
35008.69848660888
 21
29089.32782169449
 31
0.0
 12
35011.19848660888
 22
29089.74448836116
 32
0.0
 13
35011.19848660888
 23
29089.74448836116
 33
0.0
  0
MTEXT
  5
CB5
330
CA1
100
AcDbEntity
  8
寸法線
 62
     0
440
 16777216
100
AcDbMText
 10
35026.88828879169
 20
29100.41041605557
 30
0.0
 40
20.0
 41
0.0
 46
0.0
 71
     5
 72
     1
  1
21
 73
     1
 44
1.0
  0
POINT
  5
CB6
330
CA1
100
AcDbEntity
  8
Defpoints
 62
     0
440
 16777216
100
AcDbPoint
 10
34990.19848660889
 20
29049.60326060757
 30
0.0
  0
POINT
  5
CB7
330
CA1
100
AcDbEntity
  8
Defpoints
 62
     0
440
 16777216
100
AcDbPoint
 10
35011.19848660888
 20
29049.60326060757
 30
0.0
  0
POINT
  5
CB8
330
CA1
100
AcDbEntity
  8
Defpoints
 62
     0
440
 16777216
100
AcDbPoint
 10
35011.19848660888
 20
29089.74448836116
 30
0.0
  0
ENDBLK
  5
CA3
330
CA1
100
AcDbEntity
  8
0
100
AcDbBlockEnd
  0
BLOCK
  5
CBC
330
CBB
100
AcDbEntity
  8
0
100
AcDbBlockBegin
  2
*D8
 70
     1
 10
0.0
 20
0.0
 30
0.0
  3
*D8
  1

  0
LINE
  5
CC8
330
CBB
100
AcDbEntity
  8
寸法線
 62
     0
440
 16777216
370
    -2
100
AcDbLine
 10
34974.19848660889
 20
29033.97826060757
 30
0.0
 11
34974.19848660889
 21
29063.44112177846
 31
0.0
  0
LINE
  5
CC9
330
CBB
100
AcDbEntity
  8
寸法線
 62
     0
440
 16777216
370
    -2
100
AcDbLine
 10
35006.19848660888
 20
29033.97826060757
 30
0.0
 11
35006.19848660888
 21
29063.44112177846
 31
0.0
  0
LINE
  5
CCA
330
CBB
100
AcDbEntity
  8
寸法線
 62
     0
440
 16777216
370
    -2
100
AcDbLine
 10
34976.69848660889
 20
29062.19112177846
 30
0.0
 11
35003.69848660888
 21
29062.19112177846
 31
0.0
  0
SOLID
  5
CCB
330
CBB
100
AcDbEntity
  8
寸法線
 62
     0
440
 16777216
100
AcDbTrace
 10
34976.69848660889
 20
29062.60778844512
 30
0.0
 11
34976.69848660889
 21
29061.77445511179
 31
0.0
 12
34974.19848660889
 22
29062.19112177846
 32
0.0
 13
34974.19848660889
 23
29062.19112177846
 33
0.0
  0
SOLID
  5
CCC
330
CBB
100
AcDbEntity
  8
寸法線
 62
     0
440
 16777216
100
AcDbTrace
 10
35003.69848660888
 20
29062.60778844512
 30
0.0
 11
35003.69848660888
 21
29061.77445511179
 31
0.0
 12
35006.19848660888
 22
29062.19112177846
 32
0.0
 13
35006.19848660888
 23
29062.19112177846
 33
0.0
  0
MTEXT
  5
CCD
330
CBB
100
AcDbEntity
  8
寸法線
 62
     0
440
 16777216
100
AcDbMText
 10
34990.19848660888
 20
29073.03440281529
 30
0.0
 40
20.0
 41
0.0
 46
0.0
 71
     5
 72
     1
  1
32
 73
     1
 44
1.0
  0
POINT
  5
CCE
330
CBB
100
AcDbEntity
  8
Defpoints
 62
     0
440
 16777216
100
AcDbPoint
 10
34974.19848660889
 20
29033.35326060758
 30
0.0
  0
POINT
  5
CCF
330
CBB
100
AcDbEntity
  8
Defpoints
 62
     0
440
 16777216
100
AcDbPoint
 10
35006.19848660888
 20
29033.35326060758
 30
0.0
  0
POINT
  5
CD0
330
CBB
100
AcDbEntity
  8
Defpoints
 62
     0
440
 16777216
100
AcDbPoint
 10
35006.19848660888
 20
29062.19112177846
 30
0.0
  0
ENDBLK
  5
CBD
330
CBB
100
AcDbEntity
  8
0
100
AcDbBlockEnd
  0
BLOCK
  5
CD4
330
CD3
100
AcDbEntity
  8
0
100
AcDbBlockBegin
  2
*D9
 70
     1
 10
0.0
 20
0.0
 30
0.0
  3
*D9
  1

  0
LINE
  5
CE0
330
CD3
100
AcDbEntity
  8
寸法線
 62
     0
440
 16777216
370
    -2
100
AcDbLine
 10
34989.57348660888
 20
29049.60326060757
 30
0.0
 11
34916.9234308285
 21
29049.60326060757
 31
0.0
  0
LINE
  5
CE1
330
CD3
100
AcDbEntity
  8
寸法線
 62
     0
440
 16777216
370
    -2
100
AcDbLine
 10
34989.57348660889
 20
28972.60326060758
 30
0.0
 11
34916.9234308285
 21
28972.60326060758
 31
0.0
  0
LINE
  5
CE2
330
CD3
100
AcDbEntity
  8
寸法線
 62
     0
440
 16777216
370
    -2
100
AcDbLine
 10
34918.17343082849
 20
29047.10326060758
 30
0.0
 11
34918.17343082849
 21
28975.10326060757
 31
0.0
  0
SOLID
  5
CE3
330
CD3
100
AcDbEntity
  8
寸法線
 62
     0
440
 16777216
100
AcDbTrace
 10
34917.75676416183
 20
29047.10326060758
 30
0.0
 11
34918.59009749516
 21
29047.10326060758
 31
0.0
 12
34918.17343082849
 22
29049.60326060757
 32
0.0
 13
34918.17343082849
 23
29049.60326060757
 33
0.0
  0
SOLID
  5
CE4
330
CD3
100
AcDbEntity
  8
寸法線
 62
     0
440
 16777216
100
AcDbTrace
 10
34917.75676416183
 20
28975.10326060757
 30
0.0
 11
34918.59009749516
 21
28975.10326060757
 31
0.0
 12
34918.17343082849
 22
28972.60326060758
 32
0.0
 13
34918.17343082849
 23
28972.60326060758
 33
0.0
  0
MTEXT
  5
CE5
330
CD3
100
AcDbEntity
  8
寸法線
 62
     0
440
 16777216
100
AcDbMText
 10
34907.54843082849
 20
29011.10326060758
 30
0.0
 40
20.0
 41
0.0
 46
0.0
 71
     5
 72
     1
  1
77
 11
0.0000000000000001
 21
1.0
 31
0.0
 73
     1
 44
1.0
  0
POINT
  5
CE6
330
CD3
100
AcDbEntity
  8
Defpoints
 62
     0
440
 16777216
100
AcDbPoint
 10
34990.19848660888
 20
29049.60326060757
 30
0.0
  0
POINT
  5
CE7
330
CD3
100
AcDbEntity
  8
Defpoints
 62
     0
440
 16777216
100
AcDbPoint
 10
34990.19848660889
 20
28972.60326060758
 30
0.0
  0
POINT
  5
CE8
330
CD3
100
AcDbEntity
  8
Defpoints
 62
     0
440
 16777216
100
AcDbPoint
 10
34918.17343082849
 20
28972.60326060758
 30
0.0
  0
ENDBLK
  5
CD5
330
CD3
100
AcDbEntity
  8
0
100
AcDbBlockEnd
  0
ENDSEC
  0
SECTION
  2
ENTITIES
  0
LINE
  5
618
330
1F
100
AcDbEntity
  8
外形線
100
AcDbLine
 10
33490.19848660889
 20
29007.60326060757
 30
0.0
 11
33490.19848660889
 21
28997.60326060757
 31
0.0
  0
LINE
  5
619
330
1F
100
AcDbEntity
  8
外形線
100
AcDbLine
 10
33490.19848660889
 20
28997.60326060757
 30
0.0
 11
34730.19848660889
 21
28997.60326060757
 31
0.0
  0
LINE
  5
61A
102
{ACAD_REACTORS
330
A66
330
A80
330
C6D
102
}
330
1F
100
AcDbEntity
  8
外形線
100
AcDbLine
 10
34730.19848660889
 20
28997.60326060757
 30
0.0
 11
34730.19848660889
 21
29007.60326060757
 31
0.0
  0
LINE
  5
61B
330
1F
100
AcDbEntity
  8
外形線
100
AcDbLine
 10
34730.19848660889
 20
29007.60326060757
 30
0.0
 11
33490.19848660889
 21
29007.60326060757
 31
0.0
  0
LINE
  5
61C
330
1F
100
AcDbEntity
  8
外形線
100
AcDbLine
 10
33490.19848660889
 20
29004.60326060758
 30
0.0
 11
33489.51520503589
 21
29005.96982375358
 31
0.0
  0
ARC
  5
61D
330
1F
100
AcDbEntity
  8
外形線
100
AcDbCircle
 10
33492.19848660889
 20
29007.31146454008
 30
0.0
 40
3.0
100
AcDbArc
 50
180.0
 51
206.5650511770809
  0
LINE
  5
61E
330
1F
100
AcDbEntity
  8
外形線
100
AcDbLine
 10
33489.19848660889
 20
29007.31146454008
 30
0.0
 11
33489.19848660889
 21
29011.39615382638
 31
0.0
  0
ARC
  5
61F
330
1F
100
AcDbEntity
  8
外形線
100
AcDbCircle
 10
33489.69848660889
 20
29011.39615382638
 30
0.0
 40
0.5
100
AcDbArc
 50
135.0000000000046
 51
180.0
  0
LINE
  5
620
330
1F
100
AcDbEntity
  8
外形線
100
AcDbLine
 10
33489.34493321829
 20
29011.74970721698
 30
0.0
 11
33490.05203999949
 21
29012.45681399817
 31
0.0
  0
ARC
  5
621
330
1F
100
AcDbEntity
  8
外形線
100
AcDbCircle
 10
33489.69848660889
 20
29012.81036738877
 30
0.0
 40
0.5
100
AcDbArc
 50
315.0000000000046
 51
0.0
  0
LINE
  5
622
330
1F
100
AcDbEntity
  8
外形線
100
AcDbLine
 10
33490.19848660889
 20
29012.81036738877
 30
0.0
 11
33490.19848660889
 21
29049.60326060757
 31
0.0
  0
LINE
  5
623
330
1F
100
AcDbEntity
  8
外形線
100
AcDbLine
 10
33491.19848660889
 20
29029.60326060758
 30
0.0
 11
33493.47438852944
 21
29029.14808022347
 31
0.0
  0
LINE
  5
624
330
1F
100
AcDbEntity
  8
外形線
100
AcDbLine
 10
33491.19848660889
 20
29029.60326060758
 30
0.0
 11
33491.19848660889
 21
29049.60326060757
 31
0.0
  0
LINE
  5
625
330
1F
100
AcDbEntity
  8
外形線
100
AcDbLine
 10
33491.19848660889
 20
29049.60326060757
 30
0.0
 11
33490.19848660889
 21
29049.60326060757
 31
0.0
  0
ELLIPSE
  5
626
330
1F
100
AcDbEntity
  8
外形線
100
AcDbEllipse
 10
33493.55562946603
 20
29027.10326060758
 30
0.0
 11
-2.35714285713766
 21
1.5
 31
0.0
210
0.0
220
0.0
230
1.0
 40
0.6753514169109462
 41
3.682438273673346
 42
4.822127997503216
  0
ARC
  5
627
330
1F
100
AcDbEntity
  8
外形線
100
AcDbCircle
 10
33492.88604012394
 20
29026.20633819629
 30
0.0
 40
3.0
100
AcDbArc
 50
61.78442072581368
 51
78.69006752528486
  0
LINE
  5
628
330
1F
100
AcDbEntity
  8
外形線
100
AcDbLine
 10
33491.19848660889
 20
29049.10326060758
 30
0.0
 11
33491.69848660889
 21
29049.10326060758
 31
0.0
  0
LINE
  5
629
330
1F
100
AcDbEntity
  8
外形線
100
AcDbLine
 10
33491.69848660889
 20
29049.10326060758
 30
0.0
 11
33491.69848660889
 21
29029.50326060758
 31
0.0
  0
LINE
  5
62A
330
1F
100
AcDbEntity
  8
外形線
100
AcDbLine
 10
33491.69848660889
 20
29049.10326060758
 30
0.0
 11
33503.69848660889
 21
29049.10326060758
 31
0.0
  0
LINE
  5
62B
330
1F
100
AcDbEntity
  8
外形線
100
AcDbLine
 10
33504.69848660889
 20
29048.10326060758
 30
0.0
 11
33504.69848660889
 21
29018.60326060758
 31
0.0
  0
ARC
  5
62C
330
1F
100
AcDbEntity
  8
外形線
100
AcDbCircle
 10
33503.69848660889
 20
29048.10326060758
 30
0.0
 40
1.0
100
AcDbArc
 50
0.0
 51
90.0
  0
ARC
  5
62D
330
1F
100
AcDbEntity
  8
外形線
100
AcDbCircle
 10
33503.69848660889
 20
29018.60326060758
 30
0.0
 40
1.0
100
AcDbArc
 50
270.0
 51
0.0
  0
LINE
  5
62E
330
1F
100
AcDbEntity
  8
外形線
100
AcDbLine
 10
33503.69848660889
 20
29017.60326060758
 30
0.0
 11
33496.09791409847
 21
29017.60326060758
 31
0.0
  0
LINE
  5
62F
330
1F
100
AcDbEntity
  8
外形線
100
AcDbLine
 10
33496.09791409847
 20
29026.63695746235
 30
0.0
 11
33496.09791409847
 21
29017.60326060758
 31
0.0
  0
LINE
  5
630
330
1F
100
AcDbEntity
  8
外形線
100
AcDbLine
 10
33496.09791409847
 20
29017.60326060758
 30
0.0
 11
33496.09791409846
 21
29012.64213249567
 31
0.0
  0
ARC
  5
631
330
1F
100
AcDbEntity
  8
外形線
100
AcDbCircle
 10
33486.65050274715
 20
29014.06121108012
 30
0.0
 40
9.559246875214904
100
AcDbArc
 50
323.1356689796032
 51
350.9878324004474
  0
ARC
  5
632
330
1F
100
AcDbEntity
  8
外形線
100
AcDbCircle
 10
33494.69848660888
 20
29008.02644482834
 30
0.0
 40
0.5
100
AcDbArc
 50
143.135668979267
 51
180.0000000008337
  0
ARC
  5
633
330
1F
100
AcDbEntity
  8
外形線
100
AcDbCircle
 10
33495.59791409847
 20
29012.64213249567
 30
0.0
 40
0.5
100
AcDbArc
 50
350.9878324008564
 51
0.0
  0
LINE
  5
634
330
1F
100
AcDbEntity
  8
外形線
100
AcDbLine
 10
33494.19848660889
 20
29007.60326060757
 30
0.0
 11
33494.19848660889
 21
29008.02644482833
 31
0.0
  0
LINE
  5
635
330
1F
100
AcDbEntity
  8
外形線
100
AcDbLine
 10
34730.19848660889
 20
29004.60326060758
 30
0.0
 11
34730.88176818189
 21
29005.96982375358
 31
0.0
  0
ARC
  5
636
330
1F
100
AcDbEntity
  8
外形線
100
AcDbCircle
 10
34728.19848660889
 20
29007.31146454008
 30
0.0
 40
3.0
100
AcDbArc
 50
333.4349488229191
 51
0.0
  0
LINE
  5
637
330
1F
100
AcDbEntity
  8
外形線
100
AcDbLine
 10
34731.19848660889
 20
29007.31146454008
 30
0.0
 11
34731.19848660889
 21
29011.39615382638
 31
0.0
  0
ARC
  5
638
330
1F
100
AcDbEntity
  8
外形線
100
AcDbCircle
 10
34730.69848660889
 20
29011.39615382638
 30
0.0
 40
0.5
100
AcDbArc
 50
0.0
 51
44.99999999955322
  0
LINE
  5
639
330
1F
100
AcDbEntity
  8
外形線
100
AcDbLine
 10
34731.05203999949
 20
29011.74970721698
 30
0.0
 11
34730.34493321829
 21
29012.45681399817
 31
0.0
  0
ARC
  5
63A
330
1F
100
AcDbEntity
  8
外形線
100
AcDbCircle
 10
34730.69848660889
 20
29012.81036738877
 30
0.0
 40
0.5
100
AcDbArc
 50
180.0
 51
224.9999999995532
  0
LINE
  5
63B
330
1F
100
AcDbEntity
  8
外形線
100
AcDbLine
 10
34730.19848660889
 20
29012.81036738877
 30
0.0
 11
34730.19848660889
 21
29049.60326060757
 31
0.0
  0
LINE
  5
63C
330
1F
100
AcDbEntity
  8
外形線
100
AcDbLine
 10
34729.19848660889
 20
29029.60326060758
 30
0.0
 11
34726.92258468834
 21
29029.14808022347
 31
0.0
  0
LINE
  5
63D
330
1F
100
AcDbEntity
  8
外形線
100
AcDbLine
 10
34729.19848660889
 20
29029.60326060758
 30
0.0
 11
34729.19848660889
 21
29049.60326060757
 31
0.0
  0
LINE
  5
63E
102
{ACAD_REACTORS
330
A66
102
}
330
1F
100
AcDbEntity
  8
外形線
100
AcDbLine
 10
34729.19848660889
 20
29049.60326060757
 30
0.0
 11
34730.19848660889
 21
29049.60326060757
 31
0.0
  0
ELLIPSE
  5
63F
330
1F
100
AcDbEntity
  8
外形線
100
AcDbEllipse
 10
34726.84134375175
 20
29027.10326060758
 30
0.0
 11
2.35714285713766
 21
1.5
 31
0.0
210
0.0
220
0.0
230
-1.0
 40
0.6753514169109462
 41
3.682438273673346
 42
4.822127997503216
  0
ARC
  5
640
330
1F
100
AcDbEntity
  8
外形線
100
AcDbCircle
 10
34727.51093309384
 20
29026.20633819629
 30
0.0
 40
3.0
100
AcDbArc
 50
101.3099324747151
 51
118.2155792741863
  0
LINE
  5
641
330
1F
100
AcDbEntity
  8
外形線
100
AcDbLine
 10
34729.19848660889
 20
29049.10326060758
 30
0.0
 11
34728.69848660889
 21
29049.10326060758
 31
0.0
  0
LINE
  5
642
330
1F
100
AcDbEntity
  8
外形線
100
AcDbLine
 10
34728.69848660889
 20
29049.10326060758
 30
0.0
 11
34728.69848660889
 21
29029.50326060758
 31
0.0
  0
LINE
  5
643
330
1F
100
AcDbEntity
  8
外形線
100
AcDbLine
 10
34728.69848660889
 20
29049.10326060758
 30
0.0
 11
34714.69848660889
 21
29049.10326060758
 31
0.0
  0
LINE
  5
644
330
1F
100
AcDbEntity
  8
外形線
100
AcDbLine
 10
34713.69848660889
 20
29048.10326060758
 30
0.0
 11
34713.69848660889
 21
29018.60326060758
 31
0.0
  0
ARC
  5
645
330
1F
100
AcDbEntity
  8
外形線
100
AcDbCircle
 10
34714.69848660889
 20
29048.10326060758
 30
0.0
 40
1.0
100
AcDbArc
 50
90.0
 51
180.0
  0
ARC
  5
646
330
1F
100
AcDbEntity
  8
外形線
100
AcDbCircle
 10
34714.69848660889
 20
29018.60326060758
 30
0.0
 40
1.0
100
AcDbArc
 50
180.0
 51
270.0
  0
LINE
  5
647
330
1F
100
AcDbEntity
  8
外形線
100
AcDbLine
 10
34714.69848660889
 20
29017.60326060758
 30
0.0
 11
34724.29905911931
 21
29017.60326060758
 31
0.0
  0
LINE
  5
648
330
1F
100
AcDbEntity
  8
外形線
100
AcDbLine
 10
34724.29905911932
 20
29026.63695746235
 30
0.0
 11
34724.29905911932
 21
29017.60326060758
 31
0.0
  0
LINE
  5
649
330
1F
100
AcDbEntity
  8
外形線
100
AcDbLine
 10
34724.29905911932
 20
29017.60326060758
 30
0.0
 11
34724.29905911933
 21
29012.64213249567
 31
0.0
  0
ARC
  5
64A
330
1F
100
AcDbEntity
  8
外形線
100
AcDbCircle
 10
34733.74647047063
 20
29014.06121108012
 30
0.0
 40
9.559246875214904
100
AcDbArc
 50
189.0121675995525
 51
216.8643310199839
  0
ARC
  5
64B
330
1F
100
AcDbEntity
  8
外形線
100
AcDbCircle
 10
34725.6984866089
 20
29008.02644482834
 30
0.0
 40
0.5
100
AcDbArc
 50
359.9999999991662
 51
36.86433102115633
  0
ARC
  5
64C
330
1F
100
AcDbEntity
  8
外形線
100
AcDbCircle
 10
34724.79905911932
 20
29012.64213249567
 30
0.0
 40
0.5
100
AcDbArc
 50
180.0
 51
189.0121675991434
  0
LINE
  5
64D
330
1F
100
AcDbEntity
  8
外形線
100
AcDbLine
 10
34726.19848660889
 20
29007.60326060757
 30
0.0
 11
34726.19848660889
 21
29008.02644482833
 31
0.0
  0
LINE
  5
64E
330
1F
100
AcDbEntity
  8
外形線
100
AcDbLine
 10
34713.69848660889
 20
29044.65326060758
 30
0.0
 11
34705.19848660889
 21
29044.65326060758
 31
0.0
  0
ARC
  5
64F
330
1F
100
AcDbEntity
  8
外形線
100
AcDbCircle
 10
34705.19848660889
 20
29044.15326060758
 30
0.0
 40
0.5
100
AcDbArc
 50
90.0
 51
180.0
  0
LINE
  5
650
330
1F
100
AcDbEntity
  8
外形線
100
AcDbLine
 10
34704.69848660889
 20
29044.15326060758
 30
0.0
 11
34704.69848660889
 21
29022.55326060757
 31
0.0
  0
LINE
  5
651
330
1F
100
AcDbEntity
  8
外形線
100
AcDbLine
 10
34705.19848660889
 20
29022.05326060757
 30
0.0
 11
34713.69848660889
 21
29022.05326060757
 31
0.0
  0
ARC
  5
652
330
1F
100
AcDbEntity
  8
外形線
100
AcDbCircle
 10
34705.19848660889
 20
29022.55326060757
 30
0.0
 40
0.5
100
AcDbArc
 50
180.0
 51
270.0
  0
LINE
  5
653
330
1F
100
AcDbEntity
  8
外形線
100
AcDbLine
 10
33528.69848660889
 20
28997.60326060757
 30
0.0
 11
33528.69848660889
 21
28994.10326060758
 31
0.0
  0
LINE
  5
654
330
1F
100
AcDbEntity
  8
外形線
100
AcDbLine
 10
33529.19848660889
 20
28993.60326060758
 30
0.0
 11
33548.19848660889
 21
28993.60326060758
 31
0.0
  0
ARC
  5
655
330
1F
100
AcDbEntity
  8
外形線
100
AcDbCircle
 10
33529.19848660889
 20
28994.10326060758
 30
0.0
 40
0.5
100
AcDbArc
 50
180.0
 51
270.0
  0
LINE
  5
656
330
1F
100
AcDbEntity
  8
外形線
100
AcDbLine
 10
33548.69848660889
 20
28994.10326060758
 30
0.0
 11
33548.69848660889
 21
28997.60326060757
 31
0.0
  0
ARC
  5
657
330
1F
100
AcDbEntity
  8
外形線
100
AcDbCircle
 10
33548.19848660889
 20
28994.10326060758
 30
0.0
 40
0.5
100
AcDbArc
 50
270.0
 51
0.0
  0
LINE
  5
658
330
1F
100
AcDbEntity
  8
外形線
100
AcDbLine
 10
33548.69848660889
 20
28995.60326060758
 30
0.0
 11
33549.19848660889
 21
28995.60326060758
 31
0.0
  0
ARC
  5
659
330
1F
100
AcDbEntity
  8
外形線
100
AcDbCircle
 10
33549.66771020249
 20
28997.57923111558
 30
0.0
 40
2.030918567864959
100
AcDbArc
 50
256.6416865202841
 51
0.6779299878933364
  0
ARC
  5
65A
330
1F
100
AcDbEntity
  8
外形線
100
AcDbCircle
 10
33549.7081028449
 20
28997.56011074345
 30
0.0
 40
1.617898346868975
100
AcDbArc
 50
251.6399975157815
 51
1.371947721248696
  0
LINE
  5
65B
330
1F
100
AcDbEntity
  8
外形線
100
AcDbLine
 10
33549.19848660889
 20
28997.60326060757
 30
0.0
 11
33549.19848660889
 21
28996.02456968155
 31
0.0
  0
LINE
  5
65C
330
1F
100
AcDbEntity
  8
外形線
100
AcDbLine
 10
34691.69848660889
 20
28997.60326060757
 30
0.0
 11
34691.69848660889
 21
28994.10326060758
 31
0.0
  0
LINE
  5
65D
330
1F
100
AcDbEntity
  8
外形線
100
AcDbLine
 10
34691.19848660889
 20
28993.60326060758
 30
0.0
 11
34672.19848660889
 21
28993.60326060758
 31
0.0
  0
ARC
  5
65E
330
1F
100
AcDbEntity
  8
外形線
100
AcDbCircle
 10
34691.19848660889
 20
28994.10326060758
 30
0.0
 40
0.5
100
AcDbArc
 50
270.0
 51
0.0
  0
LINE
  5
65F
330
1F
100
AcDbEntity
  8
外形線
100
AcDbLine
 10
34671.69848660889
 20
28994.10326060758
 30
0.0
 11
34671.69848660889
 21
28997.60326060757
 31
0.0
  0
ARC
  5
660
330
1F
100
AcDbEntity
  8
外形線
100
AcDbCircle
 10
34672.19848660889
 20
28994.10326060758
 30
0.0
 40
0.5
100
AcDbArc
 50
180.0
 51
270.0
  0
LINE
  5
661
330
1F
100
AcDbEntity
  8
外形線
100
AcDbLine
 10
34671.69848660889
 20
28995.60326060758
 30
0.0
 11
34671.19848660889
 21
28995.60326060758
 31
0.0
  0
ARC
  5
662
330
1F
100
AcDbEntity
  8
外形線
100
AcDbCircle
 10
34670.7292630153
 20
28997.57923111558
 30
0.0
 40
2.030918567864959
100
AcDbArc
 50
179.3220700121066
 51
283.3583134801267
  0
ARC
  5
663
330
1F
100
AcDbEntity
  8
外形線
100
AcDbCircle
 10
34670.68887037288
 20
28997.56011074345
 30
0.0
 40
1.617898346868975
100
AcDbArc
 50
178.6280522787513
 51
288.3600024838189
  0
LINE
  5
664
330
1F
100
AcDbEntity
  8
外形線
100
AcDbLine
 10
34671.19848660889
 20
28997.60326060757
 30
0.0
 11
34671.19848660889
 21
28996.02456968155
 31
0.0
  0
LINE
  5
665
330
1F
100
AcDbEntity
  8
外形線
100
AcDbLine
 10
34730.19848660889
 20
29185.60326060758
 30
0.0
 11
34730.19848660889
 21
29209.60326060757
 31
0.0
  0
LINE
  5
666
330
1F
100
AcDbEntity
  8
外形線
100
AcDbLine
 10
34713.69848660889
 20
29209.60326060757
 30
0.0
 11
34705.19848660889
 21
29209.60326060757
 31
0.0
  0
ARC
  5
667
330
1F
100
AcDbEntity
  8
外形線
100
AcDbCircle
 10
34705.19848660889
 20
29209.10326060758
 30
0.0
 40
0.5
100
AcDbArc
 50
90.0
 51
180.0
  0
LINE
  5
668
330
1F
100
AcDbEntity
  8
外形線
100
AcDbLine
 10
33490.19848660889
 20
29209.60326060757
 30
0.0
 11
33490.19848660889
 21
29185.60326060758
 31
0.0
  0
LINE
  5
669
330
1F
100
AcDbEntity
  8
外形線
100
AcDbLine
 10
34705.19848660889
 20
29185.60326060758
 30
0.0
 11
34713.69848660889
 21
29185.60326060758
 31
0.0
  0
LINE
  5
66A
330
1F
100
AcDbEntity
  8
外形線
100
AcDbLine
 10
34704.69848660889
 20
29208.60326060758
 30
0.0
 11
33504.69848660889
 21
29208.60326060758
 31
0.0
  0
LINE
  5
66B
330
1F
100
AcDbEntity
  8
外形線
100
AcDbLine
 10
33504.69848660889
 20
29186.60326060757
 30
0.0
 11
34704.69848660889
 21
29186.60326060757
 31
0.0
  0
LINE
  5
66C
330
1F
100
AcDbEntity
  8
外形線
100
AcDbLine
 10
33490.19848660889
 20
29206.60326060758
 30
0.0
 11
33489.20142794018
 21
29200.78708117065
 31
0.0
  0
ARC
  5
66D
330
1F
100
AcDbEntity
  8
外形線
100
AcDbCircle
 10
33489.44802642114
 20
29200.74598142383
 30
0.0
 40
0.25
100
AcDbArc
 50
170.537677792045
 51
176.5230231830232
  0
ARC
  5
66E
102
{ACAD_REACTORS
330
9EF
102
}
330
1F
100
AcDbEntity
  8
外形線
100
AcDbCircle
 10
33489.44802642114
 20
29200.74598142383
 30
0.0
 40
0.25
100
AcDbArc
 50
183.4769768169768
 51
243.434948822922
  0
LINE
  5
66F
330
1F
100
AcDbEntity
  8
外形線
100
AcDbLine
 10
33489.19848660889
 20
29200.76114328727
 30
0.0
 11
33489.19848660889
 21
29194.44537792788
 31
0.0
  0
LINE
  5
670
330
1F
100
AcDbEntity
  8
外形線
100
AcDbLine
 10
33489.33622302226
 20
29200.52237462607
 30
0.0
 11
33490.19848660889
 21
29200.10326060758
 31
0.0
  0
LINE
  5
671
330
1F
100
AcDbEntity
  8
外形線
100
AcDbLine
 10
33490.19848660889
 20
29188.60326060757
 30
0.0
 11
33489.20142794018
 21
29194.4194400445
 31
0.0
  0
ARC
  5
672
330
1F
100
AcDbEntity
  8
外形線
100
AcDbCircle
 10
33489.44802642114
 20
29194.46053979132
 30
0.0
 40
0.25
100
AcDbArc
 50
183.4769768169768
 51
189.4623222084304
  0
ARC
  5
673
330
1F
100
AcDbEntity
  8
外形線
100
AcDbCircle
 10
33489.44802642114
 20
29194.46053979132
 30
0.0
 40
0.25
100
AcDbArc
 50
116.565051177078
 51
176.5230231830232
  0
LINE
  5
674
330
1F
100
AcDbEntity
  8
外形線
100
AcDbLine
 10
33489.33622302226
 20
29194.68414658908
 30
0.0
 11
33490.19848660889
 21
29195.10326060758
 31
0.0
  0
LINE
  5
675
330
1F
100
AcDbEntity
  8
外形線
100
AcDbLine
 10
33490.19848660889
 20
29209.60326060757
 30
0.0
 11
33490.19848660889
 21
29213.60326060757
 31
0.0
  0
LINE
  5
676
330
1F
100
AcDbEntity
  8
外形線
100
AcDbLine
 10
33490.19848660889
 20
29213.60326060757
 30
0.0
 11
33491.19848660889
 21
29213.60326060757
 31
0.0
  0
LINE
  5
677
330
1F
100
AcDbEntity
  8
外形線
100
AcDbLine
 10
33491.19848660889
 20
29213.60326060757
 30
0.0
 11
33491.19848660889
 21
29181.60326060758
 31
0.0
  0
LINE
  5
678
330
1F
100
AcDbEntity
  8
外形線
100
AcDbLine
 10
33491.19848660889
 20
29181.60326060758
 30
0.0
 11
33490.19848660889
 21
29181.60326060758
 31
0.0
  0
LINE
  5
679
330
1F
100
AcDbEntity
  8
外形線
100
AcDbLine
 10
33490.19848660889
 20
29181.60326060758
 30
0.0
 11
33490.19848660889
 21
29188.60326060757
 31
0.0
  0
LINE
  5
67A
330
1F
100
AcDbEntity
  8
外形線
100
AcDbLine
 10
33491.19848660889
 20
29181.60326060758
 30
0.0
 11
33491.69848660889
 21
29181.60326060758
 31
0.0
  0
LINE
  5
67B
330
1F
100
AcDbEntity
  8
外形線
100
AcDbLine
 10
33491.69848660889
 20
29181.60326060758
 30
0.0
 11
33491.69848660889
 21
29213.60326060757
 31
0.0
  0
LINE
  5
67C
330
1F
100
AcDbEntity
  8
外形線
100
AcDbLine
 10
33491.69848660889
 20
29213.60326060757
 30
0.0
 11
33491.19848660889
 21
29213.60326060757
 31
0.0
  0
LINE
  5
67D
330
1F
100
AcDbEntity
  8
外形線
100
AcDbLine
 10
33491.69848660889
 20
29181.60326060758
 30
0.0
 11
33503.69848660889
 21
29181.60326060758
 31
0.0
  0
LINE
  5
67E
330
1F
100
AcDbEntity
  8
外形線
100
AcDbLine
 10
33504.69848660889
 20
29182.60326060758
 30
0.0
 11
33504.69848660889
 21
29212.60326060758
 31
0.0
  0
ARC
  5
67F
330
1F
100
AcDbEntity
  8
外形線
100
AcDbCircle
 10
33503.69848660889
 20
29182.60326060758
 30
0.0
 40
1.0
100
AcDbArc
 50
270.0
 51
0.0
  0
LINE
  5
680
330
1F
100
AcDbEntity
  8
外形線
100
AcDbLine
 10
33503.69848660889
 20
29213.60326060757
 30
0.0
 11
33491.69848660889
 21
29213.60326060757
 31
0.0
  0
ARC
  5
681
330
1F
100
AcDbEntity
  8
外形線
100
AcDbCircle
 10
33503.69848660889
 20
29212.60326060758
 30
0.0
 40
1.0
100
AcDbArc
 50
0.0
 51
90.0
  0
LINE
  5
682
330
1F
100
AcDbEntity
  8
外形線
100
AcDbLine
 10
34730.19848660889
 20
29209.60326060757
 30
0.0
 11
34730.19848660889
 21
29185.60326060758
 31
0.0
  0
LINE
  5
683
330
1F
100
AcDbEntity
  8
外形線
100
AcDbLine
 10
34730.19848660889
 20
29206.60326060758
 30
0.0
 11
34731.1955452776
 21
29200.78708117065
 31
0.0
  0
ARC
  5
684
330
1F
100
AcDbEntity
  8
外形線
100
AcDbCircle
 10
34730.94894679664
 20
29200.74598142383
 30
0.0
 40
0.25
100
AcDbArc
 50
3.476976816976812
 51
9.46232220795494
  0
ARC
  5
685
102
{ACAD_REACTORS
330
9EF
102
}
330
1F
100
AcDbEntity
  8
外形線
100
AcDbCircle
 10
34730.94894679664
 20
29200.74598142383
 30
0.0
 40
0.25
100
AcDbArc
 50
296.565051177078
 51
356.5230231830232
  0
LINE
  5
686
102
{ACAD_REACTORS
330
9EF
102
}
330
1F
100
AcDbEntity
  8
外形線
100
AcDbLine
 10
34731.19848660889
 20
29200.76114328727
 30
0.0
 11
34731.19848660889
 21
29194.44537792788
 31
0.0
  0
LINE
  5
687
330
1F
100
AcDbEntity
  8
外形線
100
AcDbLine
 10
34731.06075019552
 20
29200.52237462607
 30
0.0
 11
34730.19848660889
 21
29200.10326060758
 31
0.0
  0
LINE
  5
688
330
1F
100
AcDbEntity
  8
外形線
100
AcDbLine
 10
34730.19848660889
 20
29188.60326060757
 30
0.0
 11
34731.1955452776
 21
29194.4194400445
 31
0.0
  0
ARC
  5
689
330
1F
100
AcDbEntity
  8
外形線
100
AcDbCircle
 10
34730.94894679664
 20
29194.46053979132
 30
0.0
 40
0.25
100
AcDbArc
 50
350.5376777915696
 51
356.5230231830232
  0
ARC
  5
68A
330
1F
100
AcDbEntity
  8
外形線
100
AcDbCircle
 10
34730.94894679664
 20
29194.46053979132
 30
0.0
 40
0.25
100
AcDbArc
 50
3.476976816976812
 51
63.43494882292201
  0
LINE
  5
68B
330
1F
100
AcDbEntity
  8
外形線
100
AcDbLine
 10
34731.06075019552
 20
29194.68414658908
 30
0.0
 11
34730.19848660889
 21
29195.10326060758
 31
0.0
  0
LINE
  5
68C
330
1F
100
AcDbEntity
  8
外形線
100
AcDbLine
 10
34730.19848660889
 20
29209.60326060757
 30
0.0
 11
34730.19848660889
 21
29213.60326060757
 31
0.0
  0
LINE
  5
68D
330
1F
100
AcDbEntity
  8
外形線
100
AcDbLine
 10
34730.19848660889
 20
29213.60326060757
 30
0.0
 11
34729.19848660889
 21
29213.60326060757
 31
0.0
  0
LINE
  5
68E
330
1F
100
AcDbEntity
  8
外形線
100
AcDbLine
 10
34729.19848660889
 20
29213.60326060757
 30
0.0
 11
34729.19848660889
 21
29181.60326060758
 31
0.0
  0
LINE
  5
68F
330
1F
100
AcDbEntity
  8
外形線
100
AcDbLine
 10
34729.19848660889
 20
29181.60326060758
 30
0.0
 11
34730.19848660889
 21
29181.60326060758
 31
0.0
  0
LINE
  5
690
330
1F
100
AcDbEntity
  8
外形線
100
AcDbLine
 10
34730.19848660889
 20
29181.60326060758
 30
0.0
 11
34730.19848660889
 21
29188.60326060757
 31
0.0
  0
LINE
  5
691
330
1F
100
AcDbEntity
  8
外形線
100
AcDbLine
 10
34729.19848660889
 20
29181.60326060758
 30
0.0
 11
34728.69848660889
 21
29181.60326060758
 31
0.0
  0
LINE
  5
692
330
1F
100
AcDbEntity
  8
外形線
100
AcDbLine
 10
34728.69848660889
 20
29181.60326060758
 30
0.0
 11
34728.69848660889
 21
29213.60326060757
 31
0.0
  0
LINE
  5
693
330
1F
100
AcDbEntity
  8
外形線
100
AcDbLine
 10
34728.69848660889
 20
29213.60326060757
 30
0.0
 11
34729.19848660889
 21
29213.60326060757
 31
0.0
  0
LINE
  5
694
330
1F
100
AcDbEntity
  8
外形線
100
AcDbLine
 10
34728.69848660889
 20
29213.60326060757
 30
0.0
 11
34714.69848660889
 21
29213.60326060757
 31
0.0
  0
LINE
  5
695
330
1F
100
AcDbEntity
  8
外形線
100
AcDbLine
 10
34713.69848660889
 20
29212.60326060758
 30
0.0
 11
34713.69848660889
 21
29182.60326060758
 31
0.0
  0
ARC
  5
696
330
1F
100
AcDbEntity
  8
外形線
100
AcDbCircle
 10
34714.69848660889
 20
29212.60326060758
 30
0.0
 40
1.0
100
AcDbArc
 50
90.0
 51
180.0
  0
ARC
  5
697
330
1F
100
AcDbEntity
  8
外形線
100
AcDbCircle
 10
34714.69848660889
 20
29182.60326060758
 30
0.0
 40
1.0
100
AcDbArc
 50
180.0
 51
270.0
  0
LINE
  5
698
330
1F
100
AcDbEntity
  8
外形線
100
AcDbLine
 10
34714.69848660889
 20
29181.60326060758
 30
0.0
 11
34728.69848660889
 21
29181.60326060758
 31
0.0
  0
LINE
  5
699
330
1F
100
AcDbEntity
  8
外形線
100
AcDbLine
 10
34704.69848660889
 20
29209.10326060758
 30
0.0
 11
34704.69848660889
 21
29200.85326060758
 31
0.0
  0
ARC
  5
69A
330
1F
100
AcDbEntity
  8
外形線
100
AcDbCircle
 10
34705.19848660889
 20
29200.85326060758
 30
0.0
 40
0.5
100
AcDbArc
 50
180.0
 51
270.0
  0
ARC
  5
69B
330
1F
100
AcDbEntity
  8
外形線
100
AcDbCircle
 10
34705.19848660889
 20
29186.10326060758
 30
0.0
 40
0.5
100
AcDbArc
 50
180.0
 51
270.0
  0
LINE
  5
69C
330
1F
100
AcDbEntity
  8
外形線
100
AcDbLine
 10
34705.19848660889
 20
29209.60326060757
 30
0.0
 11
33504.69848660889
 21
29209.60326060757
 31
0.0
  0
LINE
  5
69D
330
1F
100
AcDbEntity
  8
外形線
100
AcDbLine
 10
33504.69848660889
 20
29185.60326060758
 30
0.0
 11
34705.19848660889
 21
29185.60326060758
 31
0.0
  0
LINE
  5
69E
330
1F
100
AcDbEntity
  8
外形線
100
AcDbLine
 10
34713.69848660889
 20
29200.35326060757
 30
0.0
 11
34705.19848660889
 21
29200.35326060757
 31
0.0
  0
LINE
  5
69F
330
1F
100
AcDbEntity
  8
外形線
100
AcDbLine
 10
34713.69848660889
 20
29194.85326060758
 30
0.0
 11
34705.19848660889
 21
29194.85326060758
 31
0.0
  0
LINE
  5
6A0
330
1F
100
AcDbEntity
  8
外形線
100
AcDbLine
 10
34706.19848660889
 20
29200.35326060757
 30
0.0
 11
34706.19848660889
 21
29194.85326060758
 31
0.0
  0
LINE
  5
6A1
330
1F
100
AcDbEntity
  8
外形線
100
AcDbLine
 10
34704.69848660889
 20
29194.35326060757
 30
0.0
 11
34704.69848660889
 21
29186.10326060758
 31
0.0
  0
ARC
  5
6A2
330
1F
100
AcDbEntity
  8
外形線
100
AcDbCircle
 10
34705.19848660889
 20
29194.35326060757
 30
0.0
 40
0.5
100
AcDbArc
 50
90.0
 51
180.0
  0
ARC
  5
6A3
330
1F
100
AcDbEntity
  8
孔
100
AcDbCircle
 10
33558.19848660889
 20
29197.60326060758
 30
0.0
 40
5.0
100
AcDbArc
 50
270.0
 51
90.0
  0
ARC
  5
6A4
330
1F
100
AcDbEntity
  8
孔
100
AcDbCircle
 10
33514.19848660889
 20
29197.60326060758
 30
0.0
 40
5.0
100
AcDbArc
 50
90.0
 51
143.1301023543253
  0
ARC
  5
6A5
330
1F
100
AcDbEntity
  8
孔
100
AcDbCircle
 10
33514.19848660889
 20
29197.60326060758
 30
0.0
 40
5.0
100
AcDbArc
 50
216.8698976456747
 51
270.0
  0
LINE
  5
6A6
330
1F
100
AcDbEntity
  8
孔
100
AcDbLine
 10
33504.69848660889
 20
29200.60326060758
 30
0.0
 11
33510.19848660889
 21
29200.60326060758
 31
0.0
  0
LINE
  5
6A7
330
1F
100
AcDbEntity
  8
孔
100
AcDbLine
 10
33504.69848660889
 20
29194.60326060757
 30
0.0
 11
33510.19848660889
 21
29194.60326060757
 31
0.0
  0
LINE
  5
6A8
330
1F
100
AcDbEntity
  8
孔
100
AcDbLine
 10
33514.19848660889
 20
29202.60326060758
 30
0.0
 11
33528.69848660889
 21
29202.60326060758
 31
0.0
  0
LINE
  5
6A9
330
1F
100
AcDbEntity
  8
孔
100
AcDbLine
 10
33548.69848660889
 20
29202.60326060758
 30
0.0
 11
33558.19848660889
 21
29202.60326060758
 31
0.0
  0
LINE
  5
6AA
330
1F
100
AcDbEntity
  8
孔
100
AcDbLine
 10
33514.19848660889
 20
29192.60326060758
 30
0.0
 11
33528.69848660889
 21
29192.60326060758
 31
0.0
  0
LINE
  5
6AB
330
1F
100
AcDbEntity
  8
孔
100
AcDbLine
 10
33548.69848660889
 20
29192.60326060758
 30
0.0
 11
33558.19848660889
 21
29192.60326060758
 31
0.0
  0
LINE
  5
6AC
330
1F
100
AcDbEntity
  8
外形線
100
AcDbLine
 10
33528.69848660889
 20
29201.60326060758
 30
0.0
 11
33528.69848660889
 21
29193.60326060758
 31
0.0
  0
LINE
  5
6AD
330
1F
100
AcDbEntity
  8
外形線
100
AcDbLine
 10
33532.19848660889
 20
29190.10326060758
 30
0.0
 11
33541.19848660889
 21
29190.10326060758
 31
0.0
  0
ARC
  5
6AE
330
1F
100
AcDbEntity
  8
外形線
100
AcDbCircle
 10
33545.19848660889
 20
29193.60326060758
 30
0.0
 40
3.5
100
AcDbArc
 50
270.0
 51
0.0
  0
ARC
  5
6AF
330
1F
100
AcDbEntity
  8
外形線
100
AcDbCircle
 10
33532.19848660889
 20
29193.60326060758
 30
0.0
 40
3.5
100
AcDbArc
 50
180.0
 51
270.0
  0
LINE
  5
6B0
330
1F
100
AcDbEntity
  8
外形線
100
AcDbLine
 10
33548.69848660889
 20
29193.60326060758
 30
0.0
 11
33548.69848660889
 21
29201.60326060758
 31
0.0
  0
ARC
  5
6B1
330
1F
100
AcDbEntity
  8
外形線
100
AcDbCircle
 10
33545.19848660889
 20
29201.60326060758
 30
0.0
 40
3.5
100
AcDbArc
 50
0.0
 51
90.0
  0
LINE
  5
6B2
330
1F
100
AcDbEntity
  8
外形線
100
AcDbLine
 10
33541.19848660889
 20
29205.10326060758
 30
0.0
 11
33532.19848660889
 21
29205.10326060758
 31
0.0
  0
ARC
  5
6B3
330
1F
100
AcDbEntity
  8
外形線
100
AcDbCircle
 10
33532.19848660889
 20
29201.60326060758
 30
0.0
 40
3.5
100
AcDbArc
 50
90.0
 51
180.0
  0
LINE
  5
6B4
330
1F
100
AcDbEntity
  8
外形線
100
AcDbLine
 10
33528.69848660889
 20
29201.60326060758
 30
0.0
 11
33530.69848660889
 21
29201.60326060758
 31
0.0
  0
LINE
  5
6B5
330
1F
100
AcDbEntity
  8
外形線
100
AcDbLine
 10
33530.69848660889
 20
29201.60326060758
 30
0.0
 11
33530.69848660889
 21
29193.60326060758
 31
0.0
  0
LINE
  5
6B6
330
1F
100
AcDbEntity
  8
外形線
100
AcDbLine
 10
33530.69848660889
 20
29193.60326060758
 30
0.0
 11
33528.69848660889
 21
29193.60326060758
 31
0.0
  0
LINE
  5
6B7
330
1F
100
AcDbEntity
  8
外形線
100
AcDbLine
 10
33541.19848660889
 20
29191.10326060758
 30
0.0
 11
33541.19848660889
 21
29188.60326060757
 31
0.0
  0
LINE
  5
6B8
330
1F
100
AcDbEntity
  8
外形線
100
AcDbLine
 10
33541.19848660889
 20
29188.60326060757
 30
0.0
 11
33545.19848660889
 21
29188.60326060757
 31
0.0
  0
LINE
  5
6B9
330
1F
100
AcDbEntity
  8
外形線
100
AcDbLine
 10
33545.19848660889
 20
29188.60326060757
 30
0.0
 11
33545.19848660889
 21
29191.10326060758
 31
0.0
  0
LINE
  5
6BA
330
1F
100
AcDbEntity
  8
外形線
100
AcDbLine
 10
33545.19848660889
 20
29191.10326060758
 30
0.0
 11
33541.19848660889
 21
29191.10326060758
 31
0.0
  0
LINE
  5
6BB
330
1F
100
AcDbEntity
  8
外形線
100
AcDbLine
 10
33541.19848660889
 20
29204.10326060757
 30
0.0
 11
33541.19848660889
 21
29206.60326060758
 31
0.0
  0
LINE
  5
6BC
330
1F
100
AcDbEntity
  8
外形線
100
AcDbLine
 10
33541.19848660889
 20
29206.60326060758
 30
0.0
 11
33545.19848660889
 21
29206.60326060758
 31
0.0
  0
LINE
  5
6BD
330
1F
100
AcDbEntity
  8
外形線
100
AcDbLine
 10
33545.19848660889
 20
29206.60326060758
 30
0.0
 11
33545.19848660889
 21
29204.10326060757
 31
0.0
  0
LINE
  5
6BE
330
1F
100
AcDbEntity
  8
外形線
100
AcDbLine
 10
33545.19848660889
 20
29204.10326060757
 30
0.0
 11
33541.19848660889
 21
29204.10326060757
 31
0.0
  0
LINE
  5
6BF
330
1F
100
AcDbEntity
  8
外形線
100
AcDbLine
 10
33548.69848660889
 20
29200.60326060758
 30
0.0
 11
33551.69848660889
 21
29200.60326060758
 31
0.0
  0
LINE
  5
6C0
330
1F
100
AcDbEntity
  8
外形線
100
AcDbLine
 10
33551.69848660889
 20
29200.60326060758
 30
0.0
 11
33551.69848660889
 21
29194.60326060757
 31
0.0
  0
LINE
  5
6C1
330
1F
100
AcDbEntity
  8
外形線
100
AcDbLine
 10
33551.69848660889
 20
29194.60326060757
 30
0.0
 11
33548.69848660889
 21
29194.60326060757
 31
0.0
  0
LINE
  5
6C2
330
1F
100
AcDbEntity
  8
外形線
100
AcDbLine
 10
33544.69848660889
 20
29199.60326060758
 30
0.0
 11
33533.69848660889
 21
29199.60326060758
 31
0.0
  0
LINE
  5
6C3
330
1F
100
AcDbEntity
  8
外形線
100
AcDbLine
 10
33533.69848660889
 20
29199.60326060758
 30
0.0
 11
33533.69848660889
 21
29195.60326060758
 31
0.0
  0
LINE
  5
6C4
330
1F
100
AcDbEntity
  8
外形線
100
AcDbLine
 10
33533.69848660889
 20
29195.60326060758
 30
0.0
 11
33544.69848660889
 21
29195.60326060758
 31
0.0
  0
ARC
  5
6C5
330
1F
100
AcDbEntity
  8
外形線
100
AcDbCircle
 10
33544.69848660889
 20
29197.60326060758
 30
0.0
 40
2.0
100
AcDbArc
 50
270.0
 51
90.0
  0
LINE
  5
6C6
330
1F
100
AcDbEntity
  8
外形線
100
AcDbLine
 10
33528.69848660889
 20
29194.35326060757
 30
0.0
 11
33529.69848660889
 21
29194.35326060757
 31
0.0
  0
LINE
  5
6C7
330
1F
100
AcDbEntity
  8
外形線
100
AcDbLine
 10
33529.69848660889
 20
29194.35326060757
 30
0.0
 11
33529.69848660889
 21
29200.85326060758
 31
0.0
  0
LINE
  5
6C8
330
1F
100
AcDbEntity
  8
外形線
100
AcDbLine
 10
33529.69848660889
 20
29200.85326060758
 30
0.0
 11
33528.69848660889
 21
29200.85326060758
 31
0.0
  0
LINE
  5
6C9
330
1F
100
AcDbEntity
  8
外形線
100
AcDbLine
 10
33504.69848660889
 20
29207.10326060758
 30
0.0
 11
33574.19848660889
 21
29207.10326060758
 31
0.0
  0
LINE
  5
6CA
330
1F
100
AcDbEntity
  8
外形線
100
AcDbLine
 10
33574.19848660889
 20
29207.10326060758
 30
0.0
 11
33574.19848660889
 21
29199.90585423082
 31
0.0
  0
LINE
  5
6CB
330
1F
100
AcDbEntity
  8
外形線
100
AcDbLine
 10
33574.19848660889
 20
29195.30066698433
 30
0.0
 11
33574.19848660889
 21
29188.10326060757
 31
0.0
  0
LINE
  5
6CC
330
1F
100
AcDbEntity
  8
外形線
100
AcDbLine
 10
33574.19848660889
 20
29188.10326060757
 30
0.0
 11
33504.69848660889
 21
29188.10326060757
 31
0.0
  0
LINE
  5
6CD
330
1F
100
AcDbEntity
  8
外形線
100
AcDbLine
 10
33504.69848660889
 20
29189.10326060758
 30
0.0
 11
33541.19848660889
 21
29189.10326060758
 31
0.0
  0
LINE
  5
6CE
330
1F
100
AcDbEntity
  8
外形線
100
AcDbLine
 10
33545.19848660889
 20
29189.10326060758
 30
0.0
 11
33574.19848660889
 21
29189.10326060758
 31
0.0
  0
LINE
  5
6CF
330
1F
100
AcDbEntity
  8
外形線
100
AcDbLine
 10
33574.19848660889
 20
29206.10326060757
 30
0.0
 11
33545.19848660889
 21
29206.10326060757
 31
0.0
  0
LINE
  5
6D0
330
1F
100
AcDbEntity
  8
外形線
100
AcDbLine
 10
33504.69848660889
 20
29206.10326060757
 30
0.0
 11
33541.19848660889
 21
29206.10326060757
 31
0.0
  0
LINE
  5
6D1
330
1F
100
AcDbEntity
  8
外形線
100
AcDbLine
 10
33570.19848660889
 20
29201.10326060758
 30
0.0
 11
33566.19848660889
 21
29201.10326060758
 31
0.0
  0
LINE
  5
6D2
330
1F
100
AcDbEntity
  8
外形線
100
AcDbLine
 10
33566.19848660889
 20
29201.10326060758
 30
0.0
 11
33566.19848660889
 21
29194.10326060758
 31
0.0
  0
LINE
  5
6D3
330
1F
100
AcDbEntity
  8
外形線
100
AcDbLine
 10
33566.19848660889
 20
29194.10326060758
 30
0.0
 11
33570.19848660889
 21
29194.10326060758
 31
0.0
  0
LINE
  5
6D4
330
1F
100
AcDbEntity
  8
外形線
100
AcDbLine
 10
33569.69848660889
 20
29194.10326060758
 30
0.0
 11
33569.69848660889
 21
29201.10326060758
 31
0.0
  0
LINE
  5
6D5
330
1F
100
AcDbEntity
  8
外形線
100
AcDbLine
 10
33569.69848660889
 20
29201.10326060758
 30
0.0
 11
33577.29971485992
 21
29198.97749660993
 31
0.0
  0
LINE
  5
6D6
330
1F
100
AcDbEntity
  8
外形線
100
AcDbLine
 10
33577.29971485992
 20
29196.22902460522
 30
0.0
 11
33569.69848660889
 21
29194.10326060758
 31
0.0
  0
ARC
  5
6D7
330
1F
100
AcDbEntity
  8
外形線
100
AcDbCircle
 10
33576.69848660889
 20
29197.60326060758
 30
0.0
 40
1.5
100
AcDbArc
 50
293.6293777308589
 51
66.37062226914102
  0
LINE
  5
6D8
330
1F
100
AcDbEntity
  8
外形線
100
AcDbLine
 10
33570.19848660889
 20
29201.10326060758
 30
0.0
 11
33570.19848660889
 21
29200.96343031125
 31
0.0
  0
LINE
  5
6D9
330
1F
100
AcDbEntity
  8
外形線
100
AcDbLine
 10
33570.19848660889
 20
29194.10326060758
 30
0.0
 11
33570.19848660889
 21
29194.2430909039
 31
0.0
  0
LINE
  5
6DA
330
1F
100
AcDbEntity
  8
孔
100
AcDbLine
 10
33591.19848660889
 20
29193.10326060758
 30
0.0
 11
33592.22268174374
 21
29201.23633384925
 31
0.0
  0
LINE
  5
6DB
330
1F
100
AcDbEntity
  8
孔
100
AcDbLine
 10
33595.17429147404
 20
29201.23633384925
 30
0.0
 11
33596.19848660889
 21
29193.10326060758
 31
0.0
  0
ARC
  5
6DC
330
1F
100
AcDbEntity
  8
孔
100
AcDbCircle
 10
33593.69848660889
 20
29200.96800569195
 30
0.0
 40
1.5
100
AcDbArc
 50
10.30484646891518
 51
169.6951535310848
  0
LINE
  5
6DD
330
1F
100
AcDbEntity
  8
孔
100
AcDbLine
 10
33591.19848660889
 20
29193.10326060758
 30
0.0
 11
33596.19848660889
 21
29193.10326060758
 31
0.0
  0
LINE
  5
6DE
330
1F
100
AcDbEntity
  8
孔
100
AcDbLine
 10
33591.19848660889
 20
29193.10326060758
 30
0.0
 11
33591.19848660889
 21
29192.60326060758
 31
0.0
  0
LINE
  5
6DF
330
1F
100
AcDbEntity
  8
孔
100
AcDbLine
 10
33591.19848660889
 20
29192.60326060758
 30
0.0
 11
33596.19848660889
 21
29192.60326060758
 31
0.0
  0
LINE
  5
6E0
330
1F
100
AcDbEntity
  8
孔
100
AcDbLine
 10
33596.19848660889
 20
29192.60326060758
 30
0.0
 11
33596.19848660889
 21
29193.10326060758
 31
0.0
  0
CIRCLE
  5
6E1
330
1F
100
AcDbEntity
  8
孔
100
AcDbCircle
 10
33603.69848660889
 20
29197.60326060758
 30
0.0
 40
2.1
  0
CIRCLE
  5
6E2
330
1F
100
AcDbEntity
  8
孔
100
AcDbCircle
 10
33631.69848660889
 20
29197.60326060758
 30
0.0
 40
2.1
  0
LINE
  5
6E3
330
1F
100
AcDbEntity
  8
孔
100
AcDbLine
 10
33610.69848660889
 20
29201.10326060758
 30
0.0
 11
33610.69848660889
 21
29194.10326060758
 31
0.0
  0
LINE
  5
6E4
330
1F
100
AcDbEntity
  8
孔
100
AcDbLine
 10
33610.69848660889
 20
29194.10326060758
 30
0.0
 11
33624.69848660889
 21
29194.10326060758
 31
0.0
  0
LINE
  5
6E5
330
1F
100
AcDbEntity
  8
孔
100
AcDbLine
 10
33624.69848660889
 20
29194.10326060758
 30
0.0
 11
33624.69848660889
 21
29201.10326060758
 31
0.0
  0
LINE
  5
6E6
330
1F
100
AcDbEntity
  8
孔
100
AcDbLine
 10
33624.69848660889
 20
29201.10326060758
 30
0.0
 11
33610.69848660889
 21
29201.10326060758
 31
0.0
  0
LINE
  5
6E7
330
1F
100
AcDbEntity
  8
孔
100
AcDbLine
 10
33640.69848660889
 20
29193.10326060758
 30
0.0
 11
33641.72268174374
 21
29201.23633384925
 31
0.0
  0
LINE
  5
6E8
330
1F
100
AcDbEntity
  8
孔
100
AcDbLine
 10
33644.67429147404
 20
29201.23633384925
 30
0.0
 11
33645.69848660889
 21
29193.10326060758
 31
0.0
  0
ARC
  5
6E9
330
1F
100
AcDbEntity
  8
孔
100
AcDbCircle
 10
33643.19848660889
 20
29200.96800569195
 30
0.0
 40
1.5
100
AcDbArc
 50
10.30484646891518
 51
169.6951535310848
  0
LINE
  5
6EA
330
1F
100
AcDbEntity
  8
孔
100
AcDbLine
 10
33640.69848660889
 20
29193.10326060758
 30
0.0
 11
33645.69848660889
 21
29193.10326060758
 31
0.0
  0
LINE
  5
6EB
330
1F
100
AcDbEntity
  8
孔
100
AcDbLine
 10
33640.69848660889
 20
29193.10326060758
 30
0.0
 11
33640.69848660889
 21
29192.60326060758
 31
0.0
  0
LINE
  5
6EC
330
1F
100
AcDbEntity
  8
孔
100
AcDbLine
 10
33640.69848660889
 20
29192.60326060758
 30
0.0
 11
33645.69848660889
 21
29192.60326060758
 31
0.0
  0
LINE
  5
6ED
330
1F
100
AcDbEntity
  8
孔
100
AcDbLine
 10
33645.69848660889
 20
29192.60326060758
 30
0.0
 11
33645.69848660889
 21
29193.10326060758
 31
0.0
  0
LINE
  5
6EE
330
1F
100
AcDbEntity
  8
孔
100
AcDbLine
 10
34591.19848660889
 20
29193.10326060758
 30
0.0
 11
34592.22268174374
 21
29201.23633384925
 31
0.0
  0
LINE
  5
6EF
330
1F
100
AcDbEntity
  8
孔
100
AcDbLine
 10
34595.17429147404
 20
29201.23633384925
 30
0.0
 11
34596.19848660889
 21
29193.10326060758
 31
0.0
  0
ARC
  5
6F0
330
1F
100
AcDbEntity
  8
孔
100
AcDbCircle
 10
34593.69848660889
 20
29200.96800569195
 30
0.0
 40
1.5
100
AcDbArc
 50
10.30484646891518
 51
169.6951535310848
  0
LINE
  5
6F1
330
1F
100
AcDbEntity
  8
孔
100
AcDbLine
 10
34591.19848660889
 20
29193.10326060758
 30
0.0
 11
34596.19848660889
 21
29193.10326060758
 31
0.0
  0
LINE
  5
6F2
330
1F
100
AcDbEntity
  8
孔
100
AcDbLine
 10
34591.19848660889
 20
29193.10326060758
 30
0.0
 11
34591.19848660889
 21
29192.60326060758
 31
0.0
  0
LINE
  5
6F3
330
1F
100
AcDbEntity
  8
孔
100
AcDbLine
 10
34591.19848660889
 20
29192.60326060758
 30
0.0
 11
34596.19848660889
 21
29192.60326060758
 31
0.0
  0
LINE
  5
6F4
330
1F
100
AcDbEntity
  8
孔
100
AcDbLine
 10
34596.19848660889
 20
29192.60326060758
 30
0.0
 11
34596.19848660889
 21
29193.10326060758
 31
0.0
  0
CIRCLE
  5
6F5
330
1F
100
AcDbEntity
  8
孔
100
AcDbCircle
 10
33662.69848660889
 20
29197.60326060758
 30
0.0
 40
4.0
  0
CIRCLE
  5
6F6
330
1F
100
AcDbEntity
  8
孔
100
AcDbCircle
 10
33662.69848660889
 20
29197.60326060758
 30
0.0
 40
5.0
  0
LINE
  5
6F7
330
1F
100
AcDbEntity
  8
孔
100
AcDbLine
 10
33679.79848660893
 20
29199.70326060759
 30
0.0
 11
33689.59848660893
 21
29199.70326060759
 31
0.0
  0
LINE
  5
6F8
330
1F
100
AcDbEntity
  8
孔
100
AcDbLine
 10
33679.79848660893
 20
29195.50326060759
 30
0.0
 11
33689.59848660893
 21
29195.50326060759
 31
0.0
  0
ARC
  5
6F9
330
1F
100
AcDbEntity
  8
孔
100
AcDbCircle
 10
33679.7984866089
 20
29197.60326060758
 30
0.0
 40
2.100000000013096
100
AcDbArc
 50
89.99999999958312
 51
270.0000000004169
  0
ARC
  5
6FA
330
1F
100
AcDbEntity
  8
孔
100
AcDbCircle
 10
33689.59848660894
 20
29197.60326060759
 30
0.0
 40
2.099999999998544
100
AcDbArc
 50
270.0
 51
90.0
  0
CIRCLE
  5
6FB
330
1F
100
AcDbEntity
  8
孔
100
AcDbCircle
 10
33854.69848660889
 20
29197.60326060758
 30
0.0
 40
4.0
  0
CIRCLE
  5
6FC
330
1F
100
AcDbEntity
  8
孔
100
AcDbCircle
 10
33854.69848660889
 20
29197.60326060758
 30
0.0
 40
5.0
  0
LINE
  5
6FD
330
1F
100
AcDbEntity
  8
孔
100
AcDbLine
 10
34611.69848660889
 20
29201.10326060758
 30
0.0
 11
34617.69848660889
 21
29201.10326060758
 31
0.0
  0
LINE
  5
6FE
330
1F
100
AcDbEntity
  8
孔
100
AcDbLine
 10
34611.69848660889
 20
29194.10326060758
 30
0.0
 11
34617.69848660889
 21
29194.10326060758
 31
0.0
  0
ARC
  5
6FF
330
1F
100
AcDbEntity
  8
孔
100
AcDbCircle
 10
34617.69848660891
 20
29197.60326060758
 30
0.0
 40
3.5
100
AcDbArc
 50
269.9999999995831
 51
90.00000000041687
  0
ARC
  5
700
330
1F
100
AcDbEntity
  8
孔
100
AcDbCircle
 10
34611.6984866089
 20
29197.60326060758
 30
0.0
 40
3.5
100
AcDbArc
 50
90.00000000041687
 51
269.9999999995831
  0
CIRCLE
  5
701
330
1F
100
AcDbEntity
  8
孔
100
AcDbCircle
 10
34631.19848660889
 20
29197.60326060758
 30
0.0
 40
2.75
  0
ARC
  5
702
330
1F
100
AcDbEntity
  8
孔
100
AcDbCircle
 10
34662.19848660889
 20
29197.60326060758
 30
0.0
 40
5.0
100
AcDbArc
 50
90.0
 51
270.0
  0
LINE
  5
703
330
1F
100
AcDbEntity
  8
孔
100
AcDbLine
 10
34704.69848660889
 20
29202.60326060758
 30
0.0
 11
34691.69848660889
 21
29202.60326060758
 31
0.0
  0
LINE
  5
704
330
1F
100
AcDbEntity
  8
孔
100
AcDbLine
 10
34671.69848660889
 20
29202.60326060758
 30
0.0
 11
34662.19848660889
 21
29202.60326060758
 31
0.0
  0
LINE
  5
705
330
1F
100
AcDbEntity
  8
孔
100
AcDbLine
 10
34704.69848660889
 20
29192.60326060758
 30
0.0
 11
34691.69848660889
 21
29192.60326060758
 31
0.0
  0
LINE
  5
706
330
1F
100
AcDbEntity
  8
孔
100
AcDbLine
 10
34671.69848660889
 20
29192.60326060758
 30
0.0
 11
34662.19848660889
 21
29192.60326060758
 31
0.0
  0
LINE
  5
707
330
1F
100
AcDbEntity
  8
外形線
100
AcDbLine
 10
34691.69848660889
 20
29201.60326060758
 30
0.0
 11
34691.69848660889
 21
29193.60326060758
 31
0.0
  0
LINE
  5
708
330
1F
100
AcDbEntity
  8
外形線
100
AcDbLine
 10
34688.19848660889
 20
29190.10326060758
 30
0.0
 11
34679.19848660889
 21
29190.10326060758
 31
0.0
  0
ARC
  5
709
330
1F
100
AcDbEntity
  8
外形線
100
AcDbCircle
 10
34675.19848660889
 20
29193.60326060758
 30
0.0
 40
3.5
100
AcDbArc
 50
180.0
 51
270.0
  0
ARC
  5
70A
330
1F
100
AcDbEntity
  8
外形線
100
AcDbCircle
 10
34688.19848660889
 20
29193.60326060758
 30
0.0
 40
3.5
100
AcDbArc
 50
270.0
 51
0.0
  0
LINE
  5
70B
330
1F
100
AcDbEntity
  8
外形線
100
AcDbLine
 10
34671.69848660889
 20
29193.60326060758
 30
0.0
 11
34671.69848660889
 21
29201.60326060758
 31
0.0
  0
ARC
  5
70C
330
1F
100
AcDbEntity
  8
外形線
100
AcDbCircle
 10
34675.19848660889
 20
29201.60326060758
 30
0.0
 40
3.5
100
AcDbArc
 50
90.0
 51
180.0
  0
LINE
  5
70D
330
1F
100
AcDbEntity
  8
外形線
100
AcDbLine
 10
34679.19848660889
 20
29205.10326060758
 30
0.0
 11
34688.19848660889
 21
29205.10326060758
 31
0.0
  0
ARC
  5
70E
330
1F
100
AcDbEntity
  8
外形線
100
AcDbCircle
 10
34688.19848660889
 20
29201.60326060758
 30
0.0
 40
3.5
100
AcDbArc
 50
0.0
 51
90.0
  0
LINE
  5
70F
330
1F
100
AcDbEntity
  8
外形線
100
AcDbLine
 10
34691.69848660889
 20
29201.60326060758
 30
0.0
 11
34689.69848660889
 21
29201.60326060758
 31
0.0
  0
LINE
  5
710
330
1F
100
AcDbEntity
  8
外形線
100
AcDbLine
 10
34689.69848660889
 20
29201.60326060758
 30
0.0
 11
34689.69848660889
 21
29193.60326060758
 31
0.0
  0
LINE
  5
711
330
1F
100
AcDbEntity
  8
外形線
100
AcDbLine
 10
34689.69848660889
 20
29193.60326060758
 30
0.0
 11
34691.69848660889
 21
29193.60326060758
 31
0.0
  0
LINE
  5
712
330
1F
100
AcDbEntity
  8
外形線
100
AcDbLine
 10
34679.19848660889
 20
29191.10326060758
 30
0.0
 11
34679.19848660889
 21
29188.60326060757
 31
0.0
  0
LINE
  5
713
330
1F
100
AcDbEntity
  8
外形線
100
AcDbLine
 10
34679.19848660889
 20
29188.60326060757
 30
0.0
 11
34675.19848660889
 21
29188.60326060757
 31
0.0
  0
LINE
  5
714
330
1F
100
AcDbEntity
  8
外形線
100
AcDbLine
 10
34675.19848660889
 20
29188.60326060757
 30
0.0
 11
34675.19848660889
 21
29191.10326060758
 31
0.0
  0
LINE
  5
715
330
1F
100
AcDbEntity
  8
外形線
100
AcDbLine
 10
34675.19848660889
 20
29191.10326060758
 30
0.0
 11
34679.19848660889
 21
29191.10326060758
 31
0.0
  0
LINE
  5
716
330
1F
100
AcDbEntity
  8
外形線
100
AcDbLine
 10
34679.19848660889
 20
29204.10326060757
 30
0.0
 11
34679.19848660889
 21
29206.60326060758
 31
0.0
  0
LINE
  5
717
330
1F
100
AcDbEntity
  8
外形線
100
AcDbLine
 10
34679.19848660889
 20
29206.60326060758
 30
0.0
 11
34675.19848660889
 21
29206.60326060758
 31
0.0
  0
LINE
  5
718
330
1F
100
AcDbEntity
  8
外形線
100
AcDbLine
 10
34675.19848660889
 20
29206.60326060758
 30
0.0
 11
34675.19848660889
 21
29204.10326060757
 31
0.0
  0
LINE
  5
719
330
1F
100
AcDbEntity
  8
外形線
100
AcDbLine
 10
34675.19848660889
 20
29204.10326060757
 30
0.0
 11
34679.19848660889
 21
29204.10326060757
 31
0.0
  0
LINE
  5
71A
330
1F
100
AcDbEntity
  8
外形線
100
AcDbLine
 10
34671.69848660889
 20
29200.60326060758
 30
0.0
 11
34668.69848660889
 21
29200.60326060758
 31
0.0
  0
LINE
  5
71B
330
1F
100
AcDbEntity
  8
外形線
100
AcDbLine
 10
34668.69848660889
 20
29200.60326060758
 30
0.0
 11
34668.69848660889
 21
29194.60326060757
 31
0.0
  0
LINE
  5
71C
330
1F
100
AcDbEntity
  8
外形線
100
AcDbLine
 10
34668.69848660889
 20
29194.60326060757
 30
0.0
 11
34671.69848660889
 21
29194.60326060757
 31
0.0
  0
LINE
  5
71D
330
1F
100
AcDbEntity
  8
外形線
100
AcDbLine
 10
34675.69848660889
 20
29199.60326060758
 30
0.0
 11
34686.69848660889
 21
29199.60326060758
 31
0.0
  0
LINE
  5
71E
330
1F
100
AcDbEntity
  8
外形線
100
AcDbLine
 10
34686.69848660889
 20
29199.60326060758
 30
0.0
 11
34686.69848660889
 21
29195.60326060758
 31
0.0
  0
LINE
  5
71F
330
1F
100
AcDbEntity
  8
外形線
100
AcDbLine
 10
34686.69848660889
 20
29195.60326060758
 30
0.0
 11
34675.69848660889
 21
29195.60326060758
 31
0.0
  0
ARC
  5
720
330
1F
100
AcDbEntity
  8
外形線
100
AcDbCircle
 10
34675.69848660889
 20
29197.60326060758
 30
0.0
 40
2.0
100
AcDbArc
 50
90.0
 51
270.0
  0
LINE
  5
721
330
1F
100
AcDbEntity
  8
外形線
100
AcDbLine
 10
34691.69848660889
 20
29194.35326060757
 30
0.0
 11
34690.69848660889
 21
29194.35326060757
 31
0.0
  0
LINE
  5
722
330
1F
100
AcDbEntity
  8
外形線
100
AcDbLine
 10
34690.69848660889
 20
29194.35326060757
 30
0.0
 11
34690.69848660889
 21
29200.85326060758
 31
0.0
  0
LINE
  5
723
330
1F
100
AcDbEntity
  8
外形線
100
AcDbLine
 10
34690.69848660889
 20
29200.85326060758
 30
0.0
 11
34691.69848660889
 21
29200.85326060758
 31
0.0
  0
LINE
  5
724
330
1F
100
AcDbEntity
  8
外形線
100
AcDbLine
 10
34704.69848660889
 20
29207.10326060758
 30
0.0
 11
34646.19848660889
 21
29207.10326060758
 31
0.0
  0
LINE
  5
725
330
1F
100
AcDbEntity
  8
外形線
100
AcDbLine
 10
34646.19848660889
 20
29207.10326060758
 30
0.0
 11
34646.19848660889
 21
29199.90585423082
 31
0.0
  0
LINE
  5
726
330
1F
100
AcDbEntity
  8
外形線
100
AcDbLine
 10
34646.19848660889
 20
29195.30066698433
 30
0.0
 11
34646.19848660889
 21
29188.10326060757
 31
0.0
  0
LINE
  5
727
330
1F
100
AcDbEntity
  8
外形線
100
AcDbLine
 10
34646.19848660889
 20
29188.10326060757
 30
0.0
 11
34704.69848660889
 21
29188.10326060757
 31
0.0
  0
LINE
  5
728
330
1F
100
AcDbEntity
  8
外形線
100
AcDbLine
 10
34704.69848660889
 20
29189.10326060758
 30
0.0
 11
34679.19848660889
 21
29189.10326060758
 31
0.0
  0
LINE
  5
729
330
1F
100
AcDbEntity
  8
外形線
100
AcDbLine
 10
34675.19848660889
 20
29189.10326060758
 30
0.0
 11
34646.19848660889
 21
29189.10326060758
 31
0.0
  0
LINE
  5
72A
330
1F
100
AcDbEntity
  8
外形線
100
AcDbLine
 10
34646.19848660889
 20
29206.10326060757
 30
0.0
 11
34675.19848660889
 21
29206.10326060757
 31
0.0
  0
LINE
  5
72B
330
1F
100
AcDbEntity
  8
外形線
100
AcDbLine
 10
34704.69848660889
 20
29206.10326060757
 30
0.0
 11
34679.19848660889
 21
29206.10326060757
 31
0.0
  0
LINE
  5
72C
330
1F
100
AcDbEntity
  8
外形線
100
AcDbLine
 10
34650.19848660889
 20
29201.10326060758
 30
0.0
 11
34654.19848660889
 21
29201.10326060758
 31
0.0
  0
LINE
  5
72D
330
1F
100
AcDbEntity
  8
外形線
100
AcDbLine
 10
34654.19848660889
 20
29201.10326060758
 30
0.0
 11
34654.19848660889
 21
29194.10326060758
 31
0.0
  0
LINE
  5
72E
330
1F
100
AcDbEntity
  8
外形線
100
AcDbLine
 10
34654.19848660889
 20
29194.10326060758
 30
0.0
 11
34650.19848660889
 21
29194.10326060758
 31
0.0
  0
LINE
  5
72F
330
1F
100
AcDbEntity
  8
外形線
100
AcDbLine
 10
34650.69848660889
 20
29194.10326060758
 30
0.0
 11
34650.69848660889
 21
29201.10326060758
 31
0.0
  0
LINE
  5
730
330
1F
100
AcDbEntity
  8
外形線
100
AcDbLine
 10
34650.69848660889
 20
29201.10326060758
 30
0.0
 11
34643.09725835786
 21
29198.97749660993
 31
0.0
  0
LINE
  5
731
330
1F
100
AcDbEntity
  8
外形線
100
AcDbLine
 10
34643.09725835786
 20
29196.22902460522
 30
0.0
 11
34650.69848660889
 21
29194.10326060758
 31
0.0
  0
ARC
  5
732
330
1F
100
AcDbEntity
  8
外形線
100
AcDbCircle
 10
34643.69848660889
 20
29197.60326060758
 30
0.0
 40
1.5
100
AcDbArc
 50
113.6293777308589
 51
246.370622269141
  0
LINE
  5
733
330
1F
100
AcDbEntity
  8
外形線
100
AcDbLine
 10
34650.19848660889
 20
29201.10326060758
 30
0.0
 11
34650.19848660889
 21
29200.96343031125
 31
0.0
  0
LINE
  5
734
330
1F
100
AcDbEntity
  8
外形線
100
AcDbLine
 10
34650.19848660889
 20
29194.10326060758
 30
0.0
 11
34650.19848660889
 21
29194.2430909039
 31
0.0
  0
CIRCLE
  5
735
330
1F
100
AcDbEntity
  8
孔
100
AcDbCircle
 10
33708.69848660889
 20
29197.60326060758
 30
0.0
 40
2.1
  0
CIRCLE
  5
736
330
1F
100
AcDbEntity
  8
孔
100
AcDbCircle
 10
33765.69848660889
 20
29197.60326060758
 30
0.0
 40
2.1
  0
CIRCLE
  5
737
330
1F
100
AcDbEntity
  8
孔
100
AcDbCircle
 10
33778.69848660889
 20
29197.60326060758
 30
0.0
 40
2.1
  0
CIRCLE
  5
738
330
1F
100
AcDbEntity
  8
孔
100
AcDbCircle
 10
33793.69848660889
 20
29197.60326060758
 30
0.0
 40
2.1
  0
CIRCLE
  5
739
330
1F
100
AcDbEntity
  8
孔
100
AcDbCircle
 10
33823.69848660889
 20
29197.60326060758
 30
0.0
 40
2.1
  0
CIRCLE
  5
73A
330
1F
100
AcDbEntity
  8
孔
100
AcDbCircle
 10
33838.69848660889
 20
29197.60326060758
 30
0.0
 40
2.1
  0
CIRCLE
  5
73B
330
1F
100
AcDbEntity
  8
孔
100
AcDbCircle
 10
33884.69848660889
 20
29197.60326060758
 30
0.0
 40
2.1
  0
CIRCLE
  5
73C
330
1F
100
AcDbEntity
  8
孔
100
AcDbCircle
 10
33896.69848660889
 20
29197.60326060758
 30
0.0
 40
2.1
  0
CIRCLE
  5
73D
330
1F
100
AcDbEntity
  8
孔
100
AcDbCircle
 10
33910.69848660889
 20
29197.60326060758
 30
0.0
 40
2.1
  0
CIRCLE
  5
73E
330
1F
100
AcDbEntity
  8
孔
100
AcDbCircle
 10
33946.69848660889
 20
29197.60326060758
 30
0.0
 40
2.1
  0
CIRCLE
  5
73F
330
1F
100
AcDbEntity
  8
孔
100
AcDbCircle
 10
34015.69848660889
 20
29197.60326060758
 30
0.0
 40
2.1
  0
CIRCLE
  5
740
330
1F
100
AcDbEntity
  8
孔
100
AcDbCircle
 10
34025.69848660889
 20
29197.60326060758
 30
0.0
 40
2.1
  0
CIRCLE
  5
741
330
1F
100
AcDbEntity
  8
孔
100
AcDbCircle
 10
34040.69848660889
 20
29197.60326060758
 30
0.0
 40
2.1
  0
CIRCLE
  5
742
330
1F
100
AcDbEntity
  8
孔
100
AcDbCircle
 10
34100.69848660889
 20
29197.60326060758
 30
0.0
 40
2.1
  0
LINE
  5
743
330
1F
100
AcDbEntity
  8
孔
100
AcDbLine
 10
33696.69848660889
 20
29193.10326060758
 30
0.0
 11
33697.72268174374
 21
29201.23633384925
 31
0.0
  0
LINE
  5
744
330
1F
100
AcDbEntity
  8
孔
100
AcDbLine
 10
33700.67429147404
 20
29201.23633384925
 30
0.0
 11
33701.69848660889
 21
29193.10326060758
 31
0.0
  0
ARC
  5
745
330
1F
100
AcDbEntity
  8
孔
100
AcDbCircle
 10
33699.19848660889
 20
29200.96800569195
 30
0.0
 40
1.5
100
AcDbArc
 50
10.30484646891518
 51
169.6951535310848
  0
LINE
  5
746
330
1F
100
AcDbEntity
  8
孔
100
AcDbLine
 10
33696.69848660889
 20
29193.10326060758
 30
0.0
 11
33701.69848660889
 21
29193.10326060758
 31
0.0
  0
LINE
  5
747
330
1F
100
AcDbEntity
  8
孔
100
AcDbLine
 10
33696.69848660889
 20
29193.10326060758
 30
0.0
 11
33696.69848660889
 21
29192.60326060758
 31
0.0
  0
LINE
  5
748
330
1F
100
AcDbEntity
  8
孔
100
AcDbLine
 10
33696.69848660889
 20
29192.60326060758
 30
0.0
 11
33701.69848660889
 21
29192.60326060758
 31
0.0
  0
LINE
  5
749
330
1F
100
AcDbEntity
  8
孔
100
AcDbLine
 10
33701.69848660889
 20
29192.60326060758
 30
0.0
 11
33701.69848660889
 21
29193.10326060758
 31
0.0
  0
LINE
  5
74A
330
1F
100
AcDbEntity
  8
孔
100
AcDbLine
 10
33828.69848660889
 20
29193.10326060758
 30
0.0
 11
33829.72268174374
 21
29201.23633384925
 31
0.0
  0
LINE
  5
74B
330
1F
100
AcDbEntity
  8
孔
100
AcDbLine
 10
33832.67429147404
 20
29201.23633384925
 30
0.0
 11
33833.69848660889
 21
29193.10326060758
 31
0.0
  0
ARC
  5
74C
330
1F
100
AcDbEntity
  8
孔
100
AcDbCircle
 10
33831.19848660889
 20
29200.96800569195
 30
0.0
 40
1.5
100
AcDbArc
 50
10.30484646891518
 51
169.6951535310848
  0
LINE
  5
74D
330
1F
100
AcDbEntity
  8
孔
100
AcDbLine
 10
33828.69848660889
 20
29193.10326060758
 30
0.0
 11
33833.69848660889
 21
29193.10326060758
 31
0.0
  0
LINE
  5
74E
330
1F
100
AcDbEntity
  8
孔
100
AcDbLine
 10
33828.69848660889
 20
29193.10326060758
 30
0.0
 11
33828.69848660889
 21
29192.60326060758
 31
0.0
  0
LINE
  5
74F
330
1F
100
AcDbEntity
  8
孔
100
AcDbLine
 10
33828.69848660889
 20
29192.60326060758
 30
0.0
 11
33833.69848660889
 21
29192.60326060758
 31
0.0
  0
LINE
  5
750
330
1F
100
AcDbEntity
  8
孔
100
AcDbLine
 10
33833.69848660889
 20
29192.60326060758
 30
0.0
 11
33833.69848660889
 21
29193.10326060758
 31
0.0
  0
LINE
  5
751
330
1F
100
AcDbEntity
  8
孔
100
AcDbLine
 10
33869.69848660889
 20
29193.10326060758
 30
0.0
 11
33870.72268174374
 21
29201.23633384925
 31
0.0
  0
LINE
  5
752
330
1F
100
AcDbEntity
  8
孔
100
AcDbLine
 10
33873.67429147404
 20
29201.23633384925
 30
0.0
 11
33874.69848660889
 21
29193.10326060758
 31
0.0
  0
ARC
  5
753
330
1F
100
AcDbEntity
  8
孔
100
AcDbCircle
 10
33872.19848660889
 20
29200.96800569195
 30
0.0
 40
1.5
100
AcDbArc
 50
10.30484646891518
 51
169.6951535310848
  0
LINE
  5
754
330
1F
100
AcDbEntity
  8
孔
100
AcDbLine
 10
33869.69848660889
 20
29193.10326060758
 30
0.0
 11
33874.69848660889
 21
29193.10326060758
 31
0.0
  0
LINE
  5
755
330
1F
100
AcDbEntity
  8
孔
100
AcDbLine
 10
33869.69848660889
 20
29193.10326060758
 30
0.0
 11
33869.69848660889
 21
29192.60326060758
 31
0.0
  0
LINE
  5
756
330
1F
100
AcDbEntity
  8
孔
100
AcDbLine
 10
33869.69848660889
 20
29192.60326060758
 30
0.0
 11
33874.69848660889
 21
29192.60326060758
 31
0.0
  0
LINE
  5
757
330
1F
100
AcDbEntity
  8
孔
100
AcDbLine
 10
33874.69848660889
 20
29192.60326060758
 30
0.0
 11
33874.69848660889
 21
29193.10326060758
 31
0.0
  0
LINE
  5
758
330
1F
100
AcDbEntity
  8
孔
100
AcDbLine
 10
33965.69848660889
 20
29193.10326060758
 30
0.0
 11
33966.72268174374
 21
29201.23633384925
 31
0.0
  0
LINE
  5
759
330
1F
100
AcDbEntity
  8
孔
100
AcDbLine
 10
33969.67429147404
 20
29201.23633384925
 30
0.0
 11
33970.69848660889
 21
29193.10326060758
 31
0.0
  0
ARC
  5
75A
330
1F
100
AcDbEntity
  8
孔
100
AcDbCircle
 10
33968.19848660889
 20
29200.96800569195
 30
0.0
 40
1.5
100
AcDbArc
 50
10.30484646891518
 51
169.6951535310848
  0
LINE
  5
75B
330
1F
100
AcDbEntity
  8
孔
100
AcDbLine
 10
33965.69848660889
 20
29193.10326060758
 30
0.0
 11
33970.69848660889
 21
29193.10326060758
 31
0.0
  0
LINE
  5
75C
330
1F
100
AcDbEntity
  8
孔
100
AcDbLine
 10
33965.69848660889
 20
29193.10326060758
 30
0.0
 11
33965.69848660889
 21
29192.60326060758
 31
0.0
  0
LINE
  5
75D
330
1F
100
AcDbEntity
  8
孔
100
AcDbLine
 10
33965.69848660889
 20
29192.60326060758
 30
0.0
 11
33970.69848660889
 21
29192.60326060758
 31
0.0
  0
LINE
  5
75E
330
1F
100
AcDbEntity
  8
孔
100
AcDbLine
 10
33970.69848660889
 20
29192.60326060758
 30
0.0
 11
33970.69848660889
 21
29193.10326060758
 31
0.0
  0
LINE
  5
75F
330
1F
100
AcDbEntity
  8
孔
100
AcDbLine
 10
34110.69848660889
 20
29193.10326060758
 30
0.0
 11
34111.72268174374
 21
29201.23633384925
 31
0.0
  0
LINE
  5
760
330
1F
100
AcDbEntity
  8
孔
100
AcDbLine
 10
34114.67429147404
 20
29201.23633384925
 30
0.0
 11
34115.69848660889
 21
29193.10326060758
 31
0.0
  0
ARC
  5
761
330
1F
100
AcDbEntity
  8
孔
100
AcDbCircle
 10
34113.19848660889
 20
29200.96800569195
 30
0.0
 40
1.5
100
AcDbArc
 50
10.30484646891518
 51
169.6951535310848
  0
LINE
  5
762
330
1F
100
AcDbEntity
  8
孔
100
AcDbLine
 10
34110.69848660889
 20
29193.10326060758
 30
0.0
 11
34115.69848660889
 21
29193.10326060758
 31
0.0
  0
LINE
  5
763
330
1F
100
AcDbEntity
  8
孔
100
AcDbLine
 10
34110.69848660889
 20
29193.10326060758
 30
0.0
 11
34110.69848660889
 21
29192.60326060758
 31
0.0
  0
LINE
  5
764
330
1F
100
AcDbEntity
  8
孔
100
AcDbLine
 10
34110.69848660889
 20
29192.60326060758
 30
0.0
 11
34115.69848660889
 21
29192.60326060758
 31
0.0
  0
LINE
  5
765
330
1F
100
AcDbEntity
  8
孔
100
AcDbLine
 10
34115.69848660889
 20
29192.60326060758
 30
0.0
 11
34115.69848660889
 21
29193.10326060758
 31
0.0
  0
CIRCLE
  5
766
330
1F
100
AcDbEntity
  8
点線
100
AcDbCircle
 10
33728.69848660889
 20
29201.60326060758
 30
0.0
 40
2.0
  0
CIRCLE
  5
767
330
1F
100
AcDbEntity
  8
点線
100
AcDbCircle
 10
33728.69848660889
 20
29192.60326060758
 30
0.0
 40
1.149999999999999
  0
LINE
  5
768
330
1F
100
AcDbEntity
  8
孔
100
AcDbLine
 10
33808.79848660889
 20
29199.70326060758
 30
0.0
 11
33812.59848660889
 21
29199.70326060758
 31
0.0
  0
LINE
  5
769
330
1F
100
AcDbEntity
  8
孔
100
AcDbLine
 10
33808.79848660889
 20
29195.50326060758
 30
0.0
 11
33812.59848660889
 21
29195.50326060758
 31
0.0
  0
ARC
  5
76A
330
1F
100
AcDbEntity
  8
孔
100
AcDbCircle
 10
33808.79848660887
 20
29197.60326060758
 30
0.0
 40
2.099999999998544
100
AcDbArc
 50
89.99999999958312
 51
270.0000000004169
  0
ARC
  5
76B
330
1F
100
AcDbEntity
  8
孔
100
AcDbCircle
 10
33812.59848660889
 20
29197.60326060756
 30
0.0
 40
2.100000000013096
100
AcDbArc
 50
270.0
 51
90.0
  0
LINE
  5
76C
330
1F
100
AcDbEntity
  8
孔
100
AcDbLine
 10
33992.79848660889
 20
29199.70326060758
 30
0.0
 11
34002.59848660889
 21
29199.70326060758
 31
0.0
  0
LINE
  5
76D
330
1F
100
AcDbEntity
  8
孔
100
AcDbLine
 10
33992.79848660889
 20
29195.50326060758
 30
0.0
 11
34002.59848660889
 21
29195.50326060758
 31
0.0
  0
ARC
  5
76E
330
1F
100
AcDbEntity
  8
孔
100
AcDbCircle
 10
33992.79848660888
 20
29197.60326060758
 30
0.0
 40
2.099999999998544
100
AcDbArc
 50
89.99999999958312
 51
270.0000000004169
  0
ARC
  5
76F
330
1F
100
AcDbEntity
  8
孔
100
AcDbCircle
 10
34002.59848660889
 20
29197.60326060758
 30
0.0
 40
2.099999999998544
100
AcDbArc
 50
270.0
 51
90.0
  0
LINE
  5
770
330
1F
100
AcDbEntity
  8
孔
100
AcDbLine
 10
34056.69848660889
 20
29201.60326060758
 30
0.0
 11
34083.69848660889
 21
29201.60326060758
 31
0.0
  0
LINE
  5
771
330
1F
100
AcDbEntity
  8
孔
100
AcDbLine
 10
34056.69848660889
 20
29193.60326060758
 30
0.0
 11
34083.69848660889
 21
29193.60326060758
 31
0.0
  0
ARC
  5
772
330
1F
100
AcDbEntity
  8
孔
100
AcDbCircle
 10
34056.69848660889
 20
29197.60326060758
 30
0.0
 40
4.0
100
AcDbArc
 50
90.0
 51
270.0
  0
ARC
  5
773
330
1F
100
AcDbEntity
  8
孔
100
AcDbCircle
 10
34083.69848660889
 20
29197.60326060758
 30
0.0
 40
4.0
100
AcDbArc
 50
270.0
 51
90.0
  0
CIRCLE
  5
774
330
1F
100
AcDbEntity
  8
孔
100
AcDbCircle
 10
34192.69848660889
 20
29197.60326060758
 30
0.0
 40
2.1
  0
CIRCLE
  5
775
330
1F
100
AcDbEntity
  8
孔
100
AcDbCircle
 10
34294.69848660889
 20
29197.60326060758
 30
0.0
 40
2.1
  0
CIRCLE
  5
776
330
1F
100
AcDbEntity
  8
孔
100
AcDbCircle
 10
34207.69848660889
 20
29197.60326060758
 30
0.0
 40
1.6
  0
CIRCLE
  5
777
330
1F
100
AcDbEntity
  8
孔
100
AcDbCircle
 10
34207.69848660889
 20
29197.60326060758
 30
0.0
 40
2.25
  0
LINE
  5
778
330
1F
100
AcDbEntity
  8
孔
100
AcDbLine
 10
34235.69848660889
 20
29193.10326060758
 30
0.0
 11
34236.72268174374
 21
29201.23633384925
 31
0.0
  0
LINE
  5
779
330
1F
100
AcDbEntity
  8
孔
100
AcDbLine
 10
34239.67429147404
 20
29201.23633384925
 30
0.0
 11
34240.69848660889
 21
29193.10326060758
 31
0.0
  0
ARC
  5
77A
330
1F
100
AcDbEntity
  8
孔
100
AcDbCircle
 10
34238.19848660889
 20
29200.96800569195
 30
0.0
 40
1.5
100
AcDbArc
 50
10.30484646891518
 51
169.6951535310848
  0
LINE
  5
77B
330
1F
100
AcDbEntity
  8
孔
100
AcDbLine
 10
34235.69848660889
 20
29193.10326060758
 30
0.0
 11
34240.69848660889
 21
29193.10326060758
 31
0.0
  0
LINE
  5
77C
330
1F
100
AcDbEntity
  8
孔
100
AcDbLine
 10
34235.69848660889
 20
29193.10326060758
 30
0.0
 11
34235.69848660889
 21
29192.60326060758
 31
0.0
  0
LINE
  5
77D
330
1F
100
AcDbEntity
  8
孔
100
AcDbLine
 10
34235.69848660889
 20
29192.60326060758
 30
0.0
 11
34240.69848660889
 21
29192.60326060758
 31
0.0
  0
LINE
  5
77E
330
1F
100
AcDbEntity
  8
孔
100
AcDbLine
 10
34240.69848660889
 20
29192.60326060758
 30
0.0
 11
34240.69848660889
 21
29193.10326060758
 31
0.0
  0
LINE
  5
77F
330
1F
100
AcDbEntity
  8
孔
100
AcDbLine
 10
34257.19848660889
 20
29200.10326060758
 30
0.0
 11
34282.19848660889
 21
29200.10326060758
 31
0.0
  0
LINE
  5
780
330
1F
100
AcDbEntity
  8
孔
100
AcDbLine
 10
34257.19848660889
 20
29195.10326060758
 30
0.0
 11
34282.19848660889
 21
29195.10326060758
 31
0.0
  0
ARC
  5
781
330
1F
100
AcDbEntity
  8
孔
100
AcDbCircle
 10
34257.19848660889
 20
29197.60326060758
 30
0.0
 40
2.5
100
AcDbArc
 50
90.0
 51
270.0
  0
ARC
  5
782
330
1F
100
AcDbEntity
  8
孔
100
AcDbCircle
 10
34282.19848660889
 20
29197.60326060758
 30
0.0
 40
2.5
100
AcDbArc
 50
270.0
 51
90.0
  0
LINE
  5
783
330
1F
100
AcDbEntity
  8
孔
100
AcDbLine
 10
34307.19848660889
 20
29200.10326060758
 30
0.0
 11
34337.19848660889
 21
29200.10326060758
 31
0.0
  0
LINE
  5
784
330
1F
100
AcDbEntity
  8
孔
100
AcDbLine
 10
34307.19848660889
 20
29195.10326060758
 30
0.0
 11
34337.19848660889
 21
29195.10326060758
 31
0.0
  0
ARC
  5
785
330
1F
100
AcDbEntity
  8
孔
100
AcDbCircle
 10
34307.19848660889
 20
29197.60326060758
 30
0.0
 40
2.5
100
AcDbArc
 50
90.0
 51
270.0
  0
ARC
  5
786
330
1F
100
AcDbEntity
  8
孔
100
AcDbCircle
 10
34337.19848660889
 20
29197.60326060758
 30
0.0
 40
2.5
100
AcDbArc
 50
270.0
 51
90.0
  0
LINE
  5
787
330
1F
100
AcDbEntity
  8
孔
100
AcDbLine
 10
34352.19848660889
 20
29200.10326060758
 30
0.0
 11
34382.19848660889
 21
29200.10326060758
 31
0.0
  0
LINE
  5
788
330
1F
100
AcDbEntity
  8
孔
100
AcDbLine
 10
34352.19848660889
 20
29195.10326060758
 30
0.0
 11
34382.19848660889
 21
29195.10326060758
 31
0.0
  0
ARC
  5
789
330
1F
100
AcDbEntity
  8
孔
100
AcDbCircle
 10
34352.19848660889
 20
29197.60326060758
 30
0.0
 40
2.5
100
AcDbArc
 50
90.0
 51
270.0
  0
ARC
  5
78A
330
1F
100
AcDbEntity
  8
孔
100
AcDbCircle
 10
34382.19848660889
 20
29197.60326060758
 30
0.0
 40
2.5
100
AcDbArc
 50
270.0
 51
90.0
  0
LINE
  5
78B
330
1F
100
AcDbEntity
  8
孔
100
AcDbLine
 10
34395.69848660889
 20
29193.10326060758
 30
0.0
 11
34396.72268174374
 21
29201.23633384925
 31
0.0
  0
LINE
  5
78C
330
1F
100
AcDbEntity
  8
孔
100
AcDbLine
 10
34399.67429147404
 20
29201.23633384925
 30
0.0
 11
34400.69848660889
 21
29193.10326060758
 31
0.0
  0
ARC
  5
78D
330
1F
100
AcDbEntity
  8
孔
100
AcDbCircle
 10
34398.19848660889
 20
29200.96800569195
 30
0.0
 40
1.5
100
AcDbArc
 50
10.30484646891518
 51
169.6951535310848
  0
LINE
  5
78E
330
1F
100
AcDbEntity
  8
孔
100
AcDbLine
 10
34395.69848660889
 20
29193.10326060758
 30
0.0
 11
34400.69848660889
 21
29193.10326060758
 31
0.0
  0
LINE
  5
78F
330
1F
100
AcDbEntity
  8
孔
100
AcDbLine
 10
34395.69848660889
 20
29193.10326060758
 30
0.0
 11
34395.69848660889
 21
29192.60326060758
 31
0.0
  0
LINE
  5
790
330
1F
100
AcDbEntity
  8
孔
100
AcDbLine
 10
34395.69848660889
 20
29192.60326060758
 30
0.0
 11
34400.69848660889
 21
29192.60326060758
 31
0.0
  0
LINE
  5
791
330
1F
100
AcDbEntity
  8
孔
100
AcDbLine
 10
34400.69848660889
 20
29192.60326060758
 30
0.0
 11
34400.69848660889
 21
29193.10326060758
 31
0.0
  0
LINE
  5
792
330
1F
100
AcDbEntity
  8
孔
100
AcDbLine
 10
34411.19848660889
 20
29200.10326060758
 30
0.0
 11
34436.19848660889
 21
29200.10326060758
 31
0.0
  0
LINE
  5
793
330
1F
100
AcDbEntity
  8
孔
100
AcDbLine
 10
34411.19848660889
 20
29195.10326060758
 30
0.0
 11
34436.19848660889
 21
29195.10326060758
 31
0.0
  0
ARC
  5
794
330
1F
100
AcDbEntity
  8
孔
100
AcDbCircle
 10
34411.19848660889
 20
29197.60326060758
 30
0.0
 40
2.5
100
AcDbArc
 50
90.0
 51
270.0
  0
ARC
  5
795
330
1F
100
AcDbEntity
  8
孔
100
AcDbCircle
 10
34436.19848660889
 20
29197.60326060758
 30
0.0
 40
2.5
100
AcDbArc
 50
270.0
 51
90.0
  0
LINE
  5
796
330
1F
100
AcDbEntity
  8
孔
100
AcDbLine
 10
34482.19848660889
 20
29200.10326060758
 30
0.0
 11
34502.19848660889
 21
29200.10326060758
 31
0.0
  0
LINE
  5
797
330
1F
100
AcDbEntity
  8
孔
100
AcDbLine
 10
34482.19848660889
 20
29195.10326060758
 30
0.0
 11
34502.19848660889
 21
29195.10326060758
 31
0.0
  0
ARC
  5
798
330
1F
100
AcDbEntity
  8
孔
100
AcDbCircle
 10
34482.19848660889
 20
29197.60326060758
 30
0.0
 40
2.5
100
AcDbArc
 50
90.0
 51
270.0
  0
ARC
  5
799
330
1F
100
AcDbEntity
  8
孔
100
AcDbCircle
 10
34502.19848660889
 20
29197.60326060758
 30
0.0
 40
2.5
100
AcDbArc
 50
270.0
 51
90.0
  0
LINE
  5
79A
330
1F
100
AcDbEntity
  8
孔
100
AcDbLine
 10
34517.19848660889
 20
29200.10326060758
 30
0.0
 11
34537.19848660889
 21
29200.10326060758
 31
0.0
  0
LINE
  5
79B
330
1F
100
AcDbEntity
  8
孔
100
AcDbLine
 10
34517.19848660889
 20
29195.10326060758
 30
0.0
 11
34537.19848660889
 21
29195.10326060758
 31
0.0
  0
ARC
  5
79C
330
1F
100
AcDbEntity
  8
孔
100
AcDbCircle
 10
34517.19848660889
 20
29197.60326060758
 30
0.0
 40
2.5
100
AcDbArc
 50
90.0
 51
270.0
  0
ARC
  5
79D
330
1F
100
AcDbEntity
  8
孔
100
AcDbCircle
 10
34537.19848660889
 20
29197.60326060758
 30
0.0
 40
2.5
100
AcDbArc
 50
270.0
 51
90.0
  0
LINE
  5
79E
330
1F
100
AcDbEntity
  8
孔
100
AcDbLine
 10
34559.19848660889
 20
29200.10326060758
 30
0.0
 11
34574.19848660889
 21
29200.10326060758
 31
0.0
  0
LINE
  5
79F
330
1F
100
AcDbEntity
  8
孔
100
AcDbLine
 10
34559.19848660889
 20
29195.10326060758
 30
0.0
 11
34574.19848660889
 21
29195.10326060758
 31
0.0
  0
ARC
  5
7A0
330
1F
100
AcDbEntity
  8
孔
100
AcDbCircle
 10
34559.19848660889
 20
29197.60326060758
 30
0.0
 40
2.5
100
AcDbArc
 50
90.0
 51
270.0
  0
ARC
  5
7A1
330
1F
100
AcDbEntity
  8
孔
100
AcDbCircle
 10
34574.19848660889
 20
29197.60326060758
 30
0.0
 40
2.5
100
AcDbArc
 50
270.0
 51
90.0
  0
LINE
  5
7A2
102
{ACAD_REACTORS
330
CD1
102
}
330
1F
100
AcDbEntity
  8
外形線
100
AcDbLine
 10
34974.19848660889
 20
29033.35326060758
 30
0.0
 11
34974.19848660889
 21
29031.3376961705
 31
0.0
  0
LINE
  5
7A3
330
1F
100
AcDbEntity
  8
外形線
100
AcDbLine
 10
35006.19848660889
 20
29030.51380643468
 30
0.0
 11
35006.19848660889
 21
29033.35326060867
 31
0.0
  0
ARC
  5
7A4
102
{ACAD_REACTORS
330
CD1
330
CE9
102
}
330
1F
100
AcDbEntity
  8
外形線
100
AcDbCircle
 10
34990.19848660888
 20
29033.60133753066
 30
0.0
 40
16.00192307691588
100
AcDbArc
 50
359.1117111338804
 51
180.8882888661196
  0
ARC
  5
7A5
330
1F
100
AcDbEntity
  8
外形線
100
AcDbCircle
 10
34990.19848660889
 20
29033.35326060758
 30
0.0
 40
16.24999999999987
100
AcDbArc
 50
194.1411102338193
 51
217.6271906288127
  0
ARC
  5
7A6
330
1F
100
AcDbEntity
  8
外形線
100
AcDbCircle
 10
34965.44848660889
 20
29014.27447657924
 30
0.0
 40
15.0
100
AcDbArc
 50
0.0
 51
37.62719062881269
  0
ARC
  5
7A7
330
1F
100
AcDbEntity
  8
外形線
100
AcDbCircle
 10
34982.19848660889
 20
29031.3376961705
 30
0.0
 40
8.0
100
AcDbArc
 50
180.0
 51
194.1411102338193
  0
ARC
  5
7A8
330
1F
100
AcDbEntity
  8
外形線
100
AcDbCircle
 10
34990.19848660889
 20
29033.35326060758
 30
0.0
 40
16.24999999999987
100
AcDbArc
 50
322.3728093711873
 51
349.9367255563702
  0
ARC
  5
7A9
330
1F
100
AcDbEntity
  8
外形線
100
AcDbCircle
 10
35014.94848660889
 20
29014.27447657924
 30
0.0
 40
15.0
100
AcDbArc
 50
142.3728093711873
 51
180.0
  0
LINE
  5
7AA
330
1F
100
AcDbEntity
  8
外形線
100
AcDbLine
 10
34980.44848660889
 20
29014.27447657924
 30
0.0
 11
34980.44848660889
 21
28999.60326060758
 31
0.0
  0
LINE
  5
7AB
330
1F
100
AcDbEntity
  8
外形線
100
AcDbLine
 10
34980.44848660889
 20
28999.60326060758
 30
0.0
 11
34987.19848660889
 21
28999.60326060758
 31
0.0
  0
LINE
  5
7AC
330
1F
100
AcDbEntity
  8
外形線
100
AcDbLine
 10
34993.19848660889
 20
28999.60326060758
 30
0.0
 11
34999.94848660889
 21
28999.60326060758
 31
0.0
  0
LINE
  5
7AD
330
1F
100
AcDbEntity
  8
外形線
100
AcDbLine
 10
34999.94848660889
 20
28999.60326060758
 30
0.0
 11
34999.94848660889
 21
29014.27447657924
 31
0.0
  0
LINE
  5
7AE
330
1F
100
AcDbEntity
  8
外形線
100
AcDbLine
 10
34978.39848660889
 20
29007.60326060757
 30
0.0
 11
34978.39848660889
 21
28997.60326060757
 31
0.0
  0
LINE
  5
7AF
330
1F
100
AcDbEntity
  8
外形線
100
AcDbLine
 10
34978.39848660889
 20
28997.60326060757
 30
0.0
 11
35001.99848660889
 21
28997.60326060757
 31
0.0
  0
LINE
  5
7B0
330
1F
100
AcDbEntity
  8
外形線
100
AcDbLine
 10
35001.99848660889
 20
28997.60326060757
 30
0.0
 11
35001.99848660889
 21
29007.60326060757
 31
0.0
  0
LINE
  5
7B1
330
1F
100
AcDbEntity
  8
外形線
100
AcDbLine
 10
34978.39848660889
 20
29007.60326060757
 30
0.0
 11
34980.44848660889
 21
29007.60326060757
 31
0.0
  0
LINE
  5
7B2
330
1F
100
AcDbEntity
  8
外形線
100
AcDbLine
 10
34980.44848660889
 20
29007.60326060757
 30
0.0
 11
34980.44848660889
 21
29003.30326060757
 31
0.0
  0
LINE
  5
7B3
330
1F
100
AcDbEntity
  8
外形線
100
AcDbLine
 10
34980.44848660889
 20
29003.30326060757
 30
0.0
 11
34979.84848660889
 21
29003.30326060757
 31
0.0
  0
LINE
  5
7B4
330
1F
100
AcDbEntity
  8
外形線
100
AcDbLine
 10
34979.84848660889
 20
29003.30326060757
 30
0.0
 11
34979.84848660889
 21
29007.00326060758
 31
0.0
  0
LINE
  5
7B5
330
1F
100
AcDbEntity
  8
外形線
100
AcDbLine
 10
34979.84848660889
 20
29007.00326060758
 30
0.0
 11
34978.99848660888
 21
29007.00326060758
 31
0.0
  0
LINE
  5
7B6
330
1F
100
AcDbEntity
  8
外形線
100
AcDbLine
 10
34978.99848660888
 20
29007.00326060758
 30
0.0
 11
34978.99848660888
 21
28998.20326060758
 31
0.0
  0
LINE
  5
7B7
330
1F
100
AcDbEntity
  8
外形線
100
AcDbLine
 10
34978.99848660888
 20
28998.20326060758
 30
0.0
 11
34987.19848660889
 21
28998.20326060758
 31
0.0
  0
LINE
  5
7B8
330
1F
100
AcDbEntity
  8
外形線
100
AcDbLine
 10
34993.19848660889
 20
28998.20326060758
 30
0.0
 11
35001.39848660889
 21
28998.20326060758
 31
0.0
  0
LINE
  5
7B9
330
1F
100
AcDbEntity
  8
外形線
100
AcDbLine
 10
35001.39848660889
 20
28998.20326060758
 30
0.0
 11
35001.39848660889
 21
29007.00326060758
 31
0.0
  0
LINE
  5
7BA
330
1F
100
AcDbEntity
  8
外形線
100
AcDbLine
 10
35001.39848660889
 20
29007.00326060758
 30
0.0
 11
35000.54848660889
 21
29007.00326060758
 31
0.0
  0
LINE
  5
7BB
330
1F
100
AcDbEntity
  8
外形線
100
AcDbLine
 10
35000.54848660889
 20
29007.00326060758
 30
0.0
 11
35000.54848660889
 21
29003.30326060757
 31
0.0
  0
LINE
  5
7BC
330
1F
100
AcDbEntity
  8
外形線
100
AcDbLine
 10
35000.54848660889
 20
29003.30326060757
 30
0.0
 11
34999.94848660889
 21
29003.30326060757
 31
0.0
  0
LINE
  5
7BD
330
1F
100
AcDbEntity
  8
外形線
100
AcDbLine
 10
34999.94848660889
 20
29003.30326060757
 30
0.0
 11
34999.94848660889
 21
29007.60326060757
 31
0.0
  0
LINE
  5
7BE
330
1F
100
AcDbEntity
  8
外形線
100
AcDbLine
 10
34999.94848660889
 20
29007.60326060757
 30
0.0
 11
35001.99848660889
 21
29007.60326060757
 31
0.0
  0
LINE
  5
7BF
330
1F
100
AcDbEntity
  8
外形線
100
AcDbLine
 10
34987.19848660889
 20
28999.60326060758
 30
0.0
 11
34987.19848660889
 21
28997.60326060757
 31
0.0
  0
LINE
  5
7C0
330
1F
100
AcDbEntity
  8
外形線
100
AcDbLine
 10
34993.19848660889
 20
28999.60326060758
 30
0.0
 11
34993.19848660889
 21
28997.60326060757
 31
0.0
  0
LINE
  5
7C1
330
1F
100
AcDbEntity
  8
外形線
100
AcDbLine
 10
34981.94848660889
 20
28997.60326060757
 30
0.0
 11
34981.94848660889
 21
28993.60326060758
 31
0.0
  0
LINE
  5
7C2
330
1F
100
AcDbEntity
  8
外形線
100
AcDbLine
 10
34981.94848660889
 20
28993.60326060758
 30
0.0
 11
34998.44848660889
 21
28993.60326060758
 31
0.0
  0
LINE
  5
7C3
330
1F
100
AcDbEntity
  8
外形線
100
AcDbLine
 10
34998.44848660889
 20
28993.60326060758
 30
0.0
 11
34998.44848660889
 21
28997.60326060757
 31
0.0
  0
LINE
  5
7C4
330
1F
100
AcDbEntity
  8
孔
100
AcDbLine
 10
34988.54848660889
 20
29045.95326060757
 30
0.0
 11
34988.54848660889
 21
29044.25326060758
 31
0.0
  0
LINE
  5
7C5
330
1F
100
AcDbEntity
  8
孔
100
AcDbLine
 10
34991.84848660889
 20
29045.95326060757
 30
0.0
 11
34991.84848660889
 21
29044.25326060758
 31
0.0
  0
ARC
  5
7C6
330
1F
100
AcDbEntity
  8
孔
100
AcDbCircle
 10
34990.19848660889
 20
29045.95326060758
 30
0.0
 40
1.650000000001455
100
AcDbArc
 50
359.9999999995831
 51
180.0000000004169
  0
ARC
  5
7C7
330
1F
100
AcDbEntity
  8
孔
100
AcDbCircle
 10
34990.19848660889
 20
29044.25326060758
 30
0.0
 40
1.650000000001455
100
AcDbArc
 50
180.0
 51
0.0
  0
CIRCLE
  5
7C8
330
1F
100
AcDbEntity
  8
孔
100
AcDbCircle
 10
34990.19848660889
 20
29034.60326060757
 30
0.0
 40
1.6
  0
LINE
  5
7C9
330
1F
100
AcDbEntity
  8
孔
100
AcDbLine
 10
34988.54848660889
 20
29025.95326060757
 30
0.0
 11
34988.54848660889
 21
29022.25326060758
 31
0.0
  0
LINE
  5
7CA
330
1F
100
AcDbEntity
  8
孔
100
AcDbLine
 10
34991.84848660889
 20
29025.95326060757
 30
0.0
 11
34991.84848660889
 21
29022.25326060758
 31
0.0
  0
ARC
  5
7CB
330
1F
100
AcDbEntity
  8
孔
100
AcDbCircle
 10
34990.1984866089
 20
29025.95326060758
 30
0.0
 40
1.650000000008731
100
AcDbArc
 50
359.9999999995831
 51
180.0000000004169
  0
ARC
  5
7CC
330
1F
100
AcDbEntity
  8
孔
100
AcDbCircle
 10
34990.19848660889
 20
29022.25326060757
 30
0.0
 40
1.650000000001455
100
AcDbArc
 50
179.9999999995831
 51
0.0000000004168817
  0
LINE
  5
7CD
330
1F
100
AcDbEntity
  8
孔
100
AcDbLine
 10
34987.69848660889
 20
29014.10326060758
 30
0.0
 11
34987.69848660889
 21
29007.10326060758
 31
0.0
  0
LINE
  5
7CE
330
1F
100
AcDbEntity
  8
孔
100
AcDbLine
 10
34992.69848660889
 20
29014.10326060758
 30
0.0
 11
34992.69848660889
 21
29007.10326060758
 31
0.0
  0
ARC
  5
7CF
330
1F
100
AcDbEntity
  8
孔
100
AcDbCircle
 10
34990.1984866089
 20
29014.10326060758
 30
0.0
 40
2.500000000007275
100
AcDbArc
 50
0.0
 51
180.0
  0
ARC
  5
7D0
330
1F
100
AcDbEntity
  8
孔
100
AcDbCircle
 10
34990.1984866089
 20
29007.10326060758
 30
0.0
 40
2.499999999992724
100
AcDbArc
 50
180.0
 51
0.0
  0
LINE
  5
7D1
330
1F
100
AcDbEntity
  8
外形線
100
AcDbLine
 10
34980.44848660889
 20
29013.60326060757
 30
0.0
 11
34987.69848660889
 21
29013.60326060757
 31
0.0
  0
LINE
  5
7D2
330
1F
100
AcDbEntity
  8
外形線
100
AcDbLine
 10
34992.69848660889
 20
29013.60326060757
 30
0.0
 11
34999.94848660889
 21
29013.60326060757
 31
0.0
  0
LINE
  5
7D3
330
1F
100
AcDbEntity
  8
外形線
100
AcDbLine
 10
34980.44848660889
 20
29003.60326060757
 30
0.0
 11
34999.94848660889
 21
29003.60326060757
 31
0.0
  0
LINE
  5
7D4
330
1F
100
AcDbEntity
  8
外形線
100
AcDbLine
 10
34981.19848660889
 20
29039.35326060758
 30
0.0
 11
34981.19848660889
 21
29028.85326060757
 31
0.0
  0
LINE
  5
7D5
330
1F
100
AcDbEntity
  8
外形線
100
AcDbLine
 10
34985.69848660889
 20
29039.35326060758
 30
0.0
 11
34985.69848660889
 21
29028.85326060757
 31
0.0
  0
ARC
  5
7D6
330
1F
100
AcDbEntity
  8
外形線
100
AcDbCircle
 10
34983.4484866089
 20
29039.35326060758
 30
0.0
 40
2.250000000007275
100
AcDbArc
 50
0.0
 51
180.0
  0
ARC
  5
7D7
330
1F
100
AcDbEntity
  8
外形線
100
AcDbCircle
 10
34983.4484866089
 20
29028.85326060757
 30
0.0
 40
2.250000000007275
100
AcDbArc
 50
180.0
 51
0.0
  0
LINE
  5
7D8
330
1F
100
AcDbEntity
  8
外形線
100
AcDbLine
 10
34994.69848660889
 20
29039.35326060758
 30
0.0
 11
34994.69848660889
 21
29028.85326060757
 31
0.0
  0
LINE
  5
7D9
330
1F
100
AcDbEntity
  8
外形線
100
AcDbLine
 10
34999.19848660888
 20
29039.35326060758
 30
0.0
 11
34999.19848660888
 21
29028.85326060757
 31
0.0
  0
ARC
  5
7DA
330
1F
100
AcDbEntity
  8
外形線
100
AcDbCircle
 10
34996.94848660889
 20
29039.35326060758
 30
0.0
 40
2.250000000007275
100
AcDbArc
 50
0.0
 51
180.0
  0
ARC
  5
7DB
330
1F
100
AcDbEntity
  8
外形線
100
AcDbCircle
 10
34996.94848660889
 20
29028.85326060757
 30
0.0
 40
2.250000000007275
100
AcDbArc
 50
180.0
 51
0.0
  0
XLINE
  5
7DC
330
1F
100
AcDbEntity
  8
オフセット
100
AcDbXline
 10
32915.44093491146
 20
27902.11527306976
 30
0.0
 11
0.0
 21
-1.0
 31
0.0
  0
XLINE
  5
7E4
330
1F
100
AcDbEntity
  8
オフセット
100
AcDbXline
 10
32915.44093491146
 20
28102.11527306976
 30
0.0
 11
-1.0
 21
0.0
 31
0.0
  0
XLINE
  5
7E5
330
1F
100
AcDbEntity
  8
オフセット
100
AcDbXline
 10
34415.44093491146
 20
27902.11527306976
 30
0.0
 11
0.0
 21
-1.0
 31
0.0
  0
XLINE
  5
7E6
330
1F
100
AcDbEntity
  8
オフセット
100
AcDbXline
 10
33153.94093491146
 20
27902.11527306976
 30
0.0
 11
0.0
 21
-1.0
 31
0.0
  0
LINE
  5
84F
330
1F
100
AcDbEntity
  8
外形線
100
AcDbLine
 10
33717.69848660889
 20
28978.10326060758
 30
0.0
 11
33717.69848660889
 21
28997.10326060758
 31
0.0
  0
LINE
  5
850
330
1F
100
AcDbEntity
  8
外形線
100
AcDbLine
 10
33718.19848660889
 20
28997.60326060757
 30
0.0
 11
33739.69848660889
 21
28997.60326060757
 31
0.0
  0
ARC
  5
851
330
1F
100
AcDbEntity
  8
外形線
100
AcDbCircle
 10
33718.19848660889
 20
28997.10326060758
 30
0.0
 40
0.5
100
AcDbArc
 50
90.0
 51
180.0
  0
LINE
  5
852
330
1F
100
AcDbEntity
  8
外形線
100
AcDbLine
 10
33739.69848660889
 20
28988.60326060757
 30
0.0
 11
33739.69848660889
 21
28978.10326060758
 31
0.0
  0
ARC
  5
853
330
1F
100
AcDbEntity
  8
外形線
100
AcDbCircle
 10
33739.19848660889
 20
28978.10326060758
 30
0.0
 40
0.5
100
AcDbArc
 50
270.0
 51
0.0
  0
LINE
  5
854
330
1F
100
AcDbEntity
  8
外形線
100
AcDbLine
 10
33739.19848660889
 20
28977.60326060758
 30
0.0
 11
33718.19848660889
 21
28977.60326060758
 31
0.0
  0
ARC
  5
855
330
1F
100
AcDbEntity
  8
外形線
100
AcDbCircle
 10
33718.19848660889
 20
28978.10326060758
 30
0.0
 40
0.5
100
AcDbArc
 50
180.0
 51
270.0
  0
LINE
  5
856
330
1F
100
AcDbEntity
  8
外形線
100
AcDbLine
 10
33739.69848660889
 20
28997.60326060757
 30
0.0
 11
33751.19848660889
 21
28997.60326060757
 31
0.0
  0
LINE
  5
857
330
1F
100
AcDbEntity
  8
外形線
100
AcDbLine
 10
33751.69848660889
 20
28997.10326060758
 30
0.0
 11
33751.69848660889
 21
28989.10326060758
 31
0.0
  0
ARC
  5
858
330
1F
100
AcDbEntity
  8
外形線
100
AcDbCircle
 10
33751.19848660889
 20
28997.10326060758
 30
0.0
 40
0.5
100
AcDbArc
 50
0.0
 51
90.0
  0
ARC
  5
859
330
1F
100
AcDbEntity
  8
外形線
100
AcDbCircle
 10
33751.19848660889
 20
28989.10326060758
 30
0.0
 40
0.5
100
AcDbArc
 50
270.0
 51
0.0
  0
LINE
  5
85A
330
1F
100
AcDbEntity
  8
外形線
100
AcDbLine
 10
33751.69848660889
 20
28988.60326060757
 30
0.0
 11
33739.69848660889
 21
28988.60326060757
 31
0.0
  0
LINE
  5
85B
330
1F
100
AcDbEntity
  8
外形線
100
AcDbLine
 10
33740.19848660889
 20
28988.60326060757
 30
0.0
 11
33740.19848660889
 21
28987.10326060758
 31
0.0
  0
LINE
  5
85C
330
1F
100
AcDbEntity
  8
外形線
100
AcDbLine
 10
33740.69848660889
 20
28986.60326060758
 30
0.0
 11
33751.19848660889
 21
28986.60326060758
 31
0.0
  0
ARC
  5
85D
330
1F
100
AcDbEntity
  8
外形線
100
AcDbCircle
 10
33740.69848660889
 20
28987.10326060758
 30
0.0
 40
0.5
100
AcDbArc
 50
180.0
 51
270.0
  0
LINE
  5
85E
330
1F
100
AcDbEntity
  8
外形線
100
AcDbLine
 10
33751.69848660889
 20
28987.10326060758
 30
0.0
 11
33751.69848660889
 21
28988.60326060757
 31
0.0
  0
ARC
  5
85F
330
1F
100
AcDbEntity
  8
外形線
100
AcDbCircle
 10
33751.19848660889
 20
28987.10326060758
 30
0.0
 40
0.5
100
AcDbArc
 50
270.0
 51
0.0
  0
LINE
  5
86A
330
1F
100
AcDbEntity
  8
外形線
100
AcDbLine
 10
35010.69848660888
 20
28997.60326060757
 30
0.0
 11
34966.69848660888
 21
28997.60326060757
 31
0.0
  0
ARC
  5
86B
330
1F
100
AcDbEntity
  8
外形線
100
AcDbCircle
 10
35010.69848660888
 20
28997.10326060758
 30
0.0
 40
0.5
100
AcDbArc
 50
0.0
 51
90.0
  0
LINE
  5
86C
330
1F
100
AcDbEntity
  8
外形線
100
AcDbLine
 10
34966.19848660889
 20
28997.10326060758
 30
0.0
 11
34966.19848660889
 21
28978.10326060758
 31
0.0
  0
ARC
  5
86D
102
{ACAD_REACTORS
330
C85
102
}
330
1F
100
AcDbEntity
  8
外形線
100
AcDbCircle
 10
34966.69848660888
 20
28997.10326060758
 30
0.0
 40
0.5
100
AcDbArc
 50
90.0
 51
180.0
  0
LINE
  5
86E
330
1F
100
AcDbEntity
  8
外形線
100
AcDbLine
 10
34966.69848660888
 20
28977.60326060758
 30
0.0
 11
34973.19848660889
 21
28977.60326060758
 31
0.0
  0
ARC
  5
86F
330
1F
100
AcDbEntity
  8
外形線
100
AcDbCircle
 10
34966.69848660888
 20
28978.10326060758
 30
0.0
 40
0.5
100
AcDbArc
 50
180.0
 51
270.0
  0
LINE
  5
870
102
{ACAD_REACTORS
330
C85
102
}
330
1F
100
AcDbEntity
  8
外形線
100
AcDbLine
 10
35011.19848660888
 20
28978.10326060758
 30
0.0
 11
35011.19848660888
 21
28997.10326060758
 31
0.0
  0
ARC
  5
871
330
1F
100
AcDbEntity
  8
外形線
100
AcDbCircle
 10
35010.69848660888
 20
28978.10326060758
 30
0.0
 40
0.5
100
AcDbArc
 50
270.0
 51
0.0
  0
LINE
  5
872
330
1F
100
AcDbEntity
  8
中心線
 48
0.05
100
AcDbLine
 10
34995.19848660889
 20
28994.60326060757
 30
0.0
 11
34995.19848660889
 21
29000.60326060758
 31
0.0
  0
XLINE
  5
873
330
1F
100
AcDbEntity
  8
オフセット
100
AcDbXline
 10
32915.44093491146
 20
28273.73237812786
 30
0.0
 11
-1.0
 21
0.0
 31
0.0
  0
LINE
  5
89C
330
1F
100
AcDbEntity
  8
外形線
100
AcDbLine
 10
33717.69848660889
 20
29177.10326060758
 30
0.0
 11
33717.69848660889
 21
29185.60326060758
 31
0.0
  0
ARC
  5
89D
330
1F
100
AcDbEntity
  8
外形線
100
AcDbCircle
 10
33718.19848660889
 20
29177.10326060758
 30
0.0
 40
0.5
100
AcDbArc
 50
180.0
 51
270.0
  0
ARC
  5
89E
330
1F
100
AcDbEntity
  8
外形線
100
AcDbCircle
 10
33718.19848660889
 20
29221.10326060757
 30
0.0
 40
0.5
100
AcDbArc
 50
90.0
 51
180.0
  0
LINE
  5
89F
330
1F
100
AcDbEntity
  8
外形線
100
AcDbLine
 10
33718.19848660889
 20
29221.60326060758
 30
0.0
 11
33739.19848660889
 21
29221.60326060758
 31
0.0
  0
ARC
  5
8A2
330
1F
100
AcDbEntity
  8
外形線
100
AcDbCircle
 10
33739.19848660889
 20
29177.10326060758
 30
0.0
 40
0.5
100
AcDbArc
 50
270.0
 51
0.0
  0
LINE
  5
8A3
330
1F
100
AcDbEntity
  8
外形線
100
AcDbLine
 10
33739.19848660889
 20
29176.60326060758
 30
0.0
 11
33718.19848660889
 21
29176.60326060758
 31
0.0
  0
ARC
  5
8A7
330
1F
100
AcDbEntity
  8
外形線
100
AcDbCircle
 10
33751.19848660889
 20
29221.10326060757
 30
0.0
 40
0.5
100
AcDbArc
 50
0.0
 51
90.0
  0
LINE
  5
8A8
330
1F
100
AcDbEntity
  8
外形線
100
AcDbLine
 10
33751.19848660889
 20
29221.60326060758
 30
0.0
 11
33739.19848660889
 21
29221.60326060758
 31
0.0
  0
LINE
  5
8C4
330
1F
100
AcDbEntity
  8
外形線
100
AcDbLine
 10
33717.69848660889
 20
29209.60326060757
 30
0.0
 11
33717.69848660889
 21
29221.10326060757
 31
0.0
  0
LINE
  5
8C5
330
1F
100
AcDbEntity
  8
外形線
100
AcDbLine
 10
33739.69848660889
 20
29185.60326060758
 30
0.0
 11
33739.69848660889
 21
29177.10326060758
 31
0.0
  0
LINE
  5
8C6
330
1F
100
AcDbEntity
  8
外形線
100
AcDbLine
 10
33751.69848660889
 20
29209.60326060758
 30
0.0
 11
33751.69848660889
 21
29221.10326060757
 31
0.0
  0
LINE
  5
906
330
1F
100
AcDbEntity
  8
外形線
100
AcDbLine
 10
33890.99848660889
 20
29213.60326060757
 30
0.0
 11
33890.99848660889
 21
29209.60326060757
 31
0.0
  0
ARC
  5
907
330
1F
100
AcDbEntity
  8
外形線
100
AcDbCircle
 10
33891.9984866089
 20
29213.60326060757
 30
0.0
 40
1.0
100
AcDbArc
 50
90.0
 51
180.0
  0
LINE
  5
908
330
1F
100
AcDbEntity
  8
外形線
100
AcDbLine
 10
33891.9984866089
 20
29180.60326060757
 30
0.0
 11
34016.99848660889
 21
29180.60326060757
 31
0.0
  0
ARC
  5
909
330
1F
100
AcDbEntity
  8
外形線
100
AcDbCircle
 10
33891.9984866089
 20
29181.60326060758
 30
0.0
 40
1.0
100
AcDbArc
 50
180.0
 51
270.0
  0
LINE
  5
90A
330
1F
100
AcDbEntity
  8
外形線
100
AcDbLine
 10
34017.9984866089
 20
29181.60326060758
 30
0.0
 11
34017.9984866089
 21
29185.60326060758
 31
0.0
  0
ARC
  5
90B
330
1F
100
AcDbEntity
  8
外形線
100
AcDbCircle
 10
34016.99848660889
 20
29181.60326060758
 30
0.0
 40
1.0
100
AcDbArc
 50
270.0
 51
0.0
  0
LINE
  5
90C
330
1F
100
AcDbEntity
  8
外形線
100
AcDbLine
 10
34016.99848660889
 20
29214.60326060758
 30
0.0
 11
33891.9984866089
 21
29214.60326060758
 31
0.0
  0
ARC
  5
90D
330
1F
100
AcDbEntity
  8
外形線
100
AcDbCircle
 10
34016.99848660889
 20
29213.60326060757
 30
0.0
 40
1.0
100
AcDbArc
 50
0.0
 51
90.0
  0
LINE
  5
93A
330
1F
100
AcDbEntity
  8
外形線
100
AcDbLine
 10
33890.99848660889
 20
29185.60326060758
 30
0.0
 11
33890.99848660889
 21
29181.60326060758
 31
0.0
  0
LINE
  5
93B
330
1F
100
AcDbEntity
  8
外形線
100
AcDbLine
 10
34017.9984866089
 20
29209.60326060757
 30
0.0
 11
34017.9984866089
 21
29213.60326060757
 31
0.0
  0
XLINE
  5
93D
330
1F
100
AcDbEntity
  8
オフセット
100
AcDbXline
 10
33316.24093491146
 20
27902.11527306976
 30
0.0
 11
0.0
 21
-1.0
 31
0.0
  0
LINE
  5
954
330
1F
100
AcDbEntity
  8
外形線
100
AcDbLine
 10
33890.99848660889
 20
28973.60326060757
 30
0.0
 11
33890.99848660889
 21
28997.60326060757
 31
0.0
  0
LINE
  5
955
330
1F
100
AcDbEntity
  8
外形線
100
AcDbLine
 10
33890.99848660889
 20
28997.60326060757
 30
0.0
 11
34017.9984866089
 21
28997.60326060757
 31
0.0
  0
LINE
  5
956
330
1F
100
AcDbEntity
  8
外形線
100
AcDbLine
 10
34017.9984866089
 20
28997.60326060757
 30
0.0
 11
34017.9984866089
 21
28973.60326060757
 31
0.0
  0
ARC
  5
957
330
1F
100
AcDbEntity
  8
外形線
100
AcDbCircle
 10
34016.99848660889
 20
28973.60326060757
 30
0.0
 40
1.0
100
AcDbArc
 50
270.0
 51
0.0
  0
LINE
  5
958
102
{ACAD_REACTORS
330
C6D
102
}
330
1F
100
AcDbEntity
  8
外形線
100
AcDbLine
 10
34016.99848660889
 20
28972.60326060758
 30
0.0
 11
33891.9984866089
 21
28972.60326060758
 31
0.0
  0
ARC
  5
959
330
1F
100
AcDbEntity
  8
外形線
100
AcDbCircle
 10
33891.9984866089
 20
28973.60326060757
 30
0.0
 40
1.0
100
AcDbArc
 50
180.0
 51
270.0
  0
LINE
  5
95A
330
1F
100
AcDbEntity
  8
外形線
100
AcDbLine
 10
33890.99848660889
 20
28989.60326060758
 30
0.0
 11
33887.3984866089
 21
28995.60326060758
 31
0.0
  0
LINE
  5
95B
330
1F
100
AcDbEntity
  8
外形線
100
AcDbLine
 10
33887.3984866089
 20
28995.60326060758
 30
0.0
 11
33879.49848660889
 21
28995.60326060758
 31
0.0
  0
LINE
  5
95C
330
1F
100
AcDbEntity
  8
外形線
100
AcDbLine
 10
33878.9984866089
 20
28996.10326060757
 30
0.0
 11
33878.9984866089
 21
28997.60326060757
 31
0.0
  0
ARC
  5
95D
330
1F
100
AcDbEntity
  8
外形線
100
AcDbCircle
 10
33879.49848660889
 20
28996.10326060757
 30
0.0
 40
0.5
100
AcDbArc
 50
180.0
 51
270.0
  0
LINE
  5
95E
330
1F
100
AcDbEntity
  8
外形線
100
AcDbLine
 10
33878.9984866089
 20
28997.60326060757
 30
0.0
 11
33890.99848660889
 21
28997.60326060757
 31
0.0
  0
LINE
  5
95F
330
1F
100
AcDbEntity
  8
外形線
100
AcDbLine
 10
34017.9984866089
 20
28989.60326060758
 30
0.0
 11
34021.59848660889
 21
28995.60326060758
 31
0.0
  0
LINE
  5
960
330
1F
100
AcDbEntity
  8
外形線
100
AcDbLine
 10
34021.59848660889
 20
28995.60326060758
 30
0.0
 11
34029.4984866089
 21
28995.60326060758
 31
0.0
  0
LINE
  5
961
330
1F
100
AcDbEntity
  8
外形線
100
AcDbLine
 10
34029.99848660889
 20
28996.10326060757
 30
0.0
 11
34029.99848660889
 21
28997.60326060757
 31
0.0
  0
ARC
  5
962
330
1F
100
AcDbEntity
  8
外形線
100
AcDbCircle
 10
34029.4984866089
 20
28996.10326060757
 30
0.0
 40
0.5
100
AcDbArc
 50
270.0
 51
0.0
  0
LINE
  5
963
330
1F
100
AcDbEntity
  8
外形線
100
AcDbLine
 10
34029.99848660889
 20
28997.60326060757
 30
0.0
 11
34017.9984866089
 21
28997.60326060757
 31
0.0
  0
LINE
  5
981
330
1F
100
AcDbEntity
  8
外形線
100
AcDbLine
 10
35007.19848660889
 20
28997.60326060757
 30
0.0
 11
35007.19848660889
 21
28973.60326060757
 31
0.0
  0
LINE
  5
982
102
{ACAD_REACTORS
330
CE9
102
}
330
1F
100
AcDbEntity
  8
外形線
100
AcDbLine
 10
35006.19848660889
 20
28972.60326060758
 30
0.0
 11
34974.19848660889
 21
28972.60326060758
 31
0.0
  0
ARC
  5
983
330
1F
100
AcDbEntity
  8
外形線
100
AcDbCircle
 10
34974.19848660889
 20
28973.60326060757
 30
0.0
 40
1.0
100
AcDbArc
 50
180.0
 51
270.0
  0
ARC
  5
984
330
1F
100
AcDbEntity
  8
外形線
100
AcDbCircle
 10
35006.19848660889
 20
28973.60326060757
 30
0.0
 40
1.0
100
AcDbArc
 50
270.0
 51
0.0
  0
LINE
  5
985
330
1F
100
AcDbEntity
  8
外形線
100
AcDbLine
 10
34973.19848660889
 20
28973.60326060757
 30
0.0
 11
34973.19848660889
 21
28997.60326060757
 31
0.0
  0
LINE
  5
986
330
1F
100
AcDbEntity
  8
外形線
100
AcDbLine
 10
34973.19848660889
 20
28997.60326060757
 30
0.0
 11
35007.19848660889
 21
28997.60326060757
 31
0.0
  0
ARC
  5
98D
330
1F
100
AcDbEntity
  8
外形線
100
AcDbCircle
 10
34989.05503626021
 20
28993.54383566569
 30
0.0
 40
6.479445445243836
100
AcDbArc
 50
322.5430267977099
 51
0.5254841837102305
  0
LINE
  5
98E
330
1F
100
AcDbEntity
  8
外形線
100
AcDbLine
 10
34994.19848660889
 20
28989.60326060758
 30
0.0
 11
34996.19848660889
 21
28989.60326060758
 31
0.0
  0
LINE
  5
98F
330
1F
100
AcDbEntity
  8
外形線
100
AcDbLine
 10
34996.19848660889
 20
28989.60326060758
 30
0.0
 11
34996.19848660889
 21
28993.60326060757
 31
0.0
  0
LINE
  5
990
330
1F
100
AcDbEntity
  8
外形線
100
AcDbLine
 10
34994.19848660889
 20
28993.60326060757
 30
0.0
 11
34994.19848660889
 21
28989.60326060758
 31
0.0
  0
ARC
  5
991
330
1F
100
AcDbEntity
  8
外形線
100
AcDbCircle
 10
34991.34193695756
 20
28993.54383566569
 30
0.0
 40
6.479445445243836
100
AcDbArc
 50
179.4745158162897
 51
217.4569732022574
  0
LINE
  5
992
330
1F
100
AcDbEntity
  8
外形線
100
AcDbLine
 10
34986.19848660889
 20
28989.60326060758
 30
0.0
 11
34984.19848660889
 21
28989.60326060758
 31
0.0
  0
LINE
  5
993
330
1F
100
AcDbEntity
  8
外形線
100
AcDbLine
 10
34984.19848660889
 20
28989.60326060758
 30
0.0
 11
34984.19848660889
 21
28993.60326060757
 31
0.0
  0
LINE
  5
994
330
1F
100
AcDbEntity
  8
外形線
100
AcDbLine
 10
34986.19848660889
 20
28993.60326060757
 30
0.0
 11
34986.19848660889
 21
28989.60326060758
 31
0.0
  0
XLINE
  5
998
330
1F
100
AcDbEntity
  8
オフセット
100
AcDbXline
 10
34410.44093491146
 20
27902.11527306976
 30
0.0
 11
0.0
 21
-1.0
 31
0.0
  0
XLINE
  5
999
330
1F
100
AcDbEntity
  8
オフセット
100
AcDbXline
 10
34420.44093491146
 20
27902.11527306976
 30
0.0
 11
0.0
 21
-1.0
 31
0.0
  0
LINE
  5
99A
330
1F
100
AcDbEntity
  8
外形線
100
AcDbLine
 10
35007.19848660889
 20
28977.60326060758
 30
0.0
 11
35010.69848660888
 21
28977.60326060758
 31
0.0
  0
XLINE
  5
99F
330
1F
100
AcDbEntity
  8
オフセット
100
AcDbXline
 10
34113.44093491146
 20
27902.11527306976
 30
0.0
 11
0.0
 21
-1.0
 31
0.0
  0
XLINE
  5
9A0
330
1F
100
AcDbEntity
  8
オフセット
100
AcDbXline
 10
32915.44093491146
 20
28288.23237812785
 30
0.0
 11
-1.0
 21
0.0
 31
0.0
  0
XLINE
  5
9A1
330
1F
100
AcDbEntity
  8
オフセット
100
AcDbXline
 10
32915.44093491146
 20
28259.23237812785
 30
0.0
 11
-1.0
 21
0.0
 31
0.0
  0
XLINE
  5
9A2
330
1F
100
AcDbEntity
  8
オフセット
100
AcDbXline
 10
32915.44093491146
 20
28288.73237812786
 30
0.0
 11
-1.0
 21
0.0
 31
0.0
  0
XLINE
  5
9A3
330
1F
100
AcDbEntity
  8
オフセット
100
AcDbXline
 10
32915.44093491146
 20
28258.73237812785
 30
0.0
 11
-1.0
 21
0.0
 31
0.0
  0
XLINE
  5
9A6
330
1F
100
AcDbEntity
  8
オフセット
100
AcDbXline
 10
32915.44093491146
 20
28289.23237812785
 30
0.0
 11
-1.0
 21
0.0
 31
0.0
  0
XLINE
  5
9A7
330
1F
100
AcDbEntity
  8
オフセット
100
AcDbXline
 10
32915.44093491146
 20
28258.23237812786
 30
0.0
 11
-1.0
 21
0.0
 31
0.0
  0
LINE
  5
9A8
330
1F
100
AcDbEntity
  8
点線
100
AcDbLine
 10
33515.90963222689
 20
29018.24768779857
 30
0.0
 11
33516.69848660889
 21
29017.85326060758
 31
0.0
  0
LINE
  5
9A9
330
1F
100
AcDbEntity
  8
点線
100
AcDbLine
 10
33516.69848660889
 20
29017.85326060758
 30
0.0
 11
33516.69848660889
 21
29048.85326060758
 31
0.0
  0
LINE
  5
9AA
330
1F
100
AcDbEntity
  8
点線
100
AcDbLine
 10
33516.69848660889
 20
29048.85326060758
 30
0.0
 11
33515.90963222689
 21
29048.45883341657
 31
0.0
  0
LINE
  5
9AB
330
1F
100
AcDbEntity
  8
点線
100
AcDbLine
 10
33515.46241863139
 20
29048.35326060758
 30
0.0
 11
33506.69848660889
 21
29048.35326060758
 31
0.0
  0
LINE
  5
9AC
330
1F
100
AcDbEntity
  8
点線
100
AcDbLine
 10
33505.69848660889
 20
29047.35326060757
 30
0.0
 11
33505.69848660889
 21
29019.35326060757
 31
0.0
  0
LINE
  5
9AD
330
1F
100
AcDbEntity
  8
点線
100
AcDbLine
 10
33506.69848660889
 20
29018.35326060758
 30
0.0
 11
33515.46241863139
 21
29018.35326060758
 31
0.0
  0
ARC
  5
9B0
330
1F
100
AcDbEntity
  8
点線
100
AcDbCircle
 10
33506.69848660889
 20
29047.35326060757
 30
0.0
 40
1.0
100
AcDbArc
 50
90.0
 51
180.0
  0
ARC
  5
9B1
330
1F
100
AcDbEntity
  8
点線
100
AcDbCircle
 10
33506.69848660889
 20
29019.35326060757
 30
0.0
 40
1.0
100
AcDbArc
 50
180.0
 51
270.0
  0
ARC
  5
9B2
330
1F
100
AcDbEntity
  8
点線
100
AcDbCircle
 10
33515.46241863139
 20
29017.35326060757
 30
0.0
 40
1.0
100
AcDbArc
 50
63.43494882292201
 51
90.0
  0
ARC
  5
9B3
330
1F
100
AcDbEntity
  8
点線
100
AcDbCircle
 10
33515.46241863139
 20
29049.35326060757
 30
0.0
 40
1.0
100
AcDbArc
 50
270.0
 51
296.565051177078
  0
LINE
  5
9B4
330
1F
100
AcDbEntity
  8
点線
100
AcDbLine
 10
34693.48734099089
 20
29018.24768779857
 30
0.0
 11
34692.69848660889
 21
29017.85326060758
 31
0.0
  0
ARC
  5
9B5
330
1F
100
AcDbEntity
  8
点線
100
AcDbCircle
 10
34693.93455458639
 20
29017.35326060757
 30
0.0
 40
1.0
100
AcDbArc
 50
90.0
 51
116.5650511770955
  0
LINE
  5
9B6
330
1F
100
AcDbEntity
  8
点線
100
AcDbLine
 10
34692.69848660889
 20
29017.85326060758
 30
0.0
 11
34692.69848660889
 21
29048.85326060758
 31
0.0
  0
LINE
  5
9B7
330
1F
100
AcDbEntity
  8
点線
100
AcDbLine
 10
34692.69848660889
 20
29048.85326060758
 30
0.0
 11
34693.48734099089
 21
29048.45883341657
 31
0.0
  0
ARC
  5
9B8
330
1F
100
AcDbEntity
  8
点線
100
AcDbCircle
 10
34693.93455458639
 20
29049.35326060757
 30
0.0
 40
1.0
100
AcDbArc
 50
243.4349488229045
 51
270.0
  0
LINE
  5
9B9
330
1F
100
AcDbEntity
  8
点線
100
AcDbLine
 10
34693.93455458639
 20
29048.35326060758
 30
0.0
 11
34702.69848660889
 21
29048.35326060758
 31
0.0
  0
LINE
  5
9BA
330
1F
100
AcDbEntity
  8
点線
100
AcDbLine
 10
34703.69848660889
 20
29047.35326060757
 30
0.0
 11
34703.69848660889
 21
29019.35326060757
 31
0.0
  0
ARC
  5
9BB
330
1F
100
AcDbEntity
  8
点線
100
AcDbCircle
 10
34702.69848660889
 20
29047.35326060757
 30
0.0
 40
1.0
100
AcDbArc
 50
0.0
 51
90.0
  0
LINE
  5
9BC
330
1F
100
AcDbEntity
  8
点線
100
AcDbLine
 10
34702.69848660889
 20
29018.35326060758
 30
0.0
 11
34693.93455458639
 21
29018.35326060758
 31
0.0
  0
ARC
  5
9BD
330
1F
100
AcDbEntity
  8
点線
100
AcDbCircle
 10
34702.69848660889
 20
29019.35326060757
 30
0.0
 40
1.0
100
AcDbArc
 50
270.0
 51
0.0
  0
XLINE
  5
9BE
330
1F
100
AcDbEntity
  8
オフセット
100
AcDbXline
 10
34102.44093491146
 20
27902.11527306976
 30
0.0
 11
0.0
 21
-1.0
 31
0.0
  0
LINE
  5
9C2
330
1F
100
AcDbEntity
  8
点線
100
AcDbLine
 10
33516.69848660889
 20
29047.85326060757
 30
0.0
 11
34692.69848660889
 21
29047.85326060757
 31
0.0
  0
LINE
  5
9C3
330
1F
100
AcDbEntity
  8
点線
100
AcDbLine
 10
34692.69848660889
 20
29018.85326060757
 30
0.0
 11
33516.69848660889
 21
29018.85326060757
 31
0.0
  0
XLINE
  5
9C5
330
1F
100
AcDbEntity
  8
オフセット
100
AcDbXline
 10
32930.94093491146
 20
27902.11527306976
 30
0.0
 11
0.0
 21
-1.0
 31
0.0
  0
DIMENSION
  5
9D8
102
{ACAD_XDICTIONARY
360
9E5
102
}
102
{ACAD_REACTORS
330
9EF
102
}
330
1F
100
AcDbEntity
  8
寸法線
100
AcDbDimension
280
     0
  2
*D1
 10
34731.19848660889
 20
29273.32545246654
 30
0.0
 11
34110.19848660889
 21
29283.99138016094
 31
0.0
 70
    32
 71
     5
 42
1242.0
 73
     0
 74
     0
 75
     0
  3
ISO-25
100
AcDbAlignedDimension
 13
33489.19848660889
 23
29200.73081956038
 33
0.0
 14
34731.19848660889
 24
29200.73081956038
 34
0.0
100
AcDbRotatedDimension
  0
LINE
  5
9F6
330
1F
100
AcDbEntity
  8
中心線
100
AcDbLine
 10
33539.19848660889
 20
29226.77759440043
 30
0.0
 11
33539.19848660889
 21
28982.96507651178
 31
0.0
  0
LINE
  5
9F7
330
1F
100
AcDbEntity
  8
中心線
100
AcDbLine
 10
34681.19848660889
 20
29224.77759440043
 30
0.0
 11
34681.19848660889
 21
28980.96507651178
 31
0.0
  0
LINE
  5
A49
330
1F
100
AcDbEntity
  8
寸法線
100
AcDbLine
 10
33539.19848660889
 20
29104.54872634506
 30
0.0
 11
33539.19848660889
 21
29105.17372634506
 31
0.0
  0
LINE
  5
A4A
330
1F
100
AcDbEntity
  8
寸法線
100
AcDbLine
 10
34681.19848660889
 20
29104.54872634506
 30
0.0
 11
34681.19848660889
 21
29105.17372634506
 31
0.0
  0
LINE
  5
A4B
330
1F
100
AcDbEntity
  8
寸法線
100
AcDbLine
 10
33541.69848660889
 20
29103.92372634506
 30
0.0
 11
34678.69848660889
 21
29103.92372634506
 31
0.0
  0
SOLID
  5
A4C
330
1F
100
AcDbEntity
  8
寸法線
100
AcDbTrace
 10
33541.69848660889
 20
29104.34039301172
 30
0.0
 11
33541.69848660889
 21
29103.50705967839
 31
0.0
 12
33539.19848660889
 22
29103.92372634506
 32
0.0
 13
33539.19848660889
 23
29103.92372634506
 33
0.0
  0
SOLID
  5
A4D
330
1F
100
AcDbEntity
  8
寸法線
100
AcDbTrace
 10
34678.69848660889
 20
29104.34039301172
 30
0.0
 11
34678.69848660889
 21
29103.50705967839
 31
0.0
 12
34681.19848660889
 22
29103.92372634506
 32
0.0
 13
34681.19848660889
 23
29103.92372634506
 33
0.0
  0
MTEXT
  5
A4E
330
1F
100
AcDbEntity
  8
寸法線
100
AcDbMText
 10
34110.19848660889
 20
29103.92372634506
 30
0.0
 40
20.0
 41
0.0
 46
0.0
 71
     5
 72
     1
  1
{\fMS PGothic|b0|i0|c128|p50;灯具取付寸法　　最内ピッチ　}1119\P{\fMS PGothic|b0|i0|c128|p50;　　　　　　　　　　　最外ピッチ　}1185
 73
     1
 44
1.0
  0
DIMENSION
  5
A4F
102
{ACAD_XDICTIONARY
360
A5C
102
}
102
{ACAD_REACTORS
330
A66
102
}
330
1F
100
AcDbEntity
  8
寸法線
100
AcDbDimension
280
     0
  2
*D2
 10
34842.04634583286
 20
28997.60326060757
 30
0.0
 11
34831.20988607842
 21
29023.60326060758
 31
0.0
 70
    32
 71
     5
 42
52.0
 73
     0
 74
     0
 75
     0
  3
ISO-25
100
AcDbAlignedDimension
 13
34730.19848660889
 23
29049.60326060757
 33
0.0
 14
34730.19848660889
 24
28997.60326060757
 34
0.0
 50
90.0
100
AcDbRotatedDimension
  0
DIMENSION
  5
A67
102
{ACAD_XDICTIONARY
360
A75
102
}
102
{ACAD_REACTORS
330
A80
102
}
330
1F
100
AcDbEntity
  8
寸法線
100
AcDbDimension
280
     0
  2
*D3
 10
34799.15076986596
 20
28997.60326060757
 30
0.0
 11
34799.15076986595
 21
29094.13836736714
 31
0.0
 70
   160
 71
     5
 42
35.75
 73
     0
 74
     0
 75
     0
  3
ISO-25
100
AcDbAlignedDimension
 13
34730.19848660889
 23
29033.35326060758
 33
0.0
 14
34730.19848660889
 24
28997.60326060757
 34
0.0
 50
90.0
100
AcDbRotatedDimension
  0
LINE
  5
B1F
330
1F
100
AcDbEntity
  8
枠線
100
AcDbLine
 10
34831.24093491148
 20
28330.48237812787
 30
0.0
 11
34831.24093491148
 21
28817.98237812787
 31
0.0
  0
LINE
  5
B20
330
1F
100
AcDbEntity
  8
枠線
100
AcDbLine
 10
34831.24093491148
 20
28817.98237812787
 30
0.0
 11
35356.24093491148
 21
28817.98237812787
 31
0.0
  0
LINE
  5
B21
330
1F
100
AcDbEntity
  8
枠線
100
AcDbLine
 10
34831.24093491148
 20
28382.98237812787
 30
0.0
 11
35356.24093491148
 21
28382.98237812787
 31
0.0
  0
LINE
  5
B22
330
1F
100
AcDbEntity
  8
枠線
100
AcDbLine
 10
34831.24093491148
 20
28435.48237812787
 30
0.0
 11
35356.24093491148
 21
28435.48237812787
 31
0.0
  0
LINE
  5
B23
330
1F
100
AcDbEntity
  8
枠線
100
AcDbLine
 10
34831.24093491148
 20
28487.98237812787
 30
0.0
 11
35356.24093491148
 21
28487.98237812787
 31
0.0
  0
LINE
  5
B24
330
1F
100
AcDbEntity
  8
枠線
100
AcDbLine
 10
34831.24093491148
 20
28540.48237812787
 30
0.0
 11
35356.24093491148
 21
28540.48237812787
 31
0.0
  0
LINE
  5
B25
330
1F
100
AcDbEntity
  8
枠線
100
AcDbLine
 10
34831.24093491148
 20
28592.98237812787
 30
0.0
 11
35356.24093491148
 21
28592.98237812787
 31
0.0
  0
LINE
  5
B26
330
1F
100
AcDbEntity
  8
枠線
100
AcDbLine
 10
34831.24093491148
 20
28645.48237812787
 30
0.0
 11
35356.24093491148
 21
28645.48237812787
 31
0.0
  0
LINE
  5
B27
330
1F
100
AcDbEntity
  8
枠線
100
AcDbLine
 10
34831.24093491148
 20
28697.98237812787
 30
0.0
 11
35356.24093491148
 21
28697.98237812787
 31
0.0
  0
LINE
  5
B28
330
1F
100
AcDbEntity
  8
枠線
100
AcDbLine
 10
34831.24093491148
 20
28750.48237812787
 30
0.0
 11
35356.24093491148
 21
28750.48237812787
 31
0.0
  0
LINE
  5
B29
330
1F
100
AcDbEntity
  8
枠線
100
AcDbLine
 10
34958.74093491148
 20
28817.98237812787
 30
0.0
 11
34958.74093491148
 21
28330.48237812787
 31
0.0
  0
LINE
  5
B2A
330
1F
100
AcDbEntity
  8
枠線
100
AcDbLine
 10
34966.24093491148
 20
28817.98237812787
 30
0.0
 11
34966.24093491148
 21
28330.48237812787
 31
0.0
  0
LINE
  5
B2B
330
1F
100
AcDbEntity
  8
枠線
100
AcDbLine
 10
35041.24093491148
 20
28487.98237812787
 30
0.0
 11
35041.24093491148
 21
28435.48237812787
 31
0.0
  0
LINE
  5
B2C
330
1F
100
AcDbEntity
  8
枠線
100
AcDbLine
 10
35048.74093491148
 20
28487.98237812787
 30
0.0
 11
35048.74093491148
 21
28435.48237812787
 31
0.0
  0
LINE
  5
B2D
330
1F
100
AcDbEntity
  8
枠線
100
AcDbLine
 10
35198.74093491148
 20
28487.98237812787
 30
0.0
 11
35198.74093491148
 21
28435.48237812787
 31
0.0
  0
LINE
  5
B2E
330
1F
100
AcDbEntity
  8
枠線
100
AcDbLine
 10
35206.24093491147
 20
28487.98237812787
 30
0.0
 11
35206.24093491147
 21
28435.48237812787
 31
0.0
  0
LINE
  5
B2F
330
1F
100
AcDbEntity
  8
枠線
100
AcDbLine
 10
35281.24093491148
 20
28487.98237812787
 30
0.0
 11
35281.24093491148
 21
28435.48237812787
 31
0.0
  0
LINE
  5
B30
330
1F
100
AcDbEntity
  8
枠線
100
AcDbLine
 10
35123.74093491148
 20
28487.98237812787
 30
0.0
 11
35123.74093491148
 21
28435.48237812787
 31
0.0
  0
LINE
  5
B31
330
1F
100
AcDbEntity
  8
枠線
100
AcDbLine
 10
34756.24093491147
 20
29732.98237812787
 30
0.0
 11
34756.24093491147
 21
29432.98237812787
 31
0.0
  0
LINE
  5
B32
330
1F
100
AcDbEntity
  8
枠線
100
AcDbLine
 10
34831.24093491148
 20
29732.98237812787
 30
0.0
 11
34831.24093491148
 21
29432.98237812787
 31
0.0
  0
LINE
  5
B33
330
1F
100
AcDbEntity
  8
枠線
100
AcDbLine
 10
34838.74093491148
 20
29432.98237812787
 30
0.0
 11
34838.74093491148
 21
29732.98237812787
 31
0.0
  0
LINE
  5
B34
330
1F
100
AcDbEntity
  8
枠線
100
AcDbLine
 10
34756.24093491147
 20
29657.98237812787
 30
0.0
 11
35356.24093491148
 21
29657.98237812787
 31
0.0
  0
LINE
  5
B35
330
1F
100
AcDbEntity
  8
枠線
100
AcDbLine
 10
34756.24093491147
 20
29612.98237812787
 30
0.0
 11
35356.24093491148
 21
29612.98237812787
 31
0.0
  0
LINE
  5
B36
330
1F
100
AcDbEntity
  8
枠線
100
AcDbLine
 10
34756.24093491147
 20
29567.98237812787
 30
0.0
 11
35356.24093491148
 21
29567.98237812787
 31
0.0
  0
LINE
  5
B37
330
1F
100
AcDbEntity
  8
枠線
100
AcDbLine
 10
34756.24093491147
 20
29522.98237812787
 30
0.0
 11
35356.24093491148
 21
29522.98237812787
 31
0.0
  0
LINE
  5
B38
330
1F
100
AcDbEntity
  8
枠線
100
AcDbLine
 10
34756.24093491147
 20
29477.98237812787
 30
0.0
 11
35356.24093491148
 21
29477.98237812787
 31
0.0
  0
LINE
  5
B39
330
1F
100
AcDbEntity
  8
枠線
100
AcDbLine
 10
34756.24093491147
 20
29432.98237812787
 30
0.0
 11
35356.24093491148
 21
29432.98237812787
 31
0.0
  0
LINE
  5
B3A
330
1F
100
AcDbEntity
  8
枠線
100
AcDbLine
 10
35063.74093491148
 20
29732.98237812787
 30
0.0
 11
35063.74093491148
 21
29432.98237812787
 31
0.0
  0
LINE
  5
B3B
330
1F
100
AcDbEntity
  8
枠線
100
AcDbLine
 10
35209.99093491147
 20
29732.98237812787
 30
0.0
 11
35209.99093491147
 21
29432.98237812787
 31
0.0
  0
LINE
  5
B3C
330
1F
100
AcDbEntity
  8
外形線
100
AcDbLine
 10
33353.74093491147
 20
29755.48237812787
 30
0.0
 11
33353.74093491147
 21
28307.98237812787
 31
0.0
  0
LINE
  5
B3D
330
1F
100
AcDbEntity
  8
外形線
100
AcDbLine
 10
35378.74093491148
 20
29755.48237812787
 30
0.0
 11
33353.74093491147
 21
29755.48237812787
 31
0.0
  0
LINE
  5
B3E
330
1F
100
AcDbEntity
  8
枠線
100
AcDbLine
 10
33376.24093491148
 20
29732.98237812787
 30
0.0
 11
33376.24093491148
 21
28330.48237812787
 31
0.0
  0
LINE
  5
B3F
330
1F
100
AcDbEntity
  8
枠線
100
AcDbLine
 10
33376.24093491148
 20
28330.48237812787
 30
0.0
 11
35356.24093491148
 21
28330.48237812787
 31
0.0
  0
LINE
  5
B40
330
1F
100
AcDbEntity
  8
枠線
100
AcDbLine
 10
35356.24093491148
 20
28330.48237812787
 30
0.0
 11
35356.24093491148
 21
29732.98237812787
 31
0.0
  0
LINE
  5
B41
330
1F
100
AcDbEntity
  8
枠線
100
AcDbLine
 10
35356.24093491148
 20
29732.98237812787
 30
0.0
 11
33376.24093491148
 21
29732.98237812787
 31
0.0
  0
LINE
  5
B42
330
1F
100
AcDbEntity
  8
枠線
100
AcDbLine
 10
34748.74093491147
 20
29732.98237812787
 30
0.0
 11
34748.74093491147
 21
29432.98237812787
 31
0.0
  0
LINE
  5
B43
330
1F
100
AcDbEntity
  8
枠線
100
AcDbLine
 10
34756.24093491147
 20
29432.98237812787
 30
0.0
 11
34756.24093491147
 21
29732.98237812787
 31
0.0
  0
LINE
  5
B44
330
1F
100
AcDbEntity
  8
枠線
100
AcDbLine
 10
34148.74093491147
 20
29732.98237812787
 30
0.0
 11
34148.74093491147
 21
29432.98237812787
 31
0.0
  0
LINE
  5
B45
330
1F
100
AcDbEntity
  8
枠線
100
AcDbLine
 10
34223.74093491148
 20
29732.98237812787
 30
0.0
 11
34223.74093491148
 21
29432.98237812787
 31
0.0
  0
LINE
  5
B46
330
1F
100
AcDbEntity
  8
枠線
100
AcDbLine
 10
34231.24093491148
 20
29432.98237812787
 30
0.0
 11
34231.24093491148
 21
29732.98237812787
 31
0.0
  0
LINE
  5
B47
330
1F
100
AcDbEntity
  8
枠線
100
AcDbLine
 10
34148.74093491147
 20
29657.98237812787
 30
0.0
 11
34748.74093491147
 21
29657.98237812787
 31
0.0
  0
LINE
  5
B48
330
1F
100
AcDbEntity
  8
枠線
100
AcDbLine
 10
34148.74093491147
 20
29612.98237812787
 30
0.0
 11
34748.74093491147
 21
29612.98237812787
 31
0.0
  0
LINE
  5
B49
330
1F
100
AcDbEntity
  8
枠線
100
AcDbLine
 10
34148.74093491147
 20
29567.98237812787
 30
0.0
 11
34748.74093491147
 21
29567.98237812787
 31
0.0
  0
LINE
  5
B4A
330
1F
100
AcDbEntity
  8
枠線
100
AcDbLine
 10
34148.74093491147
 20
29522.98237812787
 30
0.0
 11
34748.74093491147
 21
29522.98237812787
 31
0.0
  0
LINE
  5
B4B
330
1F
100
AcDbEntity
  8
枠線
100
AcDbLine
 10
34148.74093491147
 20
29477.98237812787
 30
0.0
 11
34748.74093491147
 21
29477.98237812787
 31
0.0
  0
LINE
  5
B4C
330
1F
100
AcDbEntity
  8
枠線
100
AcDbLine
 10
34148.74093491147
 20
29432.98237812787
 30
0.0
 11
34748.74093491147
 21
29432.98237812787
 31
0.0
  0
LINE
  5
B4D
330
1F
100
AcDbEntity
  8
枠線
100
AcDbLine
 10
34456.24093491148
 20
29732.98237812787
 30
0.0
 11
34456.24093491148
 21
29432.98237812787
 31
0.0
  0
LINE
  5
B4E
330
1F
100
AcDbEntity
  8
枠線
100
AcDbLine
 10
34602.49093491148
 20
29732.98237812787
 30
0.0
 11
34602.49093491148
 21
29432.98237812787
 31
0.0
  0
LINE
  5
B4F
330
1F
100
AcDbEntity
  8
枠線
100
AcDbLine
 10
34148.74093491147
 20
29432.98237812787
 30
0.0
 11
34148.74093491147
 21
29732.98237812787
 31
0.0
  0
LINE
  5
B50
330
1F
100
AcDbEntity
  8
外形線
100
AcDbLine
 10
35378.74093491148
 20
29755.48237812787
 30
0.0
 11
35378.74093491148
 21
28307.98237812787
 31
0.0
  0
LINE
  5
B51
330
1F
100
AcDbEntity
  8
外形線
100
AcDbLine
 10
35378.74093491148
 20
28307.98237812787
 30
0.0
 11
33353.74093491147
 21
28307.98237812787
 31
0.0
  0
MTEXT
  5
B52
330
1F
100
AcDbEntity
  8
寸法線
100
AcDbMText
 10
34342.33525250739
 20
29695.43420697478
 30
0.0
 40
37.50000000000001
 41
174.8674808517826
 46
0.0
 71
     5
 72
     5
  1
{\fMS PGothic|b0|i0|c128|p50;部品名}
 73
     1
 44
1.0
1001
ACAD
1000
ACAD_MTEXT_COLUMN_INFO_BEGIN
1070
    75
1070
     2
1070
    79
1070
     0
1070
    76
1070
     1
1070
    78
1070
     0
1070
    48
1040
174.8674808517826
1070
    49
1040
12.5
1070
    50
1070
     1
1040
0.0
1000
ACAD_MTEXT_COLUMN_INFO_END
  0
MTEXT
  5
B53
330
1F
100
AcDbEntity
  8
寸法線
100
AcDbMText
 10
34527.9602525073
 20
29695.54074106575
 30
0.0
 40
37.50000000000001
 41
109.1764692682045
 46
0.0
 71
     5
 72
     5
  1
{\fMS PGothic|b0|i0|c128|p50;材質}
 73
     1
 44
1.0
1001
ACAD
1000
ACAD_MTEXT_COLUMN_INFO_BEGIN
1070
    75
1070
     2
1070
    79
1070
     0
1070
    76
1070
     1
1070
    78
1070
     0
1070
    48
1040
109.1764692682045
1070
    49
1040
12.5
1070
    50
1070
     1
1040
0.0
1000
ACAD_MTEXT_COLUMN_INFO_END
  0
MTEXT
  5
B54
330
1F
100
AcDbEntity
  8
寸法線
100
AcDbMText
 10
34674.21025250742
 20
29695.3276728839
 30
0.0
 40
37.50000000000001
 41
115.2368875816973
 46
0.0
 71
     5
 72
     5
  1
{\fMS PGothic|b0|i0|c128|p50;摘要}
 73
     1
 44
1.0
1001
ACAD
1000
ACAD_MTEXT_COLUMN_INFO_BEGIN
1070
    75
1070
     2
1070
    79
1070
     0
1070
    76
1070
     1
1070
    78
1070
     0
1070
    48
1040
115.2368875816973
1070
    49
1040
12.5
1070
    50
1070
     1
1040
0.0
1000
ACAD_MTEXT_COLUMN_INFO_END
  0
MTEXT
  5
B55
330
1F
100
AcDbEntity
  8
寸法線
100
AcDbMText
 10
34187.64661731571
 20
29693.97555259668
 30
0.0
 40
22.5
 41
10.0
 46
0.0
 71
     5
 72
     5
  1
{\fMS PGothic|b0|i0|c128|p50;部番}
 73
     1
 44
1.0
1001
ACAD
1000
ACAD_MTEXT_COLUMN_INFO_BEGIN
1070
    75
1070
     2
1070
    79
1070
     0
1070
    76
1070
     1
1070
    78
1070
     0
1070
    48
1040
10.0
1070
    49
1040
12.5
1070
    50
1070
     1
1040
0.0
1000
ACAD_MTEXT_COLUMN_INFO_END
  0
MTEXT
  5
B56
330
1F
100
AcDbEntity
  8
寸法線
100
AcDbMText
 10
34186.24093491148
 20
29635.49772247873
 30
0.0
 40
26.25000000000001
 41
10.0
 46
0.0
 71
     5
 72
     5
  1
{\fMS PGothic|b0|i0|c128|p50;①}
 73
     1
 44
1.0
1001
ACAD
1000
ACAD_MTEXT_COLUMN_INFO_BEGIN
1070
    75
1070
     2
1070
    79
1070
     0
1070
    76
1070
     1
1070
    78
1070
     0
1070
    48
1040
10.0
1070
    49
1040
12.5
1070
    50
1070
     1
1040
0.0
1000
ACAD_MTEXT_COLUMN_INFO_END
  0
MTEXT
  5
B57
330
1F
100
AcDbEntity
  8
寸法線
100
AcDbMText
 10
34186.24093491148
 20
29590.49772247873
 30
0.0
 40
26.25000000000001
 41
10.0
 46
0.0
 71
     5
 72
     5
  1
{\fMS PGothic|b0|i0|c128|p50;②}
 73
     1
 44
1.0
1001
ACAD
1000
ACAD_MTEXT_COLUMN_INFO_BEGIN
1070
    75
1070
     2
1070
    79
1070
     0
1070
    76
1070
     1
1070
    78
1070
     0
1070
    48
1040
10.0
1070
    49
1040
12.5
1070
    50
1070
     1
1040
0.0
1000
ACAD_MTEXT_COLUMN_INFO_END
  0
MTEXT
  5
B58
330
1F
100
AcDbEntity
  8
寸法線
100
AcDbMText
 10
34186.24093491148
 20
29545.49772247876
 30
0.0
 40
26.25000000000001
 41
10.0
 46
0.0
 71
     5
 72
     5
  1
{\fMS PGothic|b0|i0|c128|p50;③}
 73
     1
 44
1.0
1001
ACAD
1000
ACAD_MTEXT_COLUMN_INFO_BEGIN
1070
    75
1070
     2
1070
    79
1070
     0
1070
    76
1070
     1
1070
    78
1070
     0
1070
    48
1040
10.0
1070
    49
1040
12.5
1070
    50
1070
     1
1040
0.0
1000
ACAD_MTEXT_COLUMN_INFO_END
  0
MTEXT
  5
B59
330
1F
100
AcDbEntity
  8
寸法線
100
AcDbMText
 10
34186.24093491148
 20
29500.49772247873
 30
0.0
 40
26.25000000000001
 41
10.0
 46
0.0
 71
     5
 72
     5
  1
{\fMS PGothic|b0|i0|c128|p50;④}
 73
     1
 44
1.0
1001
ACAD
1000
ACAD_MTEXT_COLUMN_INFO_BEGIN
1070
    75
1070
     2
1070
    79
1070
     0
1070
    76
1070
     1
1070
    78
1070
     0
1070
    48
1040
10.0
1070
    49
1040
12.5
1070
    50
1070
     1
1040
0.0
1000
ACAD_MTEXT_COLUMN_INFO_END
  0
MTEXT
  5
B5A
330
1F
100
AcDbEntity
  8
寸法線
100
AcDbMText
 10
34186.24093491148
 20
29455.49772247873
 30
0.0
 40
26.25000000000001
 41
10.0
 46
0.0
 71
     5
 72
     5
  1
{\fMS PGothic|b0|i0|c128|p50;⑤}
 73
     1
 44
1.0
1001
ACAD
1000
ACAD_MTEXT_COLUMN_INFO_BEGIN
1070
    75
1070
     2
1070
    79
1070
     0
1070
    76
1070
     1
1070
    78
1070
     0
1070
    48
1040
10.0
1070
    49
1040
12.5
1070
    50
1070
     1
1040
0.0
1000
ACAD_MTEXT_COLUMN_INFO_END
  0
MTEXT
  5
B5B
330
1F
100
AcDbEntity
  8
寸法線
100
AcDbMText
 10
34949.8352525073
 20
29695.43420697478
 30
0.0
 40
37.50000000000001
 41
208.789682174116
 46
0.0
 71
     5
 72
     5
  1
{\fMS PGothic|b0|i0|c128|p50;部品名}
 73
     1
 44
1.0
1001
ACAD
1000
ACAD_MTEXT_COLUMN_INFO_BEGIN
1070
    75
1070
     2
1070
    79
1070
     0
1070
    76
1070
     1
1070
    78
1070
     0
1070
    48
1040
208.789682174116
1070
    49
1040
12.5
1070
    50
1070
     1
1040
0.0
1000
ACAD_MTEXT_COLUMN_INFO_END
  0
MTEXT
  5
B5C
330
1F
100
AcDbEntity
  8
寸法線
100
AcDbMText
 10
35135.4602525073
 20
29695.54074106575
 30
0.0
 40
37.50000000000001
 41
121.2416595124814
 46
0.0
 71
     5
 72
     5
  1
{\fMS PGothic|b0|i0|c128|p50;材質}
 73
     1
 44
1.0
1001
ACAD
1000
ACAD_MTEXT_COLUMN_INFO_BEGIN
1070
    75
1070
     2
1070
    79
1070
     0
1070
    76
1070
     1
1070
    78
1070
     0
1070
    48
1040
121.2416595124814
1070
    49
1040
12.5
1070
    50
1070
     1
1040
0.0
1000
ACAD_MTEXT_COLUMN_INFO_END
  0
MTEXT
  5
B5D
330
1F
100
AcDbEntity
  8
寸法線
100
AcDbMText
 10
35281.7102525073
 20
29695.3276728839
 30
0.0
 40
37.50000000000001
 41
124.8927565777121
 46
0.0
 71
     5
 72
     5
  1
{\fMS PGothic|b0|i0|c128|p50;摘要}
 73
     1
 44
1.0
1001
ACAD
1000
ACAD_MTEXT_COLUMN_INFO_BEGIN
1070
    75
1070
     2
1070
    79
1070
     0
1070
    76
1070
     1
1070
    78
1070
     0
1070
    48
1040
124.8927565777121
1070
    49
1040
12.5
1070
    50
1070
     1
1040
0.0
1000
ACAD_MTEXT_COLUMN_INFO_END
  0
MTEXT
  5
B5E
330
1F
100
AcDbEntity
  8
寸法線
100
AcDbMText
 10
34795.14661731577
 20
29693.97555259668
 30
0.0
 40
22.5
 41
10.0
 46
0.0
 71
     5
 72
     5
  1
{\fMS PGothic|b0|i0|c128|p50;部番}
 73
     1
 44
1.0
1001
ACAD
1000
ACAD_MTEXT_COLUMN_INFO_BEGIN
1070
    75
1070
     2
1070
    79
1070
     0
1070
    76
1070
     1
1070
    78
1070
     0
1070
    48
1040
10.0
1070
    49
1040
12.5
1070
    50
1070
     1
1040
0.0
1000
ACAD_MTEXT_COLUMN_INFO_END
  0
MTEXT
  5
B5F
330
1F
100
AcDbEntity
  8
寸法線
100
AcDbMText
 10
34793.74093491153
 20
29635.49772247873
 30
0.0
 40
26.25000000000001
 41
10.0
 46
0.0
 71
     5
 72
     5
  1
{\fMS PGothic|b0|i0|c128|p50;⑥}
 73
     1
 44
1.0
1001
ACAD
1000
ACAD_MTEXT_COLUMN_INFO_BEGIN
1070
    75
1070
     2
1070
    79
1070
     0
1070
    76
1070
     1
1070
    78
1070
     0
1070
    48
1040
10.0
1070
    49
1040
12.5
1070
    50
1070
     1
1040
0.0
1000
ACAD_MTEXT_COLUMN_INFO_END
  0
MTEXT
  5
B60
330
1F
100
AcDbEntity
  8
寸法線
100
AcDbMText
 10
34793.74093491153
 20
29590.49772247873
 30
0.0
 40
26.25000000000001
 41
10.0
 46
0.0
 71
     5
 72
     5
  1
{\fMS PGothic|b0|i0|c128|p50;⑦}
 73
     1
 44
1.0
1001
ACAD
1000
ACAD_MTEXT_COLUMN_INFO_BEGIN
1070
    75
1070
     2
1070
    79
1070
     0
1070
    76
1070
     1
1070
    78
1070
     0
1070
    48
1040
10.0
1070
    49
1040
12.5
1070
    50
1070
     1
1040
0.0
1000
ACAD_MTEXT_COLUMN_INFO_END
  0
MTEXT
  5
B61
330
1F
100
AcDbEntity
  8
寸法線
100
AcDbMText
 10
34793.74093491153
 20
29545.49772247876
 30
0.0
 40
26.25000000000001
 41
10.0
 46
0.0
 71
     5
 72
     5
  1
{\fMS PGothic|b0|i0|c128|p50;⑧}
 73
     1
 44
1.0
1001
ACAD
1000
ACAD_MTEXT_COLUMN_INFO_BEGIN
1070
    75
1070
     2
1070
    79
1070
     0
1070
    76
1070
     1
1070
    78
1070
     0
1070
    48
1040
10.0
1070
    49
1040
12.5
1070
    50
1070
     1
1040
0.0
1000
ACAD_MTEXT_COLUMN_INFO_END
  0
MTEXT
  5
B62
330
1F
100
AcDbEntity
  8
寸法線
100
AcDbMText
 10
34793.74093491153
 20
29500.49772247873
 30
0.0
 40
26.25000000000001
 41
10.0
 46
0.0
 71
     5
 72
     5
  1
{\fMS PGothic|b0|i0|c128|p50;⑨}
 73
     1
 44
1.0
1001
ACAD
1000
ACAD_MTEXT_COLUMN_INFO_BEGIN
1070
    75
1070
     2
1070
    79
1070
     0
1070
    76
1070
     1
1070
    78
1070
     0
1070
    48
1040
10.0
1070
    49
1040
12.5
1070
    50
1070
     1
1040
0.0
1000
ACAD_MTEXT_COLUMN_INFO_END
  0
MTEXT
  5
B63
330
1F
100
AcDbEntity
  8
寸法線
100
AcDbMText
 10
34793.74093491153
 20
29455.49772247873
 30
0.0
 40
26.25000000000001
 41
10.0
 46
0.0
 71
     5
 72
     5
  1
{\fMS PGothic|b0|i0|c128|p50;⑩}
 73
     1
 44
1.0
1001
ACAD
1000
ACAD_MTEXT_COLUMN_INFO_BEGIN
1070
    75
1070
     2
1070
    79
1070
     0
1070
    76
1070
     1
1070
    78
1070
     0
1070
    48
1040
10.0
1070
    49
1040
12.5
1070
    50
1070
     1
1040
0.0
1000
ACAD_MTEXT_COLUMN_INFO_END
  0
TEXT
  5
B64
330
1F
100
AcDbEntity
  8
寸法線
100
AcDbText
 10
34973.80850170256
 20
28790.09250033819
 30
0.0
 40
16.125
  1
広告灯内用放電灯器具（LEDランプ用）
100
AcDbText
  0
TEXT
  5
B65
330
1F
100
AcDbEntity
  8
寸法線
100
AcDbText
 10
34974.49132900027
 20
28766.1981884437
 30
0.0
 40
11.25
  1
AC100/200V　　50/60Hz
100
AcDbText
  0
MTEXT
  5
B66
330
1F
100
AcDbEntity
  8
寸法線
100
AcDbMText
 10
34894.99093491148
 20
28721.94103785648
 30
0.0
 40
26.25000000000001
 41
134.5371276319638
 46
0.0
 71
     5
 72
     5
  1
{\fMS PGothic|b0|i0|c128|p50;品名}
 73
     1
 44
1.0
1001
ACAD
1000
ACAD_MTEXT_COLUMN_INFO_BEGIN
1070
    75
1070
     2
1070
    79
1070
     0
1070
    76
1070
     1
1070
    78
1070
     0
1070
    48
1040
134.5371276319638
1070
    49
1040
12.5
1070
    50
1070
     1
1040
0.0
1000
ACAD_MTEXT_COLUMN_INFO_END
  0
MTEXT
  5
B67
330
1F
100
AcDbEntity
  8
寸法線
100
AcDbMText
 10
34894.99093491148
 20
28669.36646399289
 30
0.0
 40
26.25000000000001
 41
107.3977478795059
 46
0.0
 71
     5
 72
     5
  1
{\fMS PGothic|b0|i0|c128|p50;型番}
 73
     1
 44
1.0
1001
ACAD
1000
ACAD_MTEXT_COLUMN_INFO_BEGIN
1070
    75
1070
     2
1070
    79
1070
     0
1070
    76
1070
     1
1070
    78
1070
     0
1070
    48
1040
107.3977478795059
1070
    49
1040
12.5
1070
    50
1070
     1
1040
0.0
1000
ACAD_MTEXT_COLUMN_INFO_END
  0
MTEXT
  5
B68
330
1F
100
AcDbEntity
  8
寸法線
100
AcDbMText
 10
34894.99093491148
 20
28616.86646399289
 30
0.0
 40
26.25000000000001
 41
111.0985654956457
 46
0.0
 71
     5
 72
     5
  1
{\fMS PGothic|b0|i0|c128|p50;図番}
 73
     1
 44
1.0
1001
ACAD
1000
ACAD_MTEXT_COLUMN_INFO_BEGIN
1070
    75
1070
     2
1070
    79
1070
     0
1070
    76
1070
     1
1070
    78
1070
     0
1070
    48
1040
111.0985654956457
1070
    49
1040
12.5
1070
    50
1070
     1
1040
0.0
1000
ACAD_MTEXT_COLUMN_INFO_END
  0
MTEXT
  5
B69
330
1F
100
AcDbEntity
  8
寸法線
100
AcDbMText
 10
34894.99093491148
 20
28564.06816853833
 30
0.0
 40
26.25000000000001
 41
79.75
 46
0.0
 71
     5
 72
     5
  1
{\fMS PGothic|b0|i0|c128|p50;尺度}
 73
     1
 44
1.0
1001
ACAD
1000
ACAD_MTEXT_COLUMN_INFO_BEGIN
1070
    75
1070
     2
1070
    79
1070
     0
1070
    76
1070
     1
1070
    78
1070
     0
1070
    48
1040
79.75
1070
    49
1040
12.5
1070
    50
1070
     1
1040
0.0
1000
ACAD_MTEXT_COLUMN_INFO_END
  0
MTEXT
  5
B6A
330
1F
100
AcDbEntity
  8
寸法線
100
AcDbMText
 10
34894.99093491148
 20
28512.38848103833
 30
0.0
 40
26.25000000000001
 41
79.75
 46
0.0
 71
     5
 72
     5
  1
{\fMS PGothic|b0|i0|c128|p50;日付}
 73
     1
 44
1.0
1001
ACAD
1000
ACAD_MTEXT_COLUMN_INFO_BEGIN
1070
    75
1070
     2
1070
    79
1070
     0
1070
    76
1070
     1
1070
    78
1070
     0
1070
    48
1040
79.75
1070
    49
1040
12.5
1070
    50
1070
     1
1040
0.0
1000
ACAD_MTEXT_COLUMN_INFO_END
  0
MTEXT
  5
B6B
330
1F
100
AcDbEntity
  8
寸法線
100
AcDbMText
 10
34894.99093491148
 20
28459.29189012924
 30
0.0
 40
26.25000000000001
 41
79.75
 46
0.0
 71
     5
 72
     5
  1
{\fMS PGothic|b0|i0|c128|p50;設計}
 73
     1
 44
1.0
1001
ACAD
1000
ACAD_MTEXT_COLUMN_INFO_BEGIN
1070
    75
1070
     2
1070
    79
1070
     0
1070
    76
1070
     1
1070
    78
1070
     0
1070
    48
1040
79.75
1070
    49
1040
12.5
1070
    50
1070
     1
1040
0.0
1000
ACAD_MTEXT_COLUMN_INFO_END
  0
MTEXT
  5
B6C
330
1F
100
AcDbEntity
  8
寸法線
100
AcDbMText
 10
35086.24093491154
 20
28462.21518558377
 30
0.0
 40
21.0
 41
77.95127031754964
 46
0.0
 71
     5
 72
     5
  1
{\fMS PGothic|b0|i0|c128|p50;製図}
 73
     1
 44
1.0
1001
ACAD
1000
ACAD_MTEXT_COLUMN_INFO_BEGIN
1070
    75
1070
     2
1070
    79
1070
     0
1070
    76
1070
     1
1070
    78
1070
     0
1070
    48
1040
77.95127031754964
1070
    49
1040
12.5
1070
    50
1070
     1
1040
0.0
1000
ACAD_MTEXT_COLUMN_INFO_END
  0
MTEXT
  5
B6D
330
1F
100
AcDbEntity
  8
寸法線
100
AcDbMText
 10
35243.74093491153
 20
28462.99075376565
 30
0.0
 40
21.0
 41
64.78344696047134
 46
0.0
 71
     5
 72
     5
  1
{\fMS PGothic|b0|i0|c128|p50;承認}
 73
     1
 44
1.0
1001
ACAD
1000
ACAD_MTEXT_COLUMN_INFO_BEGIN
1070
    75
1070
     2
1070
    79
1070
     0
1070
    76
1070
     1
1070
    78
1070
     0
1070
    48
1040
64.78344696047134
1070
    49
1040
12.5
1070
    50
1070
     1
1040
0.0
1000
ACAD_MTEXT_COLUMN_INFO_END
  0
MTEXT
  5
B6E
330
1F
100
AcDbEntity
  8
寸法線
100
AcDbMText
 10
35161.24093491153
 20
28358.97825559299
 30
0.0
 40
26.25000000000001
 41
479.1527611076308
 46
0.0
 71
     5
 72
     5
  1
{\fMS PGothic|b0|i0|c128|p50;高村電機工業株式会社}
 73
     1
 44
1.0
1001
ACAD
1000
ACAD_MTEXT_COLUMN_INFO_BEGIN
1070
    75
1070
     2
1070
    79
1070
     0
1070
    76
1070
     1
1070
    78
1070
     0
1070
    48
1040
479.1527611076308
1070
    49
1040
12.5
1070
    50
1070
     1
1040
0.0
1000
ACAD_MTEXT_COLUMN_INFO_END
  0
MTEXT
  5
B6F
330
1F
100
AcDbEntity
  8
寸法線
100
AcDbMText
 10
34976.77017264042
 20
28747.97637550353
 30
0.0
 40
30.00000000000002
 41
379.4707622710557
 46
0.0
 71
     1
 72
     5
  1
{\fMS PGothic|b0|i0|c128|p50;ゼブライト・V　}40W
 73
     1
 44
1.0
1001
ACAD
1000
ACAD_MTEXT_COLUMN_INFO_BEGIN
1070
    75
1070
     2
1070
    79
1070
     0
1070
    76
1070
     1
1070
    78
1070
     0
1070
    48
1040
379.4707622710557
1070
    49
1040
12.5
1070
    50
1070
     1
1040
0.0
1000
ACAD_MTEXT_COLUMN_INFO_END
  0
MTEXT
  5
B70
330
1F
100
AcDbEntity
  8
寸法線
100
AcDbMText
 10
34977.94011030515
 20
28689.02302503455
 30
0.0
 40
30.00000000000002
 41
326.790400944592
 46
0.0
 71
     1
 72
     5
  1
CST{\fMS PGothic|b0|i0|c128|p50;‐}400KB-V
 73
     1
 44
1.0
1001
ACAD
1000
ACAD_MTEXT_COLUMN_INFO_BEGIN
1070
    75
1070
     2
1070
    79
1070
     0
1070
    76
1070
     1
1070
    78
1070
     0
1070
    48
1040
326.790400944592
1070
    49
1040
12.5
1070
    50
1070
     1
1040
0.0
1000
ACAD_MTEXT_COLUMN_INFO_END
  0
LINE
  5
B71
330
1F
100
AcDbEntity
  8
枠線
100
AcDbLine
 10
35157.49093491148
 20
28592.98237812787
 30
0.0
 11
35157.49093491148
 21
28540.48237812787
 31
0.0
  0
LINE
  5
B72
330
1F
100
AcDbEntity
  8
枠線
100
AcDbLine
 10
35164.99093491148
 20
28592.98237812787
 30
0.0
 11
35164.99093491148
 21
28540.48237812787
 31
0.0
  0
CIRCLE
  5
B73
330
1F
100
AcDbEntity
  8
枠線
100
AcDbCircle
 10
35221.24093491147
 20
28566.73237812787
 30
0.0
 40
15.0
  0
CIRCLE
  5
B74
330
1F
100
AcDbEntity
  8
枠線
100
AcDbCircle
 10
35221.24093491147
 20
28566.73237812787
 30
0.0
 40
7.5
  0
LINE
  5
B75
330
1F
100
AcDbEntity
  8
枠線
100
AcDbLine
 10
35277.49093491148
 20
28574.23237812787
 30
0.0
 11
35277.49093491148
 21
28559.23237812787
 31
0.0
  0
LINE
  5
B76
330
1F
100
AcDbEntity
  8
枠線
100
AcDbLine
 10
35277.49093491148
 20
28559.23237812787
 30
0.0
 11
35314.99093491148
 21
28551.73237812787
 31
0.0
  0
LINE
  5
B77
330
1F
100
AcDbEntity
  8
枠線
100
AcDbLine
 10
35314.99093491148
 20
28551.73237812787
 30
0.0
 11
35314.99093491148
 21
28581.73237812787
 31
0.0
  0
LINE
  5
B78
330
1F
100
AcDbEntity
  8
枠線
100
AcDbLine
 10
35314.99093491148
 20
28581.73237812787
 30
0.0
 11
35277.49093491148
 21
28574.23237812787
 31
0.0
  0
LINE
  5
B79
330
1F
100
AcDbEntity
  8
中心線
 48
0.5
100
AcDbLine
 10
35202.49093491147
 20
28566.73237812787
 30
0.0
 11
35318.74093491148
 21
28566.73237812787
 31
0.0
  0
LINE
  5
B7A
330
1F
100
AcDbEntity
  8
中心線
 48
0.5
100
AcDbLine
 10
35221.24093491147
 20
28585.48237812787
 30
0.0
 11
35221.24093491147
 21
28547.98237812787
 31
0.0
  0
MTEXT
  5
B7B
330
1F
100
AcDbEntity
  8
中心線
100
AcDbMText
 10
35062.10515516228
 20
28567.02177482419
 30
0.0
 40
30.00000000000002
 41
137.1373031534895
 46
0.0
 71
     5
 72
     5
  1
1  :  5
 73
     1
 44
1.0
1001
ACAD
1000
ACAD_MTEXT_COLUMN_INFO_BEGIN
1070
    75
1070
     2
1070
    79
1070
     0
1070
    76
1070
     1
1070
    78
1070
     0
1070
    48
1040
137.1373031534895
1070
    49
1040
12.5
1070
    50
1070
     1
1040
0.0
1000
ACAD_MTEXT_COLUMN_INFO_END
  0
MTEXT
  5
B7C
330
1F
100
AcDbEntity
  8
寸法線
100
AcDbMText
 10
34238.20906877174
 20
29649.15799909807
 30
0.0
 40
12.0
 41
151.6297294085016
 46
0.0
 71
     1
 72
     5
  1
{\fMS PGothic|b0|i0|c128|p50;器具本体}
 73
     1
 44
1.0
1001
ACAD
1000
ACAD_MTEXT_COLUMN_INFO_BEGIN
1070
    75
1070
     2
1070
    79
1070
     0
1070
    76
1070
     1
1070
    78
1070
     0
1070
    48
1040
151.6297294085016
1070
    49
1040
12.5
1070
    50
1070
     1
1040
0.0
1000
ACAD_MTEXT_COLUMN_INFO_END
  0
MTEXT
  5
B7D
330
1F
100
AcDbEntity
  8
寸法線
100
AcDbMText
 10
34464.31238690586
 20
29654.81214108685
 30
0.0
 40
10.0
 41
163.0743348696414
 46
0.0
 71
     1
 72
     5
  1
{\fMS PGothic|b0|i0|c128|p50;鋼鈑　}0.6{\fMS PGothic|b0|i0|c128|p50;ｔ}\P{\fMS PGothic|b0|i0|c128|p50;（亜鉛メッキ板）}
 73
     1
 44
1.0
1001
ACAD
1000
ACAD_MTEXT_COLUMN_INFO_BEGIN
1070
    75
1070
     2
1070
    79
1070
     0
1070
    76
1070
     1
1070
    78
1070
     0
1070
    48
1040
163.0743348696414
1070
    49
1040
12.5
1070
    50
1070
     1
1040
0.0
1000
ACAD_MTEXT_COLUMN_INFO_END
  0
MTEXT
  5
B7E
330
1F
100
AcDbEntity
  8
寸法線
100
AcDbMText
 10
34606.65688851665
 20
29644.09894835483
 30
0.0
 40
10.0
 41
127.6574633589698
 46
0.0
 71
     1
 72
     5
  1
{\fMS PGothic|b0|i0|c128|p50;ホーミング加工}
 73
     1
 44
1.0
1001
ACAD
1000
ACAD_MTEXT_COLUMN_INFO_BEGIN
1070
    75
1070
     2
1070
    79
1070
     0
1070
    76
1070
     1
1070
    78
1070
     0
1070
    48
1040
127.6574633589698
1070
    49
1040
12.5
1070
    50
1070
     1
1040
0.0
1000
ACAD_MTEXT_COLUMN_INFO_END
  0
MTEXT
  5
B7F
330
1F
100
AcDbEntity
  8
寸法線
100
AcDbMText
 10
34238.19917601458
 20
29557.16080846719
 30
0.0
 40
12.0
 41
177.2417588968819
 46
0.0
 71
     1
 72
     5
  1
{\fMS PGothic|b0|i0|c128|p50;絶縁ブッシング}
 73
     1
 44
1.0
1001
ACAD
1000
ACAD_MTEXT_COLUMN_INFO_BEGIN
1070
    75
1070
     2
1070
    79
1070
     0
1070
    76
1070
     1
1070
    78
1070
     0
1070
    48
1040
177.2417588968819
1070
    49
1040
12.5
1070
    50
1070
     1
1040
0.0
1000
ACAD_MTEXT_COLUMN_INFO_END
  0
MTEXT
  5
B80
330
1F
100
AcDbEntity
  8
寸法線
100
AcDbMText
 10
34467.06484389259
 20
29563.344556653
 30
0.0
 40
10.0
 41
112.0581813088574
 46
0.0
 71
     1
 72
     5
  1
P.P{\fMS PGothic|b0|i0|c128|p50;樹脂}
 73
     1
 44
1.0
1001
ACAD
1000
ACAD_MTEXT_COLUMN_INFO_BEGIN
1070
    75
1070
     2
1070
    79
1070
     0
1070
    76
1070
     1
1070
    78
1070
     0
1070
    48
1040
112.0581813088574
1070
    49
1040
12.5
1070
    50
1070
     1
1040
0.0
1000
ACAD_MTEXT_COLUMN_INFO_END
  0
MTEXT
  5
B81
330
1F
100
AcDbEntity
  8
寸法線
100
AcDbMText
 10
34235.8797623135
 20
29515.25266188939
 30
0.0
 40
12.0
 41
209.7639475286996
 46
0.0
 71
     1
 72
     5
  1
{\fMS PGothic|b0|i0|c128|p50;ランプソケット（固定側）}
 73
     1
 44
1.0
1001
ACAD
1000
ACAD_MTEXT_COLUMN_INFO_BEGIN
1070
    75
1070
     2
1070
    79
1070
     0
1070
    76
1070
     1
1070
    78
1070
     0
1070
    48
1040
209.7639475286996
1070
    49
1040
12.5
1070
    50
1070
     1
1040
0.0
1000
ACAD_MTEXT_COLUMN_INFO_END
  0
MTEXT
  5
B82
330
1F
100
AcDbEntity
  8
寸法線
100
AcDbMText
 10
34465.51858971544
 20
29518.34457732385
 30
0.0
 40
10.0
 41
114.358547341013
 46
0.0
 71
     1
 72
     5
  1
{\fMS PGothic|b0|i0|c128|p50;P.P樹脂\P黄銅}
 73
     1
 44
1.0
1001
ACAD
1000
ACAD_MTEXT_COLUMN_INFO_BEGIN
1070
    75
1070
     2
1070
    79
1070
     0
1070
    76
1070
     1
1070
    78
1070
     0
1070
    48
1040
114.358547341013
1070
    49
1040
12.5
1070
    50
1070
     1
1040
0.0
1000
ACAD_MTEXT_COLUMN_INFO_END
  0
MTEXT
  5
B83
330
1F
100
AcDbEntity
  8
寸法線
100
AcDbMText
 10
34238.19917601458
 20
29469.47971920457
 30
0.0
 40
12.0
 41
210.5417588968994
 46
0.0
 71
     1
 72
     5
  1
{\fMS PGothic|b0|i0|c128|p50;ランプソケット（スプリング側）}
 73
     1
 44
1.0
1001
ACAD
1000
ACAD_MTEXT_COLUMN_INFO_BEGIN
1070
    75
1070
     2
1070
    79
1070
     0
1070
    76
1070
     1
1070
    78
1070
     0
1070
    48
1040
210.5417588968994
1070
    49
1040
12.5
1070
    50
1070
     1
1040
0.0
1000
ACAD_MTEXT_COLUMN_INFO_END
  0
MTEXT
  5
B84
330
1F
100
AcDbEntity
  8
寸法線
100
AcDbMText
 10
34461.65288940209
 20
29474.11754067941
 30
0.0
 40
10.0
 41
140.8380455093865
 46
0.0
 71
     1
 72
     5
  1
P.P{\fMS PGothic|b0|i0|c128|p50;樹脂}\P{\fMS PGothic|b0|i0|c128|p50;黄銅}
 73
     1
 44
1.0
1001
ACAD
1000
ACAD_MTEXT_COLUMN_INFO_BEGIN
1070
    75
1070
     2
1070
    79
1070
     0
1070
    76
1070
     1
1070
    78
1070
     0
1070
    48
1040
140.8380455093865
1070
    49
1040
12.5
1070
    50
1070
     1
1040
0.0
1000
ACAD_MTEXT_COLUMN_INFO_END
  0
MTEXT
  5
B85
330
1F
100
AcDbEntity
  8
寸法線
100
AcDbMText
 10
34846.56983595912
 20
29649.37243782744
 30
0.0
 40
12.0
 41
181.3710989523388
 46
0.0
 71
     1
 72
     5
  1
{\fMS PGothic|b0|i0|c128|p50;専用電源装置}
 73
     1
 44
1.0
1001
ACAD
1000
ACAD_MTEXT_COLUMN_INFO_BEGIN
1070
    75
1070
     2
1070
    79
1070
     0
1070
    76
1070
     1
1070
    78
1070
     0
1070
    48
1040
181.3710989523388
1070
    49
1040
12.5
1070
    50
1070
     1
1040
0.0
1000
ACAD_MTEXT_COLUMN_INFO_END
  0
MTEXT
  5
B86
330
1F
100
AcDbEntity
  8
寸法線
100
AcDbMText
 10
35215.80145399616
 20
29649.42136557688
 30
0.0
 40
8.0
 41
162.8281777420561
 46
0.0
 71
     1
 72
     5
  1
{\fMS PGothic|b0|i0|c128|p50;レシップ製定電流電源装置}\PK68-026C110-206
 73
     1
 44
1.0
1001
ACAD
1000
ACAD_MTEXT_COLUMN_INFO_BEGIN
1070
    75
1070
     2
1070
    79
1070
     0
1070
    76
1070
     1
1070
    78
1070
     0
1070
    48
1040
162.8281777420561
1070
    49
1040
12.5
1070
    50
1070
     1
1040
0.0
1000
ACAD_MTEXT_COLUMN_INFO_END
  0
LINE
  5
B87
330
1F
100
AcDbEntity
  8
外形線
100
AcDbLine
 10
33316.24093491148
 20
29774.23237812787
 30
0.0
 11
33316.24093491148
 21
28289.23237812787
 31
0.0
  0
LINE
  5
B88
330
1F
100
AcDbEntity
  8
外形線
100
AcDbLine
 10
33316.24093491148
 20
28289.23237812787
 30
0.0
 11
35416.24093491148
 21
28289.23237812787
 31
0.0
  0
LINE
  5
B89
330
1F
100
AcDbEntity
  8
外形線
100
AcDbLine
 10
35416.24093491148
 20
28289.23237812787
 30
0.0
 11
35416.24093491148
 21
29774.23237812787
 31
0.0
  0
LINE
  5
B8A
330
1F
100
AcDbEntity
  8
外形線
100
AcDbLine
 10
35416.24093491148
 20
29774.23237812787
 30
0.0
 11
33316.24093491148
 21
29774.23237812787
 31
0.0
  0
XLINE
  5
C17
330
1F
100
AcDbEntity
  8
オフセット
100
AcDbXline
 10
32915.44093491146
 20
29033.35326060758
 30
0.0
 11
-1.0
 21
0.0
 31
0.0
  0
XLINE
  5
C18
330
1F
100
AcDbEntity
  8
オフセット
100
AcDbXline
 10
32915.44093491146
 20
29197.60326060758
 30
0.0
 11
-1.0
 21
0.0
 31
0.0
  0
XLINE
  5
C19
330
1F
100
AcDbEntity
  8
オフセット
100
AcDbXline
 10
33489.19848660889
 20
27902.11527306976
 30
0.0
 11
0.0
 21
-1.0
 31
0.0
  0
XLINE
  5
C1A
330
1F
100
AcDbEntity
  8
オフセット
100
AcDbXline
 10
34731.19848660889
 20
27902.11527306976
 30
0.0
 11
0.0
 21
-1.0
 31
0.0
  0
XLINE
  5
C1B
330
1F
100
AcDbEntity
  8
オフセット
100
AcDbXline
 10
34751.19848660889
 20
27902.11527306976
 30
0.0
 11
0.0
 21
-1.0
 31
0.0
  0
XLINE
  5
C1C
330
1F
100
AcDbEntity
  8
オフセット
100
AcDbXline
 10
33469.19848660889
 20
27902.11527306976
 30
0.0
 11
0.0
 21
-1.0
 31
0.0
  0
LINE
  5
C1D
330
1F
100
AcDbEntity
  8
中心線
100
AcDbLine
 10
33469.19848660889
 20
29197.60326060758
 30
0.0
 11
34751.19848660889
 21
29197.60326060758
 31
0.0
  0
XLINE
  5
C1E
330
1F
100
AcDbEntity
  8
オフセット
100
AcDbXline
 10
35007.19848660889
 20
27902.11527306976
 30
0.0
 11
0.0
 21
-1.0
 31
0.0
  0
XLINE
  5
C1F
330
1F
100
AcDbEntity
  8
オフセット
100
AcDbXline
 10
35017.19848660889
 20
27902.11527306976
 30
0.0
 11
0.0
 21
-1.0
 31
0.0
  0
LINE
  5
C20
102
{ACAD_REACTORS
330
CD1
102
}
330
1F
100
AcDbEntity
  8
中心線
100
AcDbLine
 10
33469.19848660889
 20
29033.35326060758
 30
0.0
 11
35017.19848660889
 21
29033.35326060758
 31
0.0
  0
XLINE
  5
C21
330
1F
100
AcDbEntity
  8
オフセット
100
AcDbXline
 10
34990.19848660889
 20
27902.11527306976
 30
0.0
 11
0.0
 21
-1.0
 31
0.0
  0
XLINE
  5
C22
102
{ACAD_REACTORS
330
CB9
102
}
330
1F
100
AcDbEntity
  8
オフセット
100
AcDbXline
 10
32915.44093491146
 20
29049.60326060757
 30
0.0
 11
-1.0
 21
0.0
 31
0.0
  0
XLINE
  5
C23
330
1F
100
AcDbEntity
  8
オフセット
100
AcDbXline
 10
32915.44093491146
 20
29059.60326060758
 30
0.0
 11
-1.0
 21
0.0
 31
0.0
  0
XLINE
  5
C24
330
1F
100
AcDbEntity
  8
オフセット
100
AcDbXline
 10
32915.44093491146
 20
28972.60326060758
 30
0.0
 11
-1.0
 21
0.0
 31
0.0
  0
XLINE
  5
C25
330
1F
100
AcDbEntity
  8
オフセット
100
AcDbXline
 10
32915.44093491146
 20
28962.60326060758
 30
0.0
 11
-1.0
 21
0.0
 31
0.0
  0
LINE
  5
C26
102
{ACAD_REACTORS
330
C9F
330
CB9
102
}
330
1F
100
AcDbEntity
  8
中心線
100
AcDbLine
 10
34990.19848660889
 20
29059.60326060758
 30
0.0
 11
34990.19848660889
 21
28962.60326060758
 31
0.0
  0
XLINE
  5
C27
330
1F
100
AcDbEntity
  8
オフセット
100
AcDbXline
 10
32915.44093491146
 20
29144.60326060757
 30
0.0
 11
-1.0
 21
0.0
 31
0.0
  0
XLINE
  5
C28
330
1F
100
AcDbEntity
  8
オフセット
100
AcDbXline
 10
33841.62073169311
 20
27902.11527306976
 30
0.0
 11
0.0
 21
-1.0
 31
0.0
  0
XLINE
  5
C29
330
1F
100
AcDbEntity
  8
オフセット
100
AcDbXline
 10
33684.48383753053
 20
27902.11527306976
 30
0.0
 11
0.0
 21
-1.0
 31
0.0
  0
XLINE
  5
C2A
330
1F
100
AcDbEntity
  8
オフセット
100
AcDbXline
 10
33618.46775128597
 20
27902.11527306976
 30
0.0
 11
0.0
 21
-1.0
 31
0.0
  0
XLINE
  5
C2B
330
1F
100
AcDbEntity
  8
オフセット
100
AcDbXline
 10
33429.71752995483
 20
27902.11527306976
 30
0.0
 11
0.0
 21
-1.0
 31
0.0
  0
CIRCLE
  5
C2F
330
1F
100
AcDbEntity
  8
○
100
AcDbCircle
 10
33429.71752995483
 20
29144.60326060757
 30
0.0
 40
15.0
  0
MTEXT
  5
C33
330
1F
100
AcDbEntity
  8
寸法線
100
AcDbMText
 10
33423.22470149311
 20
29154.34711109858
 30
0.0
 40
20.0
 41
35.534113038535
 46
0.0
 71
     1
 72
     5
  1
4
 73
     1
 44
1.0
1001
ACAD
1000
ACAD_MTEXT_COLUMN_INFO_BEGIN
1070
    75
1070
     2
1070
    79
1070
     0
1070
    76
1070
     1
1070
    78
1070
     0
1070
    48
1040
35.534113038535
1070
    49
1040
12.5
1070
    50
1070
     1
1040
0.0
1000
ACAD_MTEXT_COLUMN_INFO_END
  0
CIRCLE
  5
C34
330
1F
100
AcDbEntity
  8
○
100
AcDbCircle
 10
33489.19848660889
 20
29144.60326060757
 30
0.0
 40
15.0
  0
MTEXT
  5
C35
330
1F
100
AcDbEntity
  8
寸法線
100
AcDbMText
 10
33482.70565814717
 20
29154.34711109858
 30
0.0
 40
20.0
 41
35.534113038535
 46
0.0
 71
     1
 72
     5
  1
3
 73
     1
 44
1.0
1001
ACAD
1000
ACAD_MTEXT_COLUMN_INFO_BEGIN
1070
    75
1070
     2
1070
    79
1070
     0
1070
    76
1070
     1
1070
    78
1070
     0
1070
    48
1040
35.534113038535
1070
    49
1040
12.5
1070
    50
1070
     1
1040
0.0
1000
ACAD_MTEXT_COLUMN_INFO_END
  0
CIRCLE
  5
C36
330
1F
100
AcDbEntity
  8
○
100
AcDbCircle
 10
33618.46775128597
 20
29144.60326060757
 30
0.0
 40
15.0
  0
MTEXT
  5
C37
330
1F
100
AcDbEntity
  8
寸法線
100
AcDbMText
 10
33611.97492282425
 20
29154.34711109858
 30
0.0
 40
20.0
 41
35.534113038535
 46
0.0
 71
     1
 72
     5
  1
1
 73
     1
 44
1.0
1001
ACAD
1000
ACAD_MTEXT_COLUMN_INFO_BEGIN
1070
    75
1070
     2
1070
    79
1070
     0
1070
    76
1070
     1
1070
    78
1070
     0
1070
    48
1040
35.534113038535
1070
    49
1040
12.5
1070
    50
1070
     1
1040
0.0
1000
ACAD_MTEXT_COLUMN_INFO_END
  0
CIRCLE
  5
C38
330
1F
100
AcDbEntity
  8
○
100
AcDbCircle
 10
33684.48383753053
 20
29144.60326060757
 30
0.0
 40
15.0
  0
MTEXT
  5
C39
330
1F
100
AcDbEntity
  8
寸法線
100
AcDbMText
 10
33677.99100906881
 20
29154.34711109858
 30
0.0
 40
20.0
 41
35.534113038535
 46
0.0
 71
     1
 72
     5
  1
7
 73
     1
 44
1.0
1001
ACAD
1000
ACAD_MTEXT_COLUMN_INFO_BEGIN
1070
    75
1070
     2
1070
    79
1070
     0
1070
    76
1070
     1
1070
    78
1070
     0
1070
    48
1040
35.534113038535
1070
    49
1040
12.5
1070
    50
1070
     1
1040
0.0
1000
ACAD_MTEXT_COLUMN_INFO_END
  0
CIRCLE
  5
C3A
330
1F
100
AcDbEntity
  8
○
100
AcDbCircle
 10
33841.62073169311
 20
29144.60326060757
 30
0.0
 40
15.0
  0
MTEXT
  5
C3B
330
1F
100
AcDbEntity
  8
寸法線
100
AcDbMText
 10
33835.12790323139
 20
29154.34711109858
 30
0.0
 40
20.0
 41
35.534113038535
 46
0.0
 71
     1
 72
     5
  1
6
 73
     1
 44
1.0
1001
ACAD
1000
ACAD_MTEXT_COLUMN_INFO_BEGIN
1070
    75
1070
     2
1070
    79
1070
     0
1070
    76
1070
     1
1070
    78
1070
     0
1070
    48
1040
35.534113038535
1070
    49
1040
12.5
1070
    50
1070
     1
1040
0.0
1000
ACAD_MTEXT_COLUMN_INFO_END
  0
CIRCLE
  5
C3C
330
1F
100
AcDbEntity
  8
○
100
AcDbCircle
 10
34697.18306244761
 20
29144.60326060757
 30
0.0
 40
15.0
  0
MTEXT
  5
C3D
330
1F
100
AcDbEntity
  8
寸法線
100
AcDbMText
 10
34690.69023398589
 20
29154.34711109858
 30
0.0
 40
20.0
 41
35.534113038535
 46
0.0
 71
     1
 72
     5
  1
5
 73
     1
 44
1.0
1001
ACAD
1000
ACAD_MTEXT_COLUMN_INFO_BEGIN
1070
    75
1070
     2
1070
    79
1070
     0
1070
    76
1070
     1
1070
    78
1070
     0
1070
    48
1040
35.534113038535
1070
    49
1040
12.5
1070
    50
1070
     1
1040
0.0
1000
ACAD_MTEXT_COLUMN_INFO_END
  0
MTEXT
  5
C3E
330
1F
100
AcDbEntity
  8
寸法線
100
AcDbMText
 10
34845.70906877174
 20
29604.15799909807
 30
0.0
 40
12.0
 41
199.244644231323
 46
0.0
 71
     1
 72
     5
  1
{\fMS PGothic|b0|i0|c128|p50;電源用　アース付端子台}
 73
     1
 44
1.0
1001
ACAD
1000
ACAD_MTEXT_COLUMN_INFO_BEGIN
1070
    75
1070
     2
1070
    79
1070
     0
1070
    76
1070
     1
1070
    78
1070
     0
1070
    48
1040
199.244644231323
1070
    49
1040
12.5
1070
    50
1070
     1
1040
0.0
1000
ACAD_MTEXT_COLUMN_INFO_END
  0
XLINE
  5
C42
330
1F
100
AcDbEntity
  8
オフセット
100
AcDbXline
 10
32915.44093491146
 20
29149.60326060758
 30
0.0
 11
-1.0
 21
0.0
 31
0.0
  0
XLINE
  5
C43
330
1F
100
AcDbEntity
  8
オフセット
100
AcDbXline
 10
32915.44093491146
 20
29134.60326060758
 30
0.0
 11
-1.0
 21
0.0
 31
0.0
  0
XLINE
  5
C44
330
1F
100
AcDbEntity
  8
オフセット
100
AcDbXline
 10
32915.44093491146
 20
29154.60326060757
 30
0.0
 11
-1.0
 21
0.0
 31
0.0
  0
LINE
  5
C45
330
1F
100
AcDbEntity
  8
○
100
AcDbLine
 10
33629.64809117347
 20
29154.60326060757
 30
0.0
 11
33652.39866121861
 21
29192.0973968102
 31
0.0
  0
LINE
  5
C46
330
1F
100
AcDbEntity
  8
○
100
AcDbLine
 10
33629.64809117347
 20
29134.60326060758
 30
0.0
 11
33684.48383753053
 21
29003.6399677978
 31
0.0
  0
LINE
  5
C47
330
1F
100
AcDbEntity
  8
○
100
AcDbLine
 10
33695.66417741803
 20
29154.60326060757
 30
0.0
 11
33723.32803836906
 21
29181.86683463525
 31
0.0
  0
LINE
  5
C48
330
1F
100
AcDbEntity
  8
○
100
AcDbLine
 10
33695.66417741803
 20
29134.60326060758
 30
0.0
 11
33748.73230301891
 21
28994.76414413989
 31
0.0
  0
LINE
  5
C49
330
1F
100
AcDbEntity
  8
○
100
AcDbLine
 10
33852.80107158061
 20
29154.60326060757
 30
0.0
 11
33896.82770206472
 21
29183.54863101603
 31
0.0
  0
LINE
  5
C4A
330
1F
100
AcDbEntity
  8
○
100
AcDbLine
 10
33852.80107158061
 20
29134.60326060758
 30
0.0
 11
33926.06040729126
 21
28984.56747924054
 31
0.0
  0
LINE
  5
C4B
330
1F
100
AcDbEntity
  8
○
100
AcDbLine
 10
33500.37882649639
 20
29154.60326060757
 30
0.0
 11
33536.28609463446
 21
29193.82108174932
 31
0.0
  0
LINE
  5
C4C
330
1F
100
AcDbEntity
  8
○
100
AcDbLine
 10
33500.37882649639
 20
29134.60326060758
 30
0.0
 11
33534.52016860735
 21
28995.770768236
 31
0.0
  0
LINE
  5
C4D
330
1F
100
AcDbEntity
  8
○
100
AcDbLine
 10
33440.89786984232
 20
29154.60326060757
 30
0.0
 11
33495.9487299814
 21
29194.77524768616
 31
0.0
  0
LINE
  5
C4E
330
1F
100
AcDbEntity
  8
○
100
AcDbLine
 10
33440.89786984232
 20
29134.60326060758
 30
0.0
 11
33498.20879001277
 21
29029.09451676653
 31
0.0
  0
LINE
  5
C4F
330
1F
100
AcDbEntity
  8
○
100
AcDbLine
 10
34708.36340233511
 20
29154.60326060757
 30
0.0
 11
34721.00681037261
 21
29190.0911441816
 31
0.0
  0
LINE
  5
C50
330
1F
100
AcDbEntity
  8
○
100
AcDbLine
 10
34708.36340233511
 20
29134.60326060758
 30
0.0
 11
34722.64977325754
 21
29040.83472800807
 31
0.0
  0
DIMENSION
  5
C54
102
{ACAD_XDICTIONARY
360
C62
102
}
102
{ACAD_REACTORS
330
C6D
102
}
330
1F
100
AcDbEntity
  8
寸法線
100
AcDbDimension
280
     0
  2
*D4
 10
34842.04634583286
 20
28972.60326060758
 30
0.0
 11
34831.20988607842
 21
28954.90800139885
 31
0.0
 70
    32
 71
     5
 42
25.0
 73
     0
 74
     0
 75
     0
  3
ISO-25
100
AcDbAlignedDimension
 13
34730.19848660889
 23
28997.60326060757
 33
0.0
 14
34016.99848660889
 24
28972.60326060758
 34
0.0
 50
90.0
100
AcDbRotatedDimension
  0
DIMENSION
  5
C6E
102
{ACAD_XDICTIONARY
360
C7B
102
}
102
{ACAD_REACTORS
330
C85
102
}
330
1F
100
AcDbEntity
  8
寸法線
100
AcDbDimension
280
     0
  2
*D5
 10
35011.19848660888
 20
29116.57041093495
 30
0.0
 11
34988.69848660888
 21
29127.36594299497
 31
0.0
 70
    32
 71
     5
 42
45.0
 73
     0
 74
     0
 75
     0
  3
ISO-25
100
AcDbAlignedDimension
 13
34966.19848660889
 23
28997.10326060758
 33
0.0
 14
35011.19848660888
 24
28997.10326060758
 34
0.0
100
AcDbRotatedDimension
  0
DIMENSION
  5
C86
102
{ACAD_XDICTIONARY
360
C94
102
}
102
{ACAD_REACTORS
330
C9F
102
}
330
1F
100
AcDbEntity
  8
寸法線
100
AcDbDimension
280
     0
  2
*D6
 10
34966.19848660889
 20
29089.74448836116
 30
0.0
 11
34948.61918920097
 21
29100.41041605557
 31
0.0
 70
    32
 71
     5
 42
24.00000000000728
 73
     0
 74
     0
 75
     0
  3
ISO-25
100
AcDbAlignedDimension
 13
34990.19848660889
 23
29059.60326060758
 33
0.0
 14
34966.19848660889
 24
29059.60326060758
 34
0.0
100
AcDbRotatedDimension
  0
DIMENSION
  5
CA0
102
{ACAD_XDICTIONARY
360
CAE
102
}
102
{ACAD_REACTORS
330
CB9
102
}
330
1F
100
AcDbEntity
  8
寸法線
100
AcDbDimension
280
     0
  2
*D7
 10
35011.19848660888
 20
29089.74448836116
 30
0.0
 11
35026.88828879169
 21
29100.41041605557
 31
0.0
 70
    32
 71
     5
 42
20.99999999999273
 73
     0
 74
     0
 75
     0
  3
ISO-25
100
AcDbAlignedDimension
 13
34990.19848660889
 23
29049.60326060757
 33
0.0
 14
35011.19848660888
 24
29049.60326060757
 34
0.0
100
AcDbRotatedDimension
  0
DIMENSION
  5
CBA
102
{ACAD_XDICTIONARY
360
CC7
102
}
102
{ACAD_REACTORS
330
CD1
102
}
330
1F
100
AcDbEntity
  8
寸法線
100
AcDbDimension
280
     0
  2
*D8
 10
35006.19848660888
 20
29062.19112177846
 30
0.0
 11
34990.19848660888
 21
29073.03440281529
 31
0.0
 70
    32
 71
     5
 42
31.99999999998545
 73
     0
 74
     0
 75
     0
  3
ISO-25
100
AcDbAlignedDimension
 13
34974.19848660889
 23
29033.35326060758
 33
0.0
 14
35006.19848660888
 24
29033.35326060758
 34
0.0
100
AcDbRotatedDimension
  0
DIMENSION
  5
CD2
102
{ACAD_XDICTIONARY
360
CDF
102
}
102
{ACAD_REACTORS
330
CE9
102
}
330
1F
100
AcDbEntity
  8
寸法線
100
AcDbDimension
280
     0
  2
*D9
 10
34918.17343082849
 20
28972.60326060758
 30
0.0
 11
34907.54843082849
 21
29011.10326060758
 31
0.0
 70
    32
 71
     5
 42
77.0
 73
     0
 74
     0
 75
     0
  3
ISO-25
100
AcDbAlignedDimension
 13
34990.19848660888
 23
29049.60326060757
 33
0.0
 14
34990.19848660889
 24
28972.60326060758
 34
0.0
 50
90.0
100
AcDbRotatedDimension
  0
TEXT
  5
D49
330
1F
100
AcDbEntity
  8
1
 62
     3
100
AcDbText
 10
33889.69303976168
 20
28708.4526913164
 30
0.0
 40
16.875
  1
１．左記の様にランプをセットしてください
 41
0.6666666666670002
  7
BIGFONT
100
AcDbText
  0
TEXT
  5
D4A
330
1F
100
AcDbEntity
  8
1
 62
     3
100
AcDbText
 10
33911.79142843355
 20
28683.4081559974
 30
0.0
 40
16.875
  1
器具側の電極はスプリングソケット側になっています。
 41
0.6666666666670002
  7
BIGFONT
100
AcDbText
  0
TEXT
  5
D4B
330
1F
100
AcDbEntity
  8
1
 62
     3
100
AcDbText
 10
33912.52751241792
 20
28659.83637865364
 30
0.0
 40
16.875
  1
ランプの電極はマーク（シール）側になっています。
 41
0.6666666666670002
  7
BIGFONT
100
AcDbText
  0
TEXT
  5
D4C
330
1F
100
AcDbEntity
  8
1
 62
     3
100
AcDbText
 10
33912.52751241792
 20
28637.00190599739
 30
0.0
 40
16.875
  1
セット方向はランプはマーク（シール）が正面方向を
 41
0.6666666666670002
  7
BIGFONT
100
AcDbText
  0
TEXT
  5
D4D
330
1F
100
AcDbEntity
  8
1
 62
     3
100
AcDbText
 10
33892.38509705334
 20
28577.51578132291
 30
0.0
 40
16.875
  1
２．精密部品を使用しておりますので衝撃等を与えますと
 41
0.6666666666670002
  7
BIGFONT
100
AcDbText
  0
TEXT
  5
D4E
330
1F
100
AcDbEntity
  8
1
 62
     3
100
AcDbText
 10
33915.95687439709
 20
28553.20726895312
 30
0.0
 40
16.875
  1
誤動作もしくは不点の恐れがあります。
 41
0.6666666666670002
  7
BIGFONT
100
AcDbText
  0
TEXT
  5
D4F
330
1F
100
AcDbEntity
  8
1
 62
     3
100
AcDbText
 10
33891.64901306897
 20
28520.06029629687
 30
0.0
 40
16.875
  1
３．この製品は定電流式２４Ｖ仕様です。
 41
0.6666666666670002
  7
BIGFONT
100
AcDbText
  0
TEXT
  5
D50
330
1F
100
AcDbEntity
  8
1
 62
     3
100
AcDbText
 10
33913.01009705334
 20
28495.01575080533
 30
0.0
 40
16.875
  1
必ず専用のランプと安定器のセットでご使用下さい。
 41
0.6666666666670002
  7
BIGFONT
100
AcDbText
  0
TEXT
  5
D51
330
1F
100
AcDbEntity
  8
1
 62
     3
100
AcDbText
 10
33913.55469340751
 20
28613.96569180468
 30
0.0
 40
16.875
  1
向く様にして下さい。
 41
0.6666666666670002
  7
BIGFONT
100
AcDbText
  0
TEXT
  5
D52
330
1F
100
AcDbEntity
  8
1
 62
     3
100
AcDbText
 10
33549.91667257417
 20
28701.39177823046
 30
0.0
 40
15.0
  1
取扱い説明及び注意事項
 41
0.6666666666670002
  7
BIGFONT
100
AcDbText
  0
LINE
  5
D53
330
1F
100
AcDbEntity
  8
1
  6
Continuous
 62
     3
100
AcDbLine
 10
33708.74409083302
 20
28648.11793598234
 30
0.0
 11
33708.74409083302
 21
28629.36793598234
 31
0.0
  0
LINE
  5
D54
330
1F
100
AcDbEntity
  8
1
  6
Continuous
 62
     3
100
AcDbLine
 10
33708.74409083302
 20
28629.36793598234
 30
0.0
 11
33525.08337654731
 21
28629.36793598234
 31
0.0
  0
LINE
  5
D55
330
1F
100
AcDbEntity
  8
1
  6
Continuous
 62
     3
100
AcDbLine
 10
33525.08337654731
 20
28629.36793598234
 30
0.0
 11
33521.24409083303
 21
28629.36793598234
 31
0.0
  0
LINE
  5
D56
330
1F
100
AcDbEntity
  8
1
  6
Continuous
 62
     3
100
AcDbLine
 10
33521.24409083303
 20
28629.36793598234
 30
0.0
 11
33521.24409083303
 21
28648.11793598234
 31
0.0
  0
LINE
  5
D57
330
1F
100
AcDbEntity
  8
1
  6
Continuous
 62
     3
100
AcDbLine
 10
33521.24409083303
 20
28648.11793598234
 30
0.0
 11
33708.74409083302
 21
28648.11793598234
 31
0.0
  0
LINE
  5
D58
330
1F
100
AcDbEntity
  8
1
  6
Continuous
 62
     3
100
AcDbLine
 10
33708.74409083302
 20
28648.11793598234
 30
0.0
 11
33714.36909083302
 21
28648.11793598234
 31
0.0
  0
LINE
  5
D59
330
1F
100
AcDbEntity
  8
1
  6
Continuous
 62
     3
100
AcDbLine
 10
33714.36909083302
 20
28648.11793598234
 30
0.0
 11
33714.36909083302
 21
28629.36793598234
 31
0.0
  0
LINE
  5
D5A
330
1F
100
AcDbEntity
  8
1
  6
Continuous
 62
     3
100
AcDbLine
 10
33714.36909083302
 20
28629.36793598234
 30
0.0
 11
33708.74409083302
 21
28629.36793598234
 31
0.0
  0
LINE
  5
D5B
330
1F
100
AcDbEntity
  8
1
  6
Continuous
 62
     3
100
AcDbLine
 10
33521.24409083303
 20
28648.11793598234
 30
0.0
 11
33515.61909083303
 21
28648.11793598234
 31
0.0
  0
LINE
  5
D5C
330
1F
100
AcDbEntity
  8
1
  6
Continuous
 62
     3
100
AcDbLine
 10
33515.61909083303
 20
28648.11793598234
 30
0.0
 11
33515.61909083303
 21
28629.36793598234
 31
0.0
  0
LINE
  5
D5D
330
1F
100
AcDbEntity
  8
1
  6
Continuous
 62
     3
100
AcDbLine
 10
33515.61909083303
 20
28629.36793598234
 30
0.0
 11
33521.24409083303
 21
28629.36793598234
 31
0.0
  0
LINE
  5
D5E
330
1F
100
AcDbEntity
  8
1
  6
Continuous
 62
     3
100
AcDbLine
 10
33515.61909083303
 20
28642.49293598234
 30
0.0
 11
33509.99409083303
 21
28642.49293598234
 31
0.0
  0
LINE
  5
D5F
330
1F
100
AcDbEntity
  8
1
  6
Continuous
 62
     3
100
AcDbLine
 10
33515.61909083303
 20
28634.99293598234
 30
0.0
 11
33509.99409083303
 21
28634.99293598234
 31
0.0
  0
LINE
  5
D60
330
1F
100
AcDbEntity
  8
1
  6
Continuous
 62
     3
100
AcDbLine
 10
33714.36909083302
 20
28642.49293598234
 30
0.0
 11
33719.99409083302
 21
28642.49293598234
 31
0.0
  0
LINE
  5
D61
330
1F
100
AcDbEntity
  8
1
  6
Continuous
 62
     3
100
AcDbLine
 10
33714.36909083302
 20
28634.99293598234
 30
0.0
 11
33719.99409083302
 21
28634.99293598234
 31
0.0
  0
LINE
  5
D62
330
1F
100
AcDbEntity
  8
1
  6
Continuous
 62
     3
100
AcDbLine
 10
33747.71730511874
 20
28642.49293598234
 30
0.0
 11
33794.59230511874
 21
28642.49293598234
 31
0.0
  0
LINE
  5
D63
330
1F
100
AcDbEntity
  8
1
  6
Continuous
 62
     3
100
AcDbLine
 10
33794.59230511874
 20
28642.49293598234
 30
0.0
 11
33794.59230511874
 21
28574.01079312519
 31
0.0
  0
LINE
  5
D64
330
1F
100
AcDbEntity
  8
1
  6
Continuous
 62
     3
100
AcDbLine
 10
33794.59230511874
 20
28574.01079312519
 30
0.0
 11
33659.14587654731
 21
28574.01079312519
 31
0.0
  0
LINE
  5
D65
330
1F
100
AcDbEntity
  8
1
  6
Continuous
 62
     3
100
AcDbLine
 10
33747.71730511874
 20
28634.99293598234
 30
0.0
 11
33775.84230511874
 21
28634.99293598234
 31
0.0
  0
LINE
  5
D66
330
1F
100
AcDbEntity
  8
1
  6
Continuous
 62
     3
100
AcDbLine
 10
33775.84230511874
 20
28634.99293598234
 30
0.0
 11
33775.84230511874
 21
28581.51079312519
 31
0.0
  0
LINE
  5
D67
330
1F
100
AcDbEntity
  8
1
  6
Continuous
 62
     3
100
AcDbLine
 10
33775.84230511874
 20
28581.51079312519
 30
0.0
 11
33659.14587654731
 21
28581.51079312519
 31
0.0
  0
LINE
  5
D68
330
1F
100
AcDbEntity
  8
1
  6
Continuous
 62
     3
100
AcDbLine
 10
33659.14587654731
 20
28587.13579312519
 30
0.0
 11
33659.14587654731
 21
28568.38579312519
 31
0.0
  0
LINE
  5
D69
330
1F
100
AcDbEntity
  8
1
  6
Continuous
 62
     3
100
AcDbLine
 10
33659.14587654731
 20
28568.38579312519
 30
0.0
 11
33584.14587654731
 21
28568.38579312519
 31
0.0
  0
LINE
  5
D6A
330
1F
100
AcDbEntity
  8
1
  6
Continuous
 62
     3
100
AcDbLine
 10
33584.14587654731
 20
28568.38579312519
 30
0.0
 11
33584.14587654731
 21
28587.13579312519
 31
0.0
  0
LINE
  5
D6B
330
1F
100
AcDbEntity
  8
1
  6
Continuous
 62
     3
100
AcDbLine
 10
33584.14587654731
 20
28587.13579312519
 30
0.0
 11
33659.14587654731
 21
28587.13579312519
 31
0.0
  0
LINE
  5
D6C
330
1F
100
AcDbEntity
  8
1
  6
Continuous
 62
     3
100
AcDbLine
 10
33587.61313845207
 20
28568.38579312519
 30
0.0
 11
33587.61313845207
 21
28549.63579312519
 31
0.0
  0
LINE
  5
D6D
330
1F
100
AcDbEntity
  8
1
  6
Continuous
 62
     3
100
AcDbLine
 10
33587.61313845207
 20
28549.63579312519
 30
0.0
 11
33528.05956702351
 21
28549.63579312519
 31
0.0
  0
TEXT
  5
D6E
330
1F
100
AcDbEntity
  8
1
 62
     3
100
AcDbText
 10
33677.75956808199
 20
28584.45173509895
 30
0.0
 40
9.333333333333332
  1
赤
 41
0.6666666666670002
  7
BIGFONT
100
AcDbText
  0
TEXT
  5
D6F
330
1F
100
AcDbEntity
  8
1
 62
     3
100
AcDbText
 10
33680.22870463798
 20
28557.29122281054
 30
0.0
 40
9.333333333333332
  1
白
 41
0.6666666666670002
  7
BIGFONT
100
AcDbText
  0
TEXT
  5
D70
330
1F
100
AcDbEntity
  8
1
 62
     3
100
AcDbText
 10
33750.59908631115
 20
28619.01960619271
 30
0.0
 40
9.333333333333332
  1
赤
 41
0.6666666666670002
  7
BIGFONT
100
AcDbText
  0
TEXT
  5
D71
330
1F
100
AcDbEntity
  8
1
 62
     3
100
AcDbText
 10
33750.59908631115
 20
28647.41466641406
 30
0.0
 40
9.333333333333332
  1
白
 41
0.6666666666670002
  7
BIGFONT
100
AcDbText
  0
LINE
  5
D72
330
1F
100
AcDbEntity
  8
1
  6
Continuous
 62
     3
100
AcDbLine
 10
33703.11909083302
 20
28642.49293598234
 30
0.0
 11
33703.11909083302
 21
28634.99293598234
 31
0.0
  0
LINE
  5
D73
330
1F
100
AcDbEntity
  8
1
  6
Continuous
 62
     3
100
AcDbLine
 10
33703.11909083302
 20
28634.99293598234
 30
0.0
 11
33684.36909083302
 21
28634.99293598234
 31
0.0
  0
LINE
  5
D74
330
1F
100
AcDbEntity
  8
1
  6
Continuous
 62
     3
100
AcDbLine
 10
33684.36909083302
 20
28634.99293598234
 30
0.0
 11
33684.36909083302
 21
28642.49293598234
 31
0.0
  0
LINE
  5
D75
330
1F
100
AcDbEntity
  8
1
  6
Continuous
 62
     3
100
AcDbLine
 10
33684.36909083302
 20
28642.49293598234
 30
0.0
 11
33703.11909083302
 21
28642.49293598234
 31
0.0
  0
TEXT
  5
D76
330
1F
100
AcDbEntity
  8
1
 62
     3
100
AcDbText
 10
33687.13690776298
 20
28635.2607764401
 30
0.0
 40
6.383917490641332
  1
マーク
 41
0.692308381786
  7
BIGFONT
100
AcDbText
  0
TEXT
  5
D77
330
1F
100
AcDbEntity
  8
1
 62
     3
100
AcDbText
 10
33543.44629497001
 20
28584.18940599739
 30
0.0
 40
9.333333333333332
  1
白
 41
0.6666666666670002
  7
BIGFONT
100
AcDbText
  0
TEXT
  5
D78
330
1F
100
AcDbEntity
  8
1
 62
     3
100
AcDbText
 10
33543.44629497001
 20
28561.27270881314
 30
0.0
 40
9.333333333333332
  1
黒
 41
0.6666666666670002
  7
BIGFONT
100
AcDbText
  0
TEXT
  5
D79
330
1F
100
AcDbEntity
  8
1
 62
     3
100
AcDbText
 10
33563.01335139494
 20
28550.84702246479
 30
0.0
 40
9.333333333333332
  1
アース
 41
0.6666666666670002
  7
BIGFONT
100
AcDbText
  0
TEXT
  5
D7A
330
1F
100
AcDbEntity
  8
1
 62
     3
100
AcDbText
 10
33568.98224467704
 20
28536.39173754036
 30
0.0
 40
9.333333333333332
  1
緑
 41
0.6666666666670002
  7
BIGFONT
100
AcDbText
  0
LINE
  5
D7B
330
1F
100
AcDbEntity
  8
1
  6
Continuous
 62
     3
100
AcDbLine
 10
33747.71730511874
 20
28648.11793598234
 30
0.0
 11
33747.71730511874
 21
28629.36793598234
 31
0.0
  0
LINE
  5
D7C
330
1F
100
AcDbEntity
  8
1
  6
Continuous
 62
     3
100
AcDbLine
 10
33747.71730511874
 20
28629.36793598234
 30
0.0
 11
33726.46730511874
 21
28629.36793598234
 31
0.0
  0
LINE
  5
D7D
330
1F
100
AcDbEntity
  8
1
  6
Continuous
 62
     3
100
AcDbLine
 10
33726.46730511874
 20
28629.36793598234
 30
0.0
 11
33726.46730511874
 21
28648.11793598234
 31
0.0
  0
LINE
  5
D7E
330
1F
100
AcDbEntity
  8
1
  6
Continuous
 62
     3
100
AcDbLine
 10
33726.46730511874
 20
28648.11793598234
 30
0.0
 11
33747.71730511874
 21
28648.11793598234
 31
0.0
  0
LINE
  5
D7F
330
1F
100
AcDbEntity
  8
1
  6
Continuous
 62
     3
100
AcDbLine
 10
33482.49776936666
 20
28629.36793598234
 30
0.0
 11
33482.49776936666
 21
28648.11793598234
 31
0.0
  0
TEXT
  5
D80
330
1F
100
AcDbEntity
  8
1
 62
     3
100
AcDbText
 10
33635.17283712496
 20
28657.52273933072
 30
0.0
 40
11.25
  1
防沫ソケット配線接続側
 41
0.6666666666670002
  7
BIGFONT
100
AcDbText
  0
LINE
  5
D81
330
1F
100
AcDbEntity
  8
1
  6
Continuous
 62
     3
100
AcDbLine
 10
33740.1726622616
 20
28648.11793598234
 30
0.0
 11
33735.76561097955
 21
28655.55841217281
 31
0.0
  0
LINE
  5
D82
330
1F
100
AcDbEntity
  8
1
  6
Continuous
 62
     3
100
AcDbLine
 10
33482.49776936666
 20
28642.49293598234
 30
0.0
 11
33468.70312650951
 21
28642.49293598234
 31
0.0
  0
LINE
  5
D83
330
1F
100
AcDbEntity
  8
1
  6
Continuous
 62
     3
100
AcDbLine
 10
33482.49776936666
 20
28634.99293598234
 30
0.0
 11
33468.70312650951
 21
28634.99293598234
 31
0.0
  0
LINE
  5
D84
330
1F
100
AcDbEntity
  8
1
  6
Continuous
 62
     3
100
AcDbLine
 10
33473.12276936666
 20
28646.55543598234
 30
0.0
 11
33465.75669793809
 21
28639.68043598234
 31
0.0
  0
LINE
  5
D85
330
1F
100
AcDbEntity
  8
1
  6
Continuous
 62
     3
100
AcDbLine
 10
33466.24776936666
 20
28647.04650741091
 30
0.0
 11
33473.12276936666
 21
28639.18936455377
 31
0.0
  0
LINE
  5
D86
330
1F
100
AcDbEntity
  8
1
  6
Continuous
 62
     3
100
AcDbLine
 10
33472.63169793809
 20
28638.20722169663
 30
0.0
 11
33465.75669793809
 21
28630.35007883948
 31
0.0
  0
LINE
  5
D87
330
1F
100
AcDbEntity
  8
1
  6
Continuous
 62
     3
100
AcDbLine
 10
33466.73884079523
 20
28637.71615026805
 30
0.0
 11
33471.15848365237
 21
28631.33222169663
 31
0.0
  0
TEXT
  5
D88
330
1F
100
AcDbEntity
  8
1
 62
     3
100
AcDbText
 10
33760.47563253511
 20
28617.78502774218
 30
0.0
 40
9.333333333333332
  1
＋
 41
0.6666666666670002
  7
BIGFONT
100
AcDbText
  0
TEXT
  5
D89
330
1F
100
AcDbEntity
  8
1
 62
     3
100
AcDbText
 10
33759.24105408459
 20
28647.41466641406
 30
0.0
 40
9.333333333333332
  1
－
 41
0.6666666666670002
  7
BIGFONT
100
AcDbText
  0
TEXT
  5
D8A
330
1F
100
AcDbEntity
  8
1
 62
     3
100
AcDbText
 10
33688.87065206636
 20
28556.05664436002
 30
0.0
 40
9.333333333333332
  1
－
 41
0.6666666666670002
  7
BIGFONT
100
AcDbText
  0
TEXT
  5
D8B
330
1F
100
AcDbEntity
  8
1
 62
     3
100
AcDbText
 10
33687.63611430595
 20
28584.45173509895
 30
0.0
 40
9.333333333333332
  1
＋
 41
0.6666666666670002
  7
BIGFONT
100
AcDbText
  0
TEXT
  5
D8C
330
1F
100
AcDbEntity
  8
1
 62
     3
100
AcDbText
 10
33575.23224467704
 20
28631.33214688281
 30
0.0
 40
15.0
  1
ＬＥＤ　ランプ
 41
0.6666666666670002
  7
BIGFONT
100
AcDbText
  0
TEXT
  5
D8D
330
1F
100
AcDbEntity
  8
1
 62
     3
100
AcDbText
 10
33594.38320458762
 20
28571.68491100751
 30
0.0
 40
12.0
  1
ＬＥＤ用電源
 41
0.6666666666670002
  7
BIGFONT
100
AcDbText
  0
LINE
  5
D8E
330
1F
100
AcDbEntity
  8
1
  6
Continuous
 62
     3
100
AcDbLine
 10
33584.14587654731
 20
28581.51079312519
 30
0.0
 11
33541.12504321398
 21
28581.57031693472
 31
0.0
  0
LINE
  5
D8F
330
1F
100
AcDbEntity
  8
1
  6
Continuous
 62
     3
100
AcDbLine
 10
33584.14587654731
 20
28574.01079312519
 30
0.0
 11
33542.4345670235
 21
28574.01079312519
 31
0.0
  0
TEXT
  5
D90
330
1F
100
AcDbEntity
  8
1
 62
     3
100
AcDbText
 10
33513.92288798759
 20
28569.78470222135
 30
0.0
 40
15.0
  1
電源
 41
0.6666666666670002
  7
BIGFONT
100
AcDbText
  0
LINE
  5
D91
330
1F
100
AcDbEntity
  8
1
  6
Continuous
 62
     3
100
AcDbLine
 10
33745.62747889919
 20
28645.17490768737
 30
0.0
 11
33738.96081223252
 21
28645.17490768737
 31
0.0
  0
LINE
  5
D92
330
1F
100
AcDbEntity
  8
1
  6
Continuous
 62
     3
100
AcDbLine
 10
33738.96081223252
 20
28645.17490768737
 30
0.0
 11
33738.96081223252
 21
28632.19396558021
 31
0.0
  0
LINE
  5
D93
330
1F
100
AcDbEntity
  8
1
  6
Continuous
 62
     3
100
AcDbLine
 10
33738.96081223252
 20
28632.19396558021
 30
0.0
 11
33745.62747889919
 21
28632.19396558021
 31
0.0
  0
LINE
  5
D94
330
1F
100
AcDbEntity
  8
1
  6
Continuous
 62
     3
100
AcDbLine
 10
33745.62747889919
 20
28645.17490768737
 30
0.0
 11
33745.62747889919
 21
28632.19396558021
 31
0.0
  0
LINE
  5
D95
330
1F
100
AcDbEntity
  8
1
  6
Continuous
 62
     3
100
AcDbLine
 10
33482.49776936666
 20
28629.36793598234
 30
0.0
 11
33482.49776936666
 21
28648.11793598234
 31
0.0
  0
LINE
  5
D96
330
1F
100
AcDbEntity
  8
1
  6
Continuous
 62
     3
100
AcDbLine
 10
33482.49776936666
 20
28648.11793598234
 30
0.0
 11
33503.74776936666
 21
28648.11793598234
 31
0.0
  0
LINE
  5
D97
330
1F
100
AcDbEntity
  8
1
  6
Continuous
 62
     3
100
AcDbLine
 10
33503.74776936666
 20
28648.11793598234
 30
0.0
 11
33503.74776936666
 21
28629.36793598234
 31
0.0
  0
LINE
  5
D98
330
1F
100
AcDbEntity
  8
1
  6
Continuous
 62
     3
100
AcDbLine
 10
33503.74776936666
 20
28629.36793598234
 30
0.0
 11
33482.49776936666
 21
28629.36793598234
 31
0.0
  0
LINE
  5
D99
330
1F
100
AcDbEntity
  8
1
  6
Continuous
 62
     3
100
AcDbLine
 10
33484.58759558621
 20
28632.31096427731
 30
0.0
 11
33491.25426225287
 21
28632.31096427731
 31
0.0
  0
LINE
  5
D9A
330
1F
100
AcDbEntity
  8
1
  6
Continuous
 62
     3
100
AcDbLine
 10
33491.25426225287
 20
28632.31096427731
 30
0.0
 11
33491.25426225287
 21
28645.29190638447
 31
0.0
  0
LINE
  5
D9B
330
1F
100
AcDbEntity
  8
1
  6
Continuous
 62
     3
100
AcDbLine
 10
33491.25426225287
 20
28645.29190638447
 30
0.0
 11
33484.58759558621
 21
28645.29190638447
 31
0.0
  0
LINE
  5
D9C
330
1F
100
AcDbEntity
  8
1
  6
Continuous
 62
     3
100
AcDbLine
 10
33484.58759558621
 20
28632.31096427731
 30
0.0
 11
33484.58759558621
 21
28645.29190638447
 31
0.0
  0
MTEXT
  5
DDC
330
1F
100
AcDbEntity
  8
寸法線
100
AcDbMText
 10
34238.20906877174
 20
29604.15799909807
 30
0.0
 40
12.0
 41
190.7763382050179
 46
0.0
 71
     1
 72
     5
  1
{\fMS PGothic|b0|i0|c128|p50;ランプソケット取付金具}
 73
     1
 44
1.0
1001
ACAD
1000
ACAD_MTEXT_COLUMN_INFO_BEGIN
1070
    75
1070
     2
1070
    79
1070
     0
1070
    76
1070
     1
1070
    78
1070
     0
1070
    48
1040
190.7763382050179
1070
    49
1040
12.5
1070
    50
1070
     1
1040
0.0
1000
ACAD_MTEXT_COLUMN_INFO_END
  0
MTEXT
  5
DDD
330
1F
100
AcDbEntity
  8
寸法線
100
AcDbMText
 10
34464.31238690586
 20
29609.81214108685
 30
0.0
 40
10.0
 41
163.0743348696414
 46
0.0
 71
     1
 72
     5
  1
{\fMS PGothic|b0|i0|c128|p50;鋼鈑　}1{\fMS PGothic|b0|i0|c128|p50;ｔ}\P{\fMS PGothic|b0|i0|c128|p50;（亜鉛メッキ板）}
 73
     1
 44
1.0
1001
ACAD
1000
ACAD_MTEXT_COLUMN_INFO_BEGIN
1070
    75
1070
     2
1070
    79
1070
     0
1070
    76
1070
     1
1070
    78
1070
     0
1070
    48
1040
163.0743348696414
1070
    49
1040
12.5
1070
    50
1070
     1
1040
0.0
1000
ACAD_MTEXT_COLUMN_INFO_END
  0
CIRCLE
  5
DDF
330
1F
100
AcDbEntity
  8
○
100
AcDbCircle
 10
34750.95714588148
 20
29144.60326060757
 30
0.0
 40
15.0
  0
MTEXT
  5
DE0
330
1F
100
AcDbEntity
  8
寸法線
100
AcDbMText
 10
34744.46431741976
 20
29154.34711109858
 30
0.0
 40
20.0
 41
35.534113038535
 46
0.0
 71
     1
 72
     5
  1
2
 73
     1
 44
1.0
1001
ACAD
1000
ACAD_MTEXT_COLUMN_INFO_BEGIN
1070
    75
1070
     2
1070
    79
1070
     0
1070
    76
1070
     1
1070
    78
1070
     0
1070
    48
1040
35.534113038535
1070
    49
1040
12.5
1070
    50
1070
     1
1040
0.0
1000
ACAD_MTEXT_COLUMN_INFO_END
  0
LINE
  5
DE1
330
1F
100
AcDbEntity
  8
○
100
AcDbLine
 10
34745.66629499003
 20
29158.63917514295
 30
0.0
 11
34730.61843977891
 21
29193.18778009833
 31
0.0
  0
LINE
  5
DE2
330
1F
100
AcDbEntity
  8
○
100
AcDbLine
 10
34746.91430262014
 20
29130.15835083409
 30
0.0
 11
34728.0269233994
 21
29019.69256885352
 31
0.0
  0
VIEWPORT
  5
318
102
{ACAD_XDICTIONARY
360
319
102
}
330
D2
100
AcDbEntity
 67
     1
  8
0
100
AcDbViewport
 10
205.0097503662109
 20
143.5205755233764
 30
0.0
 40
511.3899719593864
 41
314.237268371582
 68
     1
 69
     1
 12
205.0097503662109
 22
143.5205755233764
 13
0.0
 23
0.0
 14
10.0
 24
10.0
 15
10.0
 25
10.0
 16
0.0
 26
0.0
 36
1.0
 17
0.0
 27
0.0
 37
0.0
 42
50.0
 43
0.0
 44
0.0
 45
314.237268371582
 50
0.0
 51
0.0
 72
  1000
 90
   557088
  1

281
     0
 71
     1
 74
     0
110
0.0
120
0.0
130
0.0
111
1.0
121
0.0
131
0.0
112
0.0
122
1.0
132
0.0
 79
     0
146
0.0
170
     0
 61
     5
348
EC
292
     1
282
     1
141
0.0
142
0.0
 63
   250
421
  3355443
  0
VIEWPORT
  5
31C
102
{ACAD_XDICTIONARY
360
31D
102
}
330
D2
100
AcDbEntity
 67
     1
  8
外形線②
100
AcDbViewport
 10
128.5
 20
97.5
 30
0.0
 40
205.6
 41
156.0
 68
     2
 69
     2
 12
210.0
 22
148.5
 13
0.0
 23
0.0
 14
10.0
 24
10.0
 15
10.0
 25
10.0
 16
0.0
 26
0.0
 36
1.0
 17
0.0
 27
0.0
 37
0.0
 42
50.0
 43
0.0
 44
0.0
 45
321.3253284758076
 50
0.0
 51
0.0
 72
  1000
 90
   819808
  1

281
     0
 71
     1
 74
     0
110
0.0
120
0.0
130
0.0
111
1.0
121
0.0
131
0.0
112
0.0
122
1.0
132
0.0
 79
     0
146
0.0
170
     0
 61
     5
348
EC
292
     1
282
     1
141
0.0
142
0.0
 63
   250
421
  3355443
  0
ENDSEC
  0
SECTION
  2
OBJECTS
  0
DICTIONARY
  5
C
330
0
100
AcDbDictionary
281
     1
  3
ACAD_CIP_PREVIOUS_PRODUCT_INFO
350
20D
  3
ACAD_COLOR
350
79
  3
ACAD_DETAILVIEWSTYLE
350
212
  3
ACAD_GROUP
350
D
  3
ACAD_LAYOUT
350
1A
  3
ACAD_MATERIAL
350
78
  3
ACAD_MLEADERSTYLE
350
124
  3
ACAD_MLINESTYLE
350
17
  3
ACAD_PLOTSETTINGS
350
19
  3
ACAD_PLOTSTYLENAME
350
E
  3
ACAD_SCALELIST
350
103
  3
ACAD_SECTIONVIEWSTYLE
350
210
  3
ACAD_TABLESTYLE
350
97
  3
ACAD_VISUALSTYLE
350
E6
  3
ACDB_RECOMPOSE_DATA
350
E5C
  3
AcDbVariableDictionary
350
67
  0
DICTIONARY
  5
1F6
330
2
100
AcDbDictionary
280
     1
281
     1
  3
ACAD_LAYERSTATES
360
1F7
  0
DICTIONARY
  5
133
330
10
100
AcDbDictionary
280
     1
281
     1
  0
DICTIONARY
  5
CEB
330
CEA
100
AcDbDictionary
280
     1
281
     1
  0
DICTIONARY
  5
1C5
330
1F
100
AcDbDictionary
280
     1
281
     1
  3
ACAD_SORTENTS
360
35E
  0
DICTIONARY
  5
9E5
330
9D8
100
AcDbDictionary
280
     1
281
     1
  3
ACAD_DIMASSOC
360
9EF
  0
DICTIONARY
  5
A5C
330
A4F
100
AcDbDictionary
280
     1
281
     1
  3
ACAD_DIMASSOC
360
A66
  0
DICTIONARY
  5
A75
330
A67
100
AcDbDictionary
280
     1
281
     1
  3
ACAD_DIMASSOC
360
A80
  0
DICTIONARY
  5
C62
330
C54
100
AcDbDictionary
280
     1
281
     1
  3
ACAD_DIMASSOC
360
C6D
  0
DICTIONARY
  5
C7B
330
C6E
100
AcDbDictionary
280
     1
281
     1
  3
ACAD_DIMASSOC
360
C85
  0
DICTIONARY
  5
C94
330
C86
100
AcDbDictionary
280
     1
281
     1
  3
ACAD_DIMASSOC
360
C9F
  0
DICTIONARY
  5
CAE
330
CA0
100
AcDbDictionary
280
     1
281
     1
  3
ACAD_DIMASSOC
360
CB9
  0
DICTIONARY
  5
CC7
330
CBA
100
AcDbDictionary
280
     1
281
     1
  3
ACAD_DIMASSOC
360
CD1
  0
DICTIONARY
  5
CDF
330
CD2
100
AcDbDictionary
280
     1
281
     1
  3
ACAD_DIMASSOC
360
CE9
  0
DICTIONARY
  5
319
330
318
100
AcDbDictionary
280
     1
281
     1
  3
ASDK_XREC_ANNOTATION_SCALE_INFO
360
31A
  0
DICTIONARY
  5
31D
330
31C
100
AcDbDictionary
280
     1
281
     1
  3
ASDK_XREC_ANNOTATION_SCALE_INFO
360
31E
  0
XRECORD
  5
20D
102
{ACAD_REACTORS
330
C
102
}
330
C
100
AcDbXrecord
280
     1
300
ACDLT
300
2016
300
ACDLT_F_S
  0
DICTIONARY
  5
79
102
{ACAD_REACTORS
330
C
102
}
330
C
100
AcDbDictionary
281
     1
  0
DICTIONARY
  5
212
102
{ACAD_REACTORS
330
C
102
}
330
C
100
AcDbDictionary
281
     1
  3
Metric50
350
213
  0
DICTIONARY
  5
D
102
{ACAD_REACTORS
330
C
102
}
330
C
100
AcDbDictionary
281
     1
  0
DICTIONARY
  5
1A
102
{ACAD_REACTORS
330
C
102
}
330
C
100
AcDbDictionary
281
     1
  3
Model
350
22
  3
レイアウト1
350
D3
  3
レイアウト2
350
D7
  0
DICTIONARY
  5
78
102
{ACAD_REACTORS
330
C
102
}
330
C
100
AcDbDictionary
281
     1
  3
ByBlock
350
E4
  3
ByLayer
350
E3
  3
Global
350
E5
  0
DICTIONARY
  5
124
102
{ACAD_REACTORS
330
C
102
}
330
C
100
AcDbDictionary
281
     1
  3
Annotative
350
132
  3
Standard
350
125
  0
DICTIONARY
  5
17
102
{ACAD_REACTORS
330
C
102
}
330
C
100
AcDbDictionary
281
     1
  3
Standard
350
18
  0
DICTIONARY
  5
19
102
{ACAD_REACTORS
330
C
102
}
330
C
100
AcDbDictionary
281
     1
  0
ACDBDICTIONARYWDFLT
  5
E
102
{ACAD_REACTORS
330
C
102
}
330
C
100
AcDbDictionary
281
     1
  3
Normal
350
F
100
AcDbDictionaryWithDefault
340
F
  0
DICTIONARY
  5
103
102
{ACAD_REACTORS
330
C
102
}
330
C
100
AcDbDictionary
281
     1
  3
A0
350
104
  3
A1
350
1B5
  3
A2
350
1B6
  3
A3
350
1B7
  3
A4
350
1B8
  3
A5
350
1B9
  3
A6
350
1BA
  3
A7
350
1BB
  3
A8
350
1BC
  3
A9
350
1BD
  3
B0
350
1BE
  3
B1
350
1BF
  3
B2
350
1C0
  3
B3
350
1C1
  3
B4
350
1C2
  3
B5
350
1C3
  3
B6
350
1C4
  0
DICTIONARY
  5
210
102
{ACAD_REACTORS
330
C
102
}
330
C
100
AcDbDictionary
281
     1
  3
Metric50
350
211
  0
DICTIONARY
  5
97
102
{ACAD_REACTORS
330
C
102
}
330
C
100
AcDbDictionary
281
     1
  3
Standard
350
98
  0
DICTIONARY
  5
E6
102
{ACAD_REACTORS
330
C
102
}
330
C
100
AcDbDictionary
281
     1
  3
2dWireframe
350
EC
  3
Basic
350
EB
  3
Brighten
350
F2
  3
ColorChange
350
F6
  3
Conceptual
350
EF
  3
Dim
350
F1
  3
EdgeColorOff
350
1DD
  3
Facepattern
350
F5
  3
Flat
350
E7
  3
FlatWithEdges
350
E8
  3
Gouraud
350
E9
  3
GouraudWithEdges
350
EA
  3
Hidden
350
EE
  3
JitterOff
350
1DB
  3
Linepattern
350
F4
  3
OverhangOff
350
1DC
  3
Realistic
350
F0
  3
Shaded
350
1EA
  3
Shaded with edges
350
1E9
  3
Shades of Gray
350
1E6
  3
Sketchy
350
1E7
  3
Thicken
350
F3
  3
Wireframe
350
ED
  3
X-Ray
350
1E8
  0
XRECORD
  5
E5C
102
{ACAD_REACTORS
330
C
102
}
330
C
100
AcDbXrecord
280
     1
 90
        1
330
98
330
211
330
213
330
B52
330
B53
330
B54
330
B55
330
B56
330
B57
330
B58
330
B59
330
B5A
330
B5B
330
B5C
330
B5D
330
B5E
330
B5F
330
B60
330
B61
330
B62
330
B63
330
B66
330
B67
330
B68
330
B69
330
B6A
330
B6B
330
B6C
330
B6D
330
B6E
330
B6F
330
B70
330
B7B
330
B7C
330
B7D
330
B7E
330
B7F
330
B80
330
B81
330
B82
330
B83
330
B84
330
B85
330
B86
330
C33
330
C35
330
C37
330
C39
330
C3B
330
C3D
330
C3E
330
DDC
330
DDD
330
DE0
  0
DICTIONARY
  5
67
102
{ACAD_REACTORS
330
C
102
}
330
C
100
AcDbDictionary
281
     1
  3
CANNOSCALE
350
13D
  3
CMLEADERSTYLE
350
13C
  3
CTABLESTYLE
350
C5
  3
CVIEWDETAILSTYLE
350
21E
  3
CVIEWSECTIONSTYLE
350
21F
  3
DIMASSOC
350
68
  3
EXPORTMODELSPACE
350
DA8
  3
HIDETEXT
350
6C
  3
LAYEREVAL
350
1A5
  3
LAYERNOTIFY
350
1A6
  0
DICTIONARY
  5
1F7
102
{ACAD_REACTORS
330
1F6
102
}
330
1F6
100
AcDbDictionary
281
     1
  0
SORTENTSTABLE
  5
35E
102
{ACAD_REACTORS
330
1C5
102
}
330
1C5
100
AcDbSortentsTable
330
1F
331
665
  5
665
331
626
  5
626
331
71A
  5
71A
331
759
  5
759
331
955
  5
9A3
331
B49
  5
B5E
331
B84
  5
C25
331
C2B
  5
835
331
9A8
  5
9C5
331
9F7
  5
B2B
331
794
  5
794
331
7D3
  5
7D3
331
6A0
  5
6A0
331
6DF
  5
6DF
331
62E
  5
62E
331
66D
  5
66D
331
6E7
  5
6E7
331
761
  5
761
331
722
  5
722
331
89E
  5
984
331
95D
  5
9AB
331
9B0
  5
A4C
331
79C
  5
79C
331
7DB
  5
7DB
331
6A8
  5
6A8
331
636
  5
636
331
675
  5
675
331
72A
  5
72A
331
7A4
  5
7A4
331
6B0
  5
6B0
331
6EF
  5
6EF
331
63E
  5
63E
331
A4B
  5
B2E
331
C37
  5
C3A
331
B55
  5
B6A
331
961
  5
9B1
331
9B8
  5
B21
331
6B8
  5
6B8
331
732
  5
732
331
6F3
  5
6F3
331
B22
  5
B37
331
B5D
  5
B72
331
981
  5
9B4
331
76D
  5
76D
331
7AC
  5
7AC
331
679
  5
679
331
646
  5
646
331
6FB
  5
6FB
331
73A
  5
73A
331
7B4
  5
7B4
331
84F
  5
8C4
331
8C6
  5
98F
331
B2A
  5
B3F
331
B65
  5
B7A
331
9D8
  5
B29
331
775
  5
775
331
681
  5
681
331
6C0
  5
6C0
331
64E
  5
64E
331
703
  5
703
331
742
  5
742
331
857
  5
90B
331
906
  5
992
331
B32
  5
B47
331
B6D
  5
B82
331
991
  5
9BE
331
77D
  5
77D
331
7BC
  5
7BC
331
689
  5
689
331
6C8
  5
6C8
331
656
  5
656
331
6D0
  5
6D0
331
70B
  5
70B
331
74A
  5
74A
331
85F
  5
955
331
785
  5
785
331
7C4
  5
7C4
331
691
  5
691
331
61F
  5
61F
331
65E
  5
65E
331
B3A
  5
B4F
331
B75
  5
B8A
331
C1C
  5
83A
331
999
  5
861
331
6D8
  5
6D8
331
752
  5
752
331
713
  5
713
331
86F
  5
960
331
B42
  5
B57
331
B7D
  5
C1E
331
C24
  5
868
331
9A1
  5
8B8
331
78D
  5
78D
331
7CC
  5
7CC
331
699
  5
699
331
627
  5
627
331
666
  5
666
331
75A
  5
75A
331
71B
  5
71B
331
7D4
  5
7D4
331
956
  5
9A4
331
B4A
  5
B5F
331
B85
  5
C26
331
9A9
  5
9F6
331
795
  5
795
331
6A1
  5
6A1
331
6E0
  5
6E0
331
66E
  5
66E
331
62F
  5
62F
331
723
  5
723
331
762
  5
762
331
89F
  5
985
331
95E
  5
9AC
331
9B1
  5
A4E
331
79D
  5
79D
331
7DC
  5
7DC
331
6A9
  5
6A9
331
6E8
  5
6E8
331
676
  5
676
331
637
  5
637
331
72B
  5
72B
331
8A7
  5
990
331
7A5
  5
7A5
331
6B1
  5
6B1
331
63F
  5
63F
331
A4C
  5
B2F
331
C38
  5
C3B
331
B56
  5
B6B
331
962
  5
9B2
331
9B9
  5
B22
331
6F4
  5
6F4
331
733
  5
733
331
7AD
  5
7AD
331
B23
  5
B38
331
B5E
  5
B73
331
982
  5
9B5
331
76E
  5
76E
331
67A
  5
67A
331
6B9
  5
6B9
331
647
  5
647
331
6C1
  5
6C1
331
6FC
  5
6FC
331
73B
  5
73B
331
B2B
  5
B40
331
850
  5
8C5
331
B66
  5
B7B
331
776
  5
776
331
7B5
  5
7B5
331
682
  5
682
331
64F
  5
64F
331
6C9
  5
6C9
331
743
  5
743
331
704
  5
704
331
858
  5
90C
331
907
  5
994
331
B33
  5
B48
331
B6E
  5
B83
331
992
  5
9C2
331
77E
  5
77E
331
7BD
  5
7BD
331
68A
  5
68A
331
618
  5
618
331
657
  5
657
331
70C
  5
70C
331
74B
  5
74B
331
7C5
  5
7C5
331
786
  5
786
331
692
  5
692
331
6D1
  5
6D1
331
65F
  5
65F
331
B3B
  5
B50
331
B76
  5
C17
331
C1D
  5
C2F
331
99A
  5
95F
331
620
  5
620
331
714
  5
714
331
753
  5
753
331
870
  5
961
331
B43
  5
B58
331
B7E
  5
C1F
331
C25
  5
869
331
9A2
  5
8A5
331
78E
  5
78E
331
7CD
  5
7CD
331
69A
  5
69A
331
6D9
  5
6D9
331
628
  5
628
331
667
  5
667
331
6E1
  5
6E1
331
71C
  5
71C
331
75B
  5
75B
331
957
  5
9A5
331
B4B
  5
B60
331
B86
  5
C27
331
9AA
  5
9F7
331
796
  5
796
331
7D5
  5
7D5
331
6A2
  5
6A2
331
630
  5
630
331
66F
  5
66F
331
6E9
  5
6E9
331
763
  5
763
331
724
  5
724
331
95F
  5
9AD
331
9B2
  5
9D8
331
79E
  5
79E
331
6AA
  5
6AA
331
638
  5
638
331
677
  5
677
331
72C
  5
72C
331
7A6
  5
7A6
331
6B2
  5
6B2
331
8A8
  5
991
331
A4D
  5
B30
331
C39
  5
C3C
331
B57
  5
B6C
331
963
  5
9B3
331
9BA
  5
B23
331
640
  5
640
331
6BA
  5
6BA
331
734
  5
734
331
6F5
  5
6F5
331
7AE
  5
7AE
331
B24
  5
B39
331
B5F
  5
B74
331
983
  5
9B6
331
9C2
  5
B27
331
76F
  5
76F
331
67B
  5
67B
331
648
  5
648
331
6FD
  5
6FD
331
73C
  5
73C
331
7B6
  5
7B6
331
B2C
  5
B41
331
851
  5
8C6
331
B67
  5
B7C
331
777
  5
777
331
683
  5
683
331
6C2
  5
6C2
331
650
  5
650
331
705
  5
705
331
744
  5
744
331
7BE
  5
7BE
331
859
  5
90E
331
908
  5
998
331
B34
  5
B49
331
B6F
  5
B84
331
993
  5
9C3
331
77F
  5
77F
331
68B
  5
68B
331
6CA
  5
6CA
331
619
  5
619
331
658
  5
658
331
6D2
  5
6D2
331
70D
  5
70D
331
74C
  5
74C
331
787
  5
787
331
7C6
  5
7C6
331
693
  5
693
331
B3C
  5
B51
331
B77
  5
C18
331
C1E
  5
83D
331
621
  5
621
331
660
  5
660
331
6DA
  5
6DA
331
754
  5
754
331
715
  5
715
331
871
  5
962
331
B44
  5
B59
331
B7F
  5
C20
331
C26
  5
C34
331
9A3
  5
8A4
331
78F
  5
78F
331
7CE
  5
7CE
331
69B
  5
69B
331
629
  5
629
331
668
  5
668
331
71D
  5
71D
331
75C
  5
75C
331
7D6
  5
7D6
331
958
  5
9A6
331
B4C
  5
B61
331
B87
  5
C28
331
9AB
  5
A4A
331
797
  5
797
331
6A3
  5
6A3
331
6E2
  5
6E2
331
670
  5
670
331
631
  5
631
331
725
  5
725
331
764
  5
764
331
9B3
  5
A49
331
79F
  5
79F
331
6AB
  5
6AB
331
6EA
  5
6EA
331
639
  5
639
331
72D
  5
72D
331
7A7
  5
7A7
331
6B3
  5
6B3
331
B50
  5
B65
331
A4E
  5
B31
331
C3A
  5
C3D
331
B58
  5
B6D
331
9BB
  5
B24
331
768
  5
768
331
641
  5
641
331
6F6
  5
6F6
331
735
  5
735
331
B25
  5
B3A
331
C42
  5
86F
331
B60
  5
B75
331
984
  5
9B7
331
9C3
  5
B28
331
770
  5
770
331
7AF
  5
7AF
331
67C
  5
67C
331
6BB
  5
6BB
331
649
  5
649
331
6C3
  5
6C3
331
6FE
  5
6FE
331
73D
  5
73D
331
B2D
  5
B42
331
852
  5
8C7
331
B68
  5
B7D
331
778
  5
778
331
7B7
  5
7B7
331
684
  5
684
331
651
  5
651
331
745
  5
745
331
706
  5
706
331
7BF
  5
7BF
331
85A
  5
90F
331
909
  5
999
331
B35
  5
B4A
331
C17
  5
867
331
994
  5
9C4
331
780
  5
780
331
68C
  5
68C
331
6CB
  5
6CB
331
61A
  5
61A
331
659
  5
659
331
70E
  5
70E
331
74D
  5
74D
331
7C7
  5
7C7
331
694
  5
694
331
6D3
  5
6D3
331
B70
  5
B85
331
788
  5
788
331
B78
  5
C19
331
C1F
  5
83F
331
B3D
  5
B52
331
86A
  5
95A
331
661
  5
661
331
69C
  5
69C
331
6DB
  5
6DB
331
790
  5
790
331
7CF
  5
7CF
331
B80
  5
C21
331
C27
  5
86C
331
B45
  5
B5A
331
872
  5
963
331
716
  5
716
331
755
  5
755
331
622
  5
622
331
6E3
  5
6E3
331
6A4
  5
6A4
331
798
  5
798
331
7D7
  5
7D7
331
9AC
  5
A4B
331
C2F
  5
C35
331
B88
  5
C29
331
B4D
  5
B62
331
959
  5
9A7
331
71E
  5
71E
331
75D
  5
75D
331
62A
  5
62A
331
669
  5
669
331
6EB
  5
6EB
331
6AC
  5
6AC
331
765
  5
765
331
7A0
  5
7A0
331
9B4
  5
A4F
331
8A2
  5
98D
331
726
  5
726
331
632
  5
632
331
671
  5
671
331
6B4
  5
6B4
331
72E
  5
72E
331
63A
  5
63A
331
B51
  5
B66
331
C33
  5
C36
331
9BC
  5
B25
331
769
  5
769
331
7A8
  5
7A8
331
B59
  5
B6E
331
C3B
  5
C3E
331
A4F
  5
B32
331
67D
  5
67D
331
6BC
  5
6BC
331
736
  5
736
331
7B0
  5
7B0
331
985
  5
9B8
331
771
  5
771
331
B61
  5
B76
331
C43
  5
86E
331
B26
  5
B3B
331
6F7
  5
6F7
331
642
  5
642
331
685
  5
685
331
6C4
  5
6C4
331
7B8
  5
7B8
331
779
  5
779
331
98D
  5
9BA
331
B69
  5
B7E
331
B2E
  5
B43
331
853
  5
906
331
6FF
  5
6FF
331
73E
  5
73E
331
64A
  5
64A
331
68D
  5
68D
331
6CC
  5
6CC
331
7C0
  5
7C0
331
781
  5
781
331
B36
  5
B4B
331
A67
  5
B33
331
85B
  5
910
331
90A
  5
99A
331
707
  5
707
331
746
  5
746
331
652
  5
652
331
6D4
  5
6D4
331
695
  5
695
331
70F
  5
70F
331
74E
  5
74E
331
61B
  5
61B
331
65A
  5
65A
331
B71
  5
B86
331
C18
  5
870
331
789
  5
789
331
7C8
  5
7C8
331
B79
  5
C1A
331
C20
  5
C33
331
B3E
  5
B53
331
86B
  5
95B
331
93A
  5
993
331
69D
  5
69D
331
6DC
  5
6DC
331
756
  5
756
331
7D0
  5
7D0
331
791
  5
791
331
C28
  5
832
331
B81
  5
C22
331
B46
  5
B5B
331
873
  5
864
331
717
  5
717
331
623
  5
623
331
662
  5
662
331
6A5
  5
6A5
331
6E4
  5
6E4
331
7D8
  5
7D8
331
799
  5
799
331
9AD
  5
A4D
331
B89
  5
C2A
331
B4E
  5
B63
331
95A
  5
9A8
331
71F
  5
71F
331
75E
  5
75E
331
62B
  5
62B
331
66A
  5
66A
331
672
  5
672
331
6AD
  5
6AD
331
6EC
  5
6EC
331
7A1
  5
7A1
331
9B5
  5
A67
331
8A3
  5
98E
331
727
  5
727
331
766
  5
766
331
633
  5
633
331
6B5
  5
6B5
331
72F
  5
72F
331
63B
  5
63B
331
B52
  5
B67
331
C34
  5
C37
331
7A9
  5
7A9
331
76A
  5
76A
331
9BD
  5
B26
331
B5A
  5
B6F
331
C3C
  5
C42
331
B1F
  5
B34
331
7E4
  5
863
331
6F0
  5
6F0
331
67E
  5
67E
331
6BD
  5
6BD
331
9C5
  5
7E5
331
986
  5
9B9
331
772
  5
772
331
7B1
  5
7B1
331
B62
  5
B77
331
C44
  5
86D
331
B27
  5
B3C
331
6F8
  5
6F8
331
737
  5
737
331
643
  5
643
331
6C5
  5
6C5
331
686
  5
686
331
73F
  5
73F
331
7B9
  5
7B9
331
77A
  5
77A
331
98E
  5
9BB
331
B6A
  5
B7F
331
B2F
  5
B44
331
854
  5
908
331
700
  5
700
331
64B
  5
64B
331
68E
  5
68E
331
6CD
  5
6CD
331
747
  5
747
331
7C1
  5
7C1
331
782
  5
782
331
B37
  5
B4C
331
85C
  5
911
331
90B
  5
99F
331
708
  5
708
331
653
  5
653
331
65B
  5
65B
331
696
  5
696
331
6D5
  5
6D5
331
74F
  5
74F
331
61C
  5
61C
331
B72
  5
B87
331
C19
  5
839
331
7C9
  5
7C9
331
78A
  5
78A
331
B7A
  5
C1B
331
C21
  5
83E
331
B3F
  5
B54
331
86C
  5
95C
331
93B
  5
99B
331
710
  5
710
331
663
  5
663
331
69E
  5
69E
331
6DD
  5
6DD
331
9A6
  5
866
331
792
  5
792
331
7D1
  5
7D1
331
B82
  5
C23
331
C29
  5
833
331
B47
  5
B5C
331
718
  5
718
331
757
  5
757
331
624
  5
624
331
6E5
  5
6E5
331
6A6
  5
6A6
331
79A
  5
79A
331
7D9
  5
7D9
331
B8A
  5
C2B
331
B4F
  5
B64
331
89C
  5
981
331
95B
  5
9A9
331
720
  5
720
331
75F
  5
75F
331
62C
  5
62C
331
66B
  5
66B
331
6AE
  5
6AE
331
6ED
  5
6ED
331
767
  5
767
331
9B6
  5
B1F
331
7A2
  5
7A2
331
728
  5
728
331
634
  5
634
331
673
  5
673
331
6B6
  5
6B6
331
63C
  5
63C
331
B53
  5
B68
331
C35
  5
C38
331
A49
  5
B2C
331
730
  5
730
331
76B
  5
76B
331
7AA
  5
7AA
331
9BE
  5
831
331
B5B
  5
B70
331
C3D
  5
C43
331
B20
  5
B35
331
7E5
  5
860
331
6F1
  5
6F1
331
67F
  5
67F
331
6BE
  5
6BE
331
738
  5
738
331
7B2
  5
7B2
331
773
  5
773
331
B63
  5
B78
331
B28
  5
B3D
331
8C4
  5
982
331
6F9
  5
6F9
331
644
  5
644
331
687
  5
687
331
6C6
  5
6C6
331
77B
  5
77B
331
7BA
  5
7BA
331
98F
  5
9BC
331
B6B
  5
B80
331
B30
  5
B45
331
855
  5
909
331
701
  5
701
331
740
  5
740
331
64C
  5
64C
331
68F
  5
68F
331
6CE
  5
6CE
331
7C2
  5
7C2
331
783
  5
783
331
85D
  5
93D
331
90C
  5
9A0
331
709
  5
709
331
748
  5
748
331
654
  5
654
331
6D6
  5
6D6
331
697
  5
697
331
61D
  5
61D
331
65C
  5
65C
331
B73
  5
B88
331
C1A
  5
83B
331
B38
  5
B4D
331
750
  5
750
331
78B
  5
78B
331
7CA
  5
7CA
331
99F
  5
830
331
B7B
  5
C1C
331
C22
  5
86A
331
B40
  5
B55
331
86D
  5
95D
331
711
  5
711
331
69F
  5
69F
331
6DE
  5
6DE
331
758
  5
758
331
7D2
  5
7D2
331
793
  5
793
331
9A7
  5
865
331
9F6
  5
B2A
331
B83
  5
C24
331
C2A
  5
834
331
B48
  5
B5D
331
954
  5
9A2
331
719
  5
719
331
625
  5
625
331
664
  5
664
331
66C
  5
66C
331
6A7
  5
6A7
331
6E6
  5
6E6
331
7DA
  5
7DA
331
79B
  5
79B
331
89D
  5
983
331
95C
  5
9AA
331
721
  5
721
331
760
  5
760
331
62D
  5
62D
331
674
  5
674
331
6AF
  5
6AF
331
6EE
  5
6EE
331
9B7
  5
B20
331
7A3
  5
7A3
331
729
  5
729
331
635
  5
635
331
6B7
  5
6B7
331
63D
  5
63D
331
960
  5
9B0
331
B54
  5
B69
331
C36
  5
C39
331
A4A
  5
B2D
331
678
  5
678
331
7AB
  5
7AB
331
76C
  5
76C
331
B5C
  5
B71
331
C3E
  5
C44
331
B21
  5
B36
331
7E6
  5
836
331
6F2
  5
6F2
331
731
  5
731
331
6BF
  5
6BF
331
680
  5
680
331
774
  5
774
331
7B3
  5
7B3
331
B64
  5
B79
331
B29
  5
B3E
331
8C5
  5
986
331
6FA
  5
6FA
331
739
  5
739
331
645
  5
645
331
6C7
  5
6C7
331
688
  5
688
331
741
  5
741
331
77C
  5
77C
331
7BB
  5
7BB
331
990
  5
9BD
331
B6C
  5
B81
331
B31
  5
B46
331
856
  5
90A
331
702
  5
702
331
64D
  5
64D
331
690
  5
690
331
6CF
  5
6CF
331
749
  5
749
331
7C3
  5
7C3
331
784
  5
784
331
85E
  5
954
331
90D
  5
9A1
331
70A
  5
70A
331
655
  5
655
331
65D
  5
65D
331
6D7
  5
6D7
331
61E
  5
61E
331
B39
  5
B4E
331
B74
  5
B89
331
C1B
  5
83C
331
998
  5
862
331
712
  5
712
331
751
  5
751
331
93D
  5
840
331
86E
  5
95E
331
B41
  5
B56
331
B7C
  5
C1D
331
C23
  5
86B
331
9A0
  5
8BA
331
78C
  5
78C
331
7CB
  5
7CB
331
698
  5
698
  0
DIMASSOC
  5
9EF
102
{ACAD_REACTORS
330
9E5
102
}
330
9E5
100
AcDbDimAssoc
330
9D8
 90
        3
 70
     0
 71
     0
  1
AcDbOsnapPointRef
 72
    13
331
66E
 73
     2
 91
        0
 40
3.202277347061599
 10
32914.44093491146
 20
28105.24283202257
 30
0.0
 75
     0
  1
AcDbOsnapPointRef
 72
     6
331
686
 73
     2
 91
        0
 40
0.0048012750885939
 10
34156.44093491146
 20
28105.24283202256
 30
0.0
332
685
 74
     2
 92
        0
 75
     0
  0
DIMASSOC
  5
A66
102
{ACAD_REACTORS
330
A5C
102
}
330
A5C
100
AcDbDimAssoc
330
A4F
 90
        3
 70
     0
 71
     0
  1
AcDbOsnapPointRef
 72
     1
331
63E
 73
     2
 91
        0
 40
1.0
 10
34155.44093491146
 20
27954.11527306976
 30
0.0
 75
     0
  1
AcDbOsnapPointRef
 72
    13
331
61A
 73
     2
 91
        0
 40
0.0
 10
34155.44093491146
 20
27902.11527306976
 30
0.0
 75
     0
  0
DIMASSOC
  5
A80
102
{ACAD_REACTORS
330
A75
102
}
330
A75
100
AcDbDimAssoc
330
A67
 90
        2
 70
     0
 71
     0
  1
AcDbOsnapPointRef
 72
    13
331
61A
 73
     2
 91
        0
 40
0.0
 10
34155.44093491146
 20
27902.11527306976
 30
0.0
 75
     0
  0
DIMASSOC
  5
C6D
102
{ACAD_REACTORS
330
C62
102
}
330
C62
100
AcDbDimAssoc
330
C54
 90
        3
 70
     0
 71
     0
  1
AcDbOsnapPointRef
 72
    13
331
61A
 73
     2
 91
        0
 40
0.0
 10
34730.19848660889
 20
28997.60326060757
 30
0.0
 75
     0
  1
AcDbOsnapPointRef
 72
    13
331
958
 73
     2
 91
        0
 40
0.0
 10
34016.99848660889
 20
28972.60326060758
 30
0.0
 75
     0
  0
DIMASSOC
  5
C85
102
{ACAD_REACTORS
330
C7B
102
}
330
C7B
100
AcDbDimAssoc
330
C6E
 90
        3
 70
     0
 71
     0
  1
AcDbOsnapPointRef
 72
     1
331
86D
 73
     2
 91
        0
 40
3.141592653589793
 10
34966.19848660889
 20
28997.10326060758
 30
0.0
 75
     0
  1
AcDbOsnapPointRef
 72
     1
331
870
 73
     2
 91
        0
 40
1.0
 10
35011.19848660888
 20
28997.10326060758
 30
0.0
 75
     0
  0
DIMASSOC
  5
C9F
102
{ACAD_REACTORS
330
C94
102
}
330
C94
100
AcDbDimAssoc
330
C86
 90
        1
 70
     0
 71
     0
  1
AcDbOsnapPointRef
 72
    13
331
C26
 73
     2
 91
        0
 40
0.0
 10
34990.19848660889
 20
29059.60326060758
 30
0.0
 75
     0
  0
DIMASSOC
  5
CB9
102
{ACAD_REACTORS
330
CAE
102
}
330
CAE
100
AcDbDimAssoc
330
CA0
 90
        1
 70
     0
 71
     0
  1
AcDbOsnapPointRef
 72
     6
331
C26
 73
     2
 91
        0
 40
0.1030927835051546
 10
34990.19848660889
 20
29049.60326060757
 30
0.0
332
C22
 74
     2
 92
        0
 75
     0
  0
DIMASSOC
  5
CD1
102
{ACAD_REACTORS
330
CC7
102
}
330
CC7
100
AcDbDimAssoc
330
CBA
 90
        3
 70
     0
 71
     0
  1
AcDbOsnapPointRef
 72
    13
331
7A2
 73
     2
 91
        0
 40
0.0
 10
34974.19848660889
 20
29033.35326060758
 30
0.0
 75
     0
  1
AcDbOsnapPointRef
 72
     6
331
C20
 73
     2
 91
        0
 40
0.9928940568475358
 10
35006.19848660888
 20
29033.35326060758
 30
0.0
332
7A4
 74
     2
 92
        0
 75
     0
  0
DIMASSOC
  5
CE9
102
{ACAD_REACTORS
330
CDF
102
}
330
CDF
100
AcDbDimAssoc
330
CD2
 90
        3
 70
     0
 71
     0
  1
AcDbOsnapPointRef
 72
     2
331
7A4
 73
     2
 91
        0
 40
7.853981633974482
 10
34990.19848660888
 20
29049.60326060757
 30
0.0
 75
     0
  1
AcDbOsnapPointRef
 72
     2
331
982
 73
     2
 91
        0
 40
0.5
 10
34990.19848660889
 20
28972.60326060758
 30
0.0
 75
     0
  0
XRECORD
  5
31A
102
{ACAD_REACTORS
330
319
102
}
330
319
100
AcDbXrecord
280
     1
 90
        1
340
104
  0
XRECORD
  5
31E
102
{ACAD_REACTORS
330
31D
102
}
330
31D
100
AcDbXrecord
280
     1
 90
        1
340
104
  0
ACDBDETAILVIEWSTYLE
  5
213
102
{ACAD_XDICTIONARY
360
22D
102
}
102
{ACAD_REACTORS
330
212
102
}
330
212
100
AcDbModelDocViewStyle
 70
     0
  3
Metric50
290
     0
100
AcDbDetailViewStyle
 70
     0
 71
     0
 90
        3
 71
     1
340
11
 62
   256
 40
5.0
340
0
 62
   256
 40
5.0
300

 40
0.0
280
     1
 71
     2
340
16
 90
       25
 62
   256
 71
     3
340
11
 62
   256
 40
5.0
 90
        0
 40
15.0
 90
        1
300
%<\AcVar ViewDetailId>% (%<\AcVar ViewScale \f "%sn">%)
 71
     4
340
16
 90
       25
 62
   256
340
16
 90
       25
 62
   256
280
     0
  0
LAYOUT
  5
22
102
{ACAD_XDICTIONARY
360
1FC
102
}
102
{ACAD_REACTORS
330
1A
102
}
330
1A
100
AcDbPlotSettings
  1

  2
Kyocera TASKalfa 3252ci(J) KX
  4
A3
  6

 40
4.984749794006347
 41
5.111724853515625
 42
5.154083251953125
 43
4.9847412109375
 44
297.0106506347656
 45
419.9889831542968
 46
0.0
 47
0.0
 48
0.0
 49
0.0
140
0.0
141
0.0
142
1.0
143
9.806410578662045
 70
 11952
 72
     1
 73
     1
 74
     0
  7
monochrome.stb
 75
     0
147
0.1019741109122964
 76
     0
 77
     2
 78
   300
148
-32876.12478992212
149
-27320.92452532269
100
AcDbLayout
  1
Model
 70
     1
 71
     0
 10
0.0
 20
0.0
 11
12.0
 21
9.0
 12
0.0
 22
0.0
 32
0.0
 14
0.0
 24
0.0
 34
0.0
 15
0.0
 25
0.0
 35
0.0
146
0.0
 13
0.0
 23
0.0
 33
0.0
 16
1.0
 26
0.0
 36
0.0
 17
0.0
 27
1.0
 37
0.0
 76
     0
330
1F
331
E1
1001
ACAD_PSEXT
1000
Kyocera TASKalfa 3252ci(J) KX
1000
Kyocera TASKalfa 3252ci(J) KX
1000
192.168.11.123
1000

1070
     0
  0
LAYOUT
  5
D3
102
{ACAD_REACTORS
330
1A
102
}
330
1A
100
AcDbPlotSettings
  1

  2
Kyocera TASKalfa 3050ci(J) KX
  4
A3
  6

 40
4.984749794006347
 41
5.111724853515625
 42
5.154083251953125
 43
4.9847412109375
 44
297.0106506347656
 45
419.9889831542968
 46
0.0
 47
0.0
 48
0.0
 49
0.0
140
0.0
141
0.0
142
1.0
143
1.0
 70
   688
 72
     1
 73
     1
 74
     5
  7
monochrome.stb
 75
    16
147
1.0
 76
     0
 77
     2
 78
   300
148
0.0
149
0.0
100
AcDbLayout
  1
レイアウト1
 70
     1
 71
     1
 10
-4.9847412109375
 20
-4.984749794006347
 11
415.0042419433593
 21
292.0259008407593
 12
0.0
 22
0.0
 32
0.0
 14
25.69999999999999
 24
19.5
 34
0.0
 15
231.3
 25
175.5
 35
0.0
146
0.0
 13
0.0
 23
0.0
 33
0.0
 16
1.0
 26
0.0
 36
0.0
 17
0.0
 27
1.0
 37
0.0
 76
     0
330
D2
331
318
1001
ACAD_PSEXT
1000
Kyocera TASKalfa 3050ci(J) KX
1000
Kyocera TASKalfa 3050ci(J) KX
1000
192.168.11.123
1000

1070
     0
  0
LAYOUT
  5
D7
102
{ACAD_REACTORS
330
1A
102
}
330
1A
100
AcDbPlotSettings
  1

  2
C:\Documents and Settings\basas\Application Data\Autodesk\AutoCAD 2005\R16.1\enu\plotters\Default Windows System Printer.pc3
  4

  6

 40
0.0
 41
0.0
 42
0.0
 43
0.0
 44
0.0
 45
0.0
 46
0.0
 47
0.0
 48
0.0
 49
0.0
140
0.0
141
0.0
142
1.0
143
1.0
 70
   688
 72
     0
 73
     0
 74
     5
  7
monochrome.stb
 75
    16
147
1.0
 76
     0
 77
     2
 78
   300
148
0.0
149
0.0
100
AcDbLayout
  1
レイアウト2
 70
     1
 71
     2
 10
0.0
 20
0.0
 11
12.0
 21
9.0
 12
0.0
 22
0.0
 32
0.0
 14
0.0
 24
0.0
 34
0.0
 15
0.0
 25
0.0
 35
0.0
146
0.0
 13
0.0
 23
0.0
 33
0.0
 16
1.0
 26
0.0
 36
0.0
 17
0.0
 27
1.0
 37
0.0
 76
     0
330
D6
  0
MATERIAL
  5
E4
102
{ACAD_XDICTIONARY
360
1F0
102
}
102
{ACAD_REACTORS
330
78
102
}
330
78
100
AcDbMaterial
  1
ByBlock
 94
       63
  0
MATERIAL
  5
E3
102
{ACAD_XDICTIONARY
360
1EE
102
}
102
{ACAD_REACTORS
330
78
102
}
330
78
100
AcDbMaterial
  1
ByLayer
 94
       63
  0
MATERIAL
  5
E5
102
{ACAD_XDICTIONARY
360
16A
102
}
102
{ACAD_REACTORS
330
78
102
}
330
78
100
AcDbMaterial
  1
Global
 43
0.0007999999797903
 43
0.0
 43
0.0
 43
0.0
 43
0.0
 43
0.0007999999797903
 43
0.0
 43
0.0
 43
0.0
 43
0.0
 43
1.0
 43
0.0
 43
0.0
 43
0.0
 43
0.0
 43
1.0
 49
0.0007999999797903
 49
0.0
 49
0.0
 49
0.0
 49
0.0
 49
0.0007999999797903
 49
0.0
 49
0.0
 49
0.0
 49
0.0
 49
1.0
 49
0.0
 49
0.0
 49
0.0
 49
0.0
 49
1.0
142
0.0007999999797903
142
0.0
142
0.0
142
0.0
142
0.0
142
0.0007999999797903
142
0.0
142
0.0
142
0.0
142
0.0
142
1.0
142
0.0
142
0.0
142
0.0
142
0.0
142
1.0
144
0.0007999999797903
144
0.0
144
0.0
144
0.0
144
0.0
144
0.0007999999797903
144
0.0
144
0.0
144
0.0
144
0.0
144
1.0
144
0.0
144
0.0
144
0.0
144
0.0
144
1.0
 94
       63
1001
ACAD
1070
    -1
1070
     3
1070
     0
1000

1071
        0
1070
     0
  0
MLEADERSTYLE
  5
132
102
{ACAD_REACTORS
330
124
102
}
330
124
100
AcDbMLeaderStyle
179
     2
170
     2
171
     1
172
     0
 90
        2
 40
0.0
 41
0.0
173
     1
 91
-1056964608
340
14
 92
       -2
290
     1
 42
2.0
291
     1
 43
8.0
  3
Standard
 44
4.0
300

342
11
174
     1
178
     1
175
     1
176
     0
 93
-1056964608
 45
4.0
292
     0
297
     0
 46
4.0
 94
-1056964608
 47
1.0
 49
1.0
140
1.0
293
     1
141
0.0
294
     1
177
     0
142
1.0
295
     0
296
     1
143
3.75
271
     0
272
     9
273
     9
298
     0
  0
MLEADERSTYLE
  5
125
102
{ACAD_REACTORS
330
124
102
}
330
124
100
AcDbMLeaderStyle
179
     2
170
     2
171
     1
172
     0
 90
        2
 40
0.0
 41
0.0
173
     1
 91
-1056964608
340
14
 92
       -2
290
     1
 42
2.0
291
     1
 43
8.0
  3
Standard
 44
4.0
300

342
11
174
     1
178
     1
175
     1
176
     0
 93
-1056964608
 45
4.0
292
     0
297
     0
 46
4.0
 94
-1056964608
 47
1.0
 49
1.0
140
1.0
293
     1
141
0.0
294
     1
177
     0
142
1.0
295
     0
296
     0
143
3.75
271
     0
272
     9
273
     9
298
     0
  0
MLINESTYLE
  5
18
102
{ACAD_REACTORS
330
17
102
}
330
17
100
AcDbMlineStyle
  2
STANDARD
 70
     0
  3

 62
   256
 51
90.0
 52
90.0
 71
     2
 49
0.5
 62
   256
  6
BYLAYER
 49
-0.5
 62
   256
  6
BYLAYER
  0
ACDBPLACEHOLDER
  5
F
102
{ACAD_REACTORS
330
E
102
}
330
E
  0
SCALE
  5
104
102
{ACAD_REACTORS
330
103
102
}
330
103
100
AcDbScale
 70
     0
300
1:1
140
1.0
141
1.0
290
     1
  0
SCALE
  5
1B5
102
{ACAD_REACTORS
330
103
102
}
330
103
100
AcDbScale
 70
     0
300
1:2
140
1.0
141
2.0
290
     0
  0
SCALE
  5
1B6
102
{ACAD_REACTORS
330
103
102
}
330
103
100
AcDbScale
 70
     0
300
1:4
140
1.0
141
4.0
290
     0
  0
SCALE
  5
1B7
102
{ACAD_REACTORS
330
103
102
}
330
103
100
AcDbScale
 70
     0
300
1:5
140
1.0
141
5.0
290
     0
  0
SCALE
  5
1B8
102
{ACAD_REACTORS
330
103
102
}
330
103
100
AcDbScale
 70
     0
300
1:8
140
1.0
141
8.0
290
     0
  0
SCALE
  5
1B9
102
{ACAD_REACTORS
330
103
102
}
330
103
100
AcDbScale
 70
     0
300
1:10
140
1.0
141
10.0
290
     0
  0
SCALE
  5
1BA
102
{ACAD_REACTORS
330
103
102
}
330
103
100
AcDbScale
 70
     0
300
1:16
140
1.0
141
16.0
290
     0
  0
SCALE
  5
1BB
102
{ACAD_REACTORS
330
103
102
}
330
103
100
AcDbScale
 70
     0
300
1:20
140
1.0
141
20.0
290
     0
  0
SCALE
  5
1BC
102
{ACAD_REACTORS
330
103
102
}
330
103
100
AcDbScale
 70
     0
300
1:30
140
1.0
141
30.0
290
     0
  0
SCALE
  5
1BD
102
{ACAD_REACTORS
330
103
102
}
330
103
100
AcDbScale
 70
     0
300
1:40
140
1.0
141
40.0
290
     0
  0
SCALE
  5
1BE
102
{ACAD_REACTORS
330
103
102
}
330
103
100
AcDbScale
 70
     0
300
1:50
140
1.0
141
50.0
290
     0
  0
SCALE
  5
1BF
102
{ACAD_REACTORS
330
103
102
}
330
103
100
AcDbScale
 70
     0
300
1:100
140
1.0
141
100.0
290
     0
  0
SCALE
  5
1C0
102
{ACAD_REACTORS
330
103
102
}
330
103
100
AcDbScale
 70
     0
300
2:1
140
2.0
141
1.0
290
     0
  0
SCALE
  5
1C1
102
{ACAD_REACTORS
330
103
102
}
330
103
100
AcDbScale
 70
     0
300
4:1
140
4.0
141
1.0
290
     0
  0
SCALE
  5
1C2
102
{ACAD_REACTORS
330
103
102
}
330
103
100
AcDbScale
 70
     0
300
8:1
140
8.0
141
1.0
290
     0
  0
SCALE
  5
1C3
102
{ACAD_REACTORS
330
103
102
}
330
103
100
AcDbScale
 70
     0
300
10:1
140
10.0
141
1.0
290
     0
  0
SCALE
  5
1C4
102
{ACAD_REACTORS
330
103
102
}
330
103
100
AcDbScale
 70
     0
300
100:1
140
100.0
141
1.0
290
     0
  0
ACDBSECTIONVIEWSTYLE
  5
211
102
{ACAD_XDICTIONARY
360
22B
102
}
102
{ACAD_REACTORS
330
210
102
}
330
210
100
AcDbModelDocViewStyle
 70
     0
  3
Metric50
290
     0
100
AcDbSectionViewStyle
 70
     0
 71
     0
 90
      102
 71
     1
340
11
 62
   256
 40
5.0
340
0
340
0
 62
   256
 40
5.0
300
I, O, Q, S, X, Z
 40
10.0
 90
        0
 40
2.5
 90
        0
 71
     2
340
16
 90
       25
 62
   256
340
16
 90
       50
 62
   256
 40
5.0
 40
2.5
 40
5.0
 71
     3
340
11
 62
   256
 40
5.0
 90
        0
 40
15.0
 90
        1
300
%<\AcVar ViewSectionStartId>%-%<\AcVar ViewSectionEndId>% (%<\AcVar ViewScale \f "%sn">%)
 71
     4
 62
   256
 62
   257
300
ANSI31
 40
1.0
 90
        0
290
     0
290
     0
 90
        6
 40
0.0
 40
1.570796326794896
 40
0.2617993877991494
 40
1.308996938995747
 40
-0.2617993877991494
 40
1.832595714594046
  0
TABLESTYLE
  5
98
102
{ACAD_XDICTIONARY
360
159
102
}
102
{ACAD_REACTORS
330
97
102
}
330
97
100
AcDbTableStyle
280
     0
  3
Standard
 70
     0
 71
     0
 40
1.5
 41
1.5
280
     0
281
     0
  7
Standard
140
4.5
170
     2
 62
     0
 63
     7
283
     0
 90
      512
 91
        0
  1

274
    -2
284
     1
 64
     0
275
    -2
285
     1
 65
     0
276
    -2
286
     1
 66
     0
277
    -2
287
     1
 67
     0
278
    -2
288
     1
 68
     0
279
    -2
289
     1
 69
     0
  7
Standard
140
6.0
170
     5
 62
     0
 63
     7
283
     0
 90
      512
 91
        0
  1

274
    -2
284
     1
 64
     0
275
    -2
285
     1
 65
     0
276
    -2
286
     1
 66
     0
277
    -2
287
     1
 67
     0
278
    -2
288
     1
 68
     0
279
    -2
289
     1
 69
     0
  7
Standard
140
4.5
170
     5
 62
     0
 63
     7
283
     0
 90
      512
 91
        0
  1

274
    -2
284
     1
 64
     0
275
    -2
285
     1
 65
     0
276
    -2
286
     1
 66
     0
277
    -2
287
     1
 67
     0
278
    -2
288
     1
 68
     0
279
    -2
289
     1
 69
     0
  0
VISUALSTYLE
  5
EC
102
{ACAD_REACTORS
330
E6
102
}
330
E6
100
AcDbVisualStyle
  2
2dWireframe
 70
     4
177
     3
291
     0
 70
    58
 90
        0
176
     1
 90
        2
176
     1
 90
        1
176
     1
 90
        0
176
     1
 40
0.6
176
     1
 40
30.0
176
     1
 62
     7
420
 16777215
176
     1
 90
        1
176
     1
 90
        4
176
     1
 62
     7
176
     1
 62
   257
176
     1
 90
        1
176
     1
 90
        1
176
     1
 40
1.0
176
     1
 90
        0
176
     1
 62
   257
176
     1
 40
1.0
176
     1
 90
        1
176
     1
 90
        6
176
     1
 90
        2
176
     1
 62
     7
176
     1
 90
        5
176
     1
 90
        0
176
     1
 90
        0
176
     1
290
     0
176
     1
 90
        1
176
     1
 40
0.0
176
     1
 90
        0
176
     1
290
     1
176
     1
290
     1
176
     1
290
     0
176
     1
290
     0
176
     1
290
     0
176
     1
290
     0
176
     1
290
     0
176
     1
290
     0
176
     1
290
     0
176
     1
 90
       50
176
     1
 40
0.0
176
     1
 40
1.0
176
     1
 90
        0
176
     1
 62
    18
420
        0
176
     1
 90
       50
176
     1
 90
        3
176
     1
 62
     5
420
      255
176
     1
290
     0
176
     1
 90
       50
176
     1
 90
       50
176
     1
 90
       50
176
     1
290
     0
176
     1
 90
       50
176
     1
 62
   256
176
     0
 40
1.0
176
     0
 90
        2
176
     1
  1
strokes_ogs.tif
176
     1
290
     0
176
     1
 40
1.0
176
     1
 40
1.0
176
     1
  0
VISUALSTYLE
  5
EB
102
{ACAD_REACTORS
330
E6
102
}
330
E6
100
AcDbVisualStyle
  2
Basic
 70
     7
177
     3
291
     1
 70
    58
 90
        1
176
     1
 90
        0
176
     1
 90
        1
176
     1
 90
        0
176
     1
 40
0.6
176
     1
 40
30.0
176
     1
 62
     7
420
 16777215
176
     1
 90
        0
176
     1
 90
        4
176
     1
 62
     7
176
     1
 62
   257
176
     1
 90
        1
176
     1
 90
        1
176
     1
 40
1.0
176
     1
 90
        8
176
     1
 62
     7
176
     1
 40
1.0
176
     1
 90
        1
176
     1
 90
        6
176
     1
 90
        2
176
     1
 62
     7
176
     1
 90
        5
176
     1
 90
        0
176
     1
 90
        0
176
     1
290
     0
176
     1
 90
        1
176
     1
 40
0.0
176
     1
 90
        0
176
     1
290
     0
176
     1
290
     1
176
     1
290
     1
176
     1
290
     0
176
     1
290
     0
176
     1
290
     0
176
     1
290
     0
176
     1
290
     0
176
     1
290
     0
176
     1
 90
       50
176
     1
 40
0.0
176
     1
 40
1.0
176
     1
 90
        0
176
     1
 62
    18
420
        0
176
     1
 90
       50
176
     1
 90
        3
176
     1
 62
     5
420
      255
176
     1
290
     0
176
     1
 90
       50
176
     1
 90
       50
176
     1
 90
       50
176
     1
290
     0
176
     1
 90
       50
176
     1
 62
   256
176
     0
 40
1.0
176
     0
 90
        2
176
     1
  1
strokes_ogs.tif
176
     1
290
     0
176
     1
 40
1.0
176
     1
 40
1.0
176
     1
  0
VISUALSTYLE
  5
F2
102
{ACAD_REACTORS
330
E6
102
}
330
E6
100
AcDbVisualStyle
  2
Brighten
 70
    12
177
     3
291
     1
 70
    58
 90
        2
176
     1
 90
        2
176
     1
 90
        1
176
     1
 90
        0
176
     1
 40
0.6
176
     1
 40
30.0
176
     1
 62
     7
420
 16777215
176
     1
 90
        1
176
     1
 90
        4
176
     1
 62
     7
176
     1
 62
   257
176
     1
 90
        1
176
     1
 90
        1
176
     1
 40
1.0
176
     1
 90
        8
176
     1
 62
     7
176
     1
 40
1.0
176
     1
 90
        1
176
     1
 90
        6
176
     1
 90
        2
176
     1
 62
     7
176
     1
 90
        5
176
     1
 90
        0
176
     1
 90
        0
176
     1
290
     0
176
     1
 90
        1
176
     1
 40
50.0
176
     1
 90
        0
176
     1
290
     0
176
     1
290
     1
176
     1
290
     1
176
     1
290
     0
176
     1
290
     0
176
     1
290
     0
176
     1
290
     0
176
     1
290
     0
176
     1
290
     0
176
     1
 90
       50
176
     1
 40
0.0
176
     1
 40
1.0
176
     1
 90
        0
176
     1
 62
    18
420
        0
176
     1
 90
       50
176
     1
 90
        3
176
     1
 62
     5
420
      255
176
     1
290
     0
176
     1
 90
       50
176
     1
 90
       50
176
     1
 90
       50
176
     1
290
     0
176
     1
 90
       50
176
     1
 62
   256
176
     0
 40
1.0
176
     0
 90
        2
176
     1
  1
strokes_ogs.tif
176
     1
290
     0
176
     1
 40
1.0
176
     1
 40
1.0
176
     1
  0
VISUALSTYLE
  5
F6
102
{ACAD_REACTORS
330
E6
102
}
330
E6
100
AcDbVisualStyle
  2
ColorChange
 70
    16
177
     3
291
     1
 70
    58
 90
        2
176
     1
 90
        2
176
     1
 90
        3
176
     1
 90
        0
176
     1
 40
0.6
176
     1
 40
30.0
176
     1
 62
     8
420
  8421504
176
     1
 90
        1
176
     1
 90
        4
176
     1
 62
     7
176
     1
 62
   257
176
     1
 90
        1
176
     1
 90
        1
176
     1
 40
1.0
176
     1
 90
        8
176
     1
 62
     8
420
  8421504
176
     1
 40
1.0
176
     1
 90
        1
176
     1
 90
        6
176
     1
 90
        2
176
     1
 62
     7
176
     1
 90
        5
176
     1
 90
        0
176
     1
 90
        0
176
     1
290
     0
176
     1
 90
        1
176
     1
 40
0.0
176
     1
 90
        0
176
     1
290
     0
176
     1
290
     1
176
     1
290
     1
176
     1
290
     0
176
     1
290
     0
176
     1
290
     0
176
     1
290
     0
176
     1
290
     0
176
     1
290
     0
176
     1
 90
       50
176
     1
 40
0.0
176
     1
 40
1.0
176
     1
 90
        0
176
     1
 62
    18
420
        0
176
     1
 90
       50
176
     1
 90
        3
176
     1
 62
     5
420
      255
176
     1
290
     0
176
     1
 90
       50
176
     1
 90
       50
176
     1
 90
       50
176
     1
290
     0
176
     1
 90
       50
176
     1
 62
   256
176
     0
 40
1.0
176
     0
 90
        2
176
     1
  1
strokes_ogs.tif
176
     1
290
     0
176
     1
 40
1.0
176
     1
 40
1.0
176
     1
  0
VISUALSTYLE
  5
EF
102
{ACAD_REACTORS
330
E6
102
}
330
E6
100
AcDbVisualStyle
  2
Conceptual
 70
     9
177
     3
291
     0
 70
    58
 90
        3
176
     1
 90
        2
176
     1
 90
        1
176
     1
 90
        0
176
     1
 40
0.6
176
     1
 40
30.0
176
     1
 62
     7
420
 16777215
176
     1
 90
        2
176
     1
 90
        2
176
     1
 62
     7
176
     1
 62
   257
176
     1
 90
        1
176
     1
 90
        1
176
     1
 40
40.0
176
     1
 90
        8
176
     1
 62
     7
176
     1
 40
1.0
176
     1
 90
        1
176
     1
 90
        6
176
     1
 90
        2
176
     1
 62
     7
176
     1
 90
        3
176
     1
 90
        0
176
     1
 90
        0
176
     1
290
     0
176
     1
 90
        1
176
     1
 40
0.0
176
     1
 90
        0
176
     1
290
     0
176
     1
290
     1
176
     1
290
     1
176
     1
290
     0
176
     1
290
     0
176
     1
290
     0
176
     1
290
     0
176
     1
290
     0
176
     1
290
     0
176
     1
 90
       50
176
     1
 40
0.0
176
     1
 40
1.0
176
     1
 90
        0
176
     1
 62
    18
420
        0
176
     1
 90
       50
176
     1
 90
        3
176
     1
 62
     5
420
      255
176
     1
290
     0
176
     1
 90
       50
176
     1
 90
       50
176
     1
 90
       50
176
     1
290
     0
176
     1
 90
       50
176
     1
 62
   256
176
     0
 40
1.0
176
     0
 90
        2
176
     1
  1
strokes_ogs.tif
176
     1
290
     0
176
     1
 40
1.0
176
     1
 40
1.0
176
     1
  0
VISUALSTYLE
  5
F1
102
{ACAD_REACTORS
330
E6
102
}
330
E6
100
AcDbVisualStyle
  2
Dim
 70
    11
177
     3
291
     1
 70
    58
 90
        2
176
     1
 90
        2
176
     1
 90
        1
176
     1
 90
        0
176
     1
 40
0.6
176
     1
 40
30.0
176
     1
 62
     7
420
 16777215
176
     1
 90
        1
176
     1
 90
        4
176
     1
 62
     7
176
     1
 62
   257
176
     1
 90
        1
176
     1
 90
        1
176
     1
 40
1.0
176
     1
 90
        8
176
     1
 62
     7
176
     1
 40
1.0
176
     1
 90
        1
176
     1
 90
        6
176
     1
 90
        2
176
     1
 62
     7
176
     1
 90
        5
176
     1
 90
        0
176
     1
 90
        0
176
     1
290
     0
176
     1
 90
        1
176
     1
 40
-50.0
176
     1
 90
        0
176
     1
290
     0
176
     1
290
     1
176
     1
290
     1
176
     1
290
     0
176
     1
290
     0
176
     1
290
     0
176
     1
290
     0
176
     1
290
     0
176
     1
290
     0
176
     1
 90
       50
176
     1
 40
0.0
176
     1
 40
1.0
176
     1
 90
        0
176
     1
 62
    18
420
        0
176
     1
 90
       50
176
     1
 90
        3
176
     1
 62
     5
420
      255
176
     1
290
     0
176
     1
 90
       50
176
     1
 90
       50
176
     1
 90
       50
176
     1
290
     0
176
     1
 90
       50
176
     1
 62
   256
176
     0
 40
1.0
176
     0
 90
        2
176
     1
  1
strokes_ogs.tif
176
     1
290
     0
176
     1
 40
1.0
176
     1
 40
1.0
176
     1
  0
VISUALSTYLE
  5
1DD
102
{ACAD_REACTORS
330
E6
102
}
330
E6
100
AcDbVisualStyle
  2
EdgeColorOff
 70
    22
177
     3
291
     1
 70
    58
 90
        2
176
     0
 90
        2
176
     0
 90
        0
176
     0
 90
        0
176
     0
 40
0.6
176
     0
 40
30.0
176
     0
 62
     7
420
 16777215
176
     0
 90
        1
176
     0
 90
        4
176
     0
 62
     7
176
     0
 62
   257
176
     0
 90
        1
176
     0
 90
        1
176
     0
 40
1.0
176
     0
 90
        8
176
     2
 62
     7
176
     0
 40
1.0
176
     0
 90
        1
176
     0
 90
        6
176
     0
 90
        2
176
     0
 62
     7
176
     0
 90
        5
176
     0
 90
        0
176
     0
 90
        0
176
     0
290
     0
176
     0
 90
        1
176
     0
 40
0.0
176
     0
 90
        0
176
     0
290
     0
176
     1
290
     1
176
     1
290
     1
176
     1
290
     0
176
     1
290
     0
176
     1
290
     0
176
     1
290
     0
176
     1
290
     0
176
     1
290
     0
176
     1
 90
       50
176
     1
 40
0.0
176
     1
 40
1.0
176
     1
 90
        0
176
     1
 62
    18
420
        0
176
     1
 90
       50
176
     1
 90
        3
176
     1
 62
     5
420
      255
176
     1
290
     0
176
     1
 90
       50
176
     1
 90
       50
176
     1
 90
       50
176
     1
290
     0
176
     1
 90
       50
176
     1
 62
   256
176
     0
 40
1.0
176
     0
 90
        2
176
     1
  1
strokes_ogs.tif
176
     1
290
     0
176
     1
 40
1.0
176
     1
 40
1.0
176
     1
  0
VISUALSTYLE
  5
F5
102
{ACAD_REACTORS
330
E6
102
}
330
E6
100
AcDbVisualStyle
  2
Facepattern
 70
    15
177
     3
291
     1
 70
    58
 90
        2
176
     1
 90
        2
176
     1
 90
        1
176
     1
 90
        0
176
     1
 40
0.6
176
     1
 40
30.0
176
     1
 62
     7
420
 16777215
176
     1
 90
        1
176
     1
 90
        4
176
     1
 62
     7
176
     1
 62
   257
176
     1
 90
        1
176
     1
 90
        1
176
     1
 40
1.0
176
     1
 90
        8
176
     1
 62
     7
176
     1
 40
1.0
176
     1
 90
        1
176
     1
 90
        6
176
     1
 90
        2
176
     1
 62
     7
176
     1
 90
        5
176
     1
 90
        0
176
     1
 90
        0
176
     1
290
     0
176
     1
 90
        1
176
     1
 40
0.0
176
     1
 90
        0
176
     1
290
     0
176
     1
290
     1
176
     1
290
     1
176
     1
290
     0
176
     1
290
     0
176
     1
290
     0
176
     1
290
     0
176
     1
290
     0
176
     1
290
     0
176
     1
 90
       50
176
     1
 40
0.0
176
     1
 40
1.0
176
     1
 90
        0
176
     1
 62
    18
420
        0
176
     1
 90
       50
176
     1
 90
        3
176
     1
 62
     5
420
      255
176
     1
290
     0
176
     1
 90
       50
176
     1
 90
       50
176
     1
 90
       50
176
     1
290
     0
176
     1
 90
       50
176
     1
 62
   256
176
     0
 40
1.0
176
     0
 90
        2
176
     1
  1
strokes_ogs.tif
176
     1
290
     0
176
     1
 40
1.0
176
     1
 40
1.0
176
     1
  0
VISUALSTYLE
  5
E7
102
{ACAD_REACTORS
330
E6
102
}
330
E6
100
AcDbVisualStyle
  2
Flat
 70
     0
177
     3
291
     1
 70
    58
 90
        2
176
     1
 90
        1
176
     1
 90
        1
176
     1
 90
        2
176
     1
 40
0.6
176
     1
 40
30.0
176
     1
 62
     7
420
 16777215
176
     1
 90
        0
176
     1
 90
        0
176
     1
 62
     7
176
     1
 62
   257
176
     1
 90
        1
176
     1
 90
        1
176
     1
 40
1.0
176
     1
 90
        8
176
     1
 62
     7
176
     1
 40
1.0
176
     1
 90
        1
176
     1
 90
        6
176
     1
 90
        2
176
     1
 62
     7
176
     1
 90
        5
176
     1
 90
        0
176
     1
 90
        0
176
     1
290
     0
176
     1
 90
       13
176
     1
 40
0.0
176
     1
 90
        0
176
     1
290
     0
176
     1
290
     1
176
     1
290
     1
176
     1
290
     0
176
     1
290
     0
176
     1
290
     0
176
     1
290
     0
176
     1
290
     0
176
     1
290
     0
176
     1
 90
       50
176
     1
 40
0.0
176
     1
 40
1.0
176
     1
 90
        0
176
     1
 62
    18
420
        0
176
     1
 90
       50
176
     1
 90
        3
176
     1
 62
     5
420
      255
176
     1
290
     0
176
     1
 90
       50
176
     1
 90
       50
176
     1
 90
       50
176
     1
290
     0
176
     1
 90
       50
176
     1
 62
   256
176
     0
 40
1.0
176
     0
 90
        2
176
     1
  1
strokes_ogs.tif
176
     1
290
     0
176
     1
 40
1.0
176
     1
 40
1.0
176
     1
  0
VISUALSTYLE
  5
E8
102
{ACAD_REACTORS
330
E6
102
}
330
E6
100
AcDbVisualStyle
  2
FlatWithEdges
 70
     1
177
     3
291
     1
 70
    58
 90
        2
176
     1
 90
        1
176
     1
 90
        1
176
     1
 90
        2
176
     1
 40
0.6
176
     1
 40
30.0
176
     1
 62
     7
420
 16777215
176
     1
 90
        1
176
     1
 90
        0
176
     1
 62
     7
176
     1
 62
   257
176
     1
 90
        1
176
     1
 90
        1
176
     1
 40
1.0
176
     1
 90
        0
176
     1
 62
   257
176
     1
 40
1.0
176
     1
 90
        1
176
     1
 90
        6
176
     1
 90
        2
176
     1
 62
     7
176
     1
 90
        5
176
     1
 90
        0
176
     1
 90
        0
176
     1
290
     0
176
     1
 90
       13
176
     1
 40
0.0
176
     1
 90
        0
176
     1
290
     0
176
     1
290
     1
176
     1
290
     1
176
     1
290
     0
176
     1
290
     0
176
     1
290
     0
176
     1
290
     0
176
     1
290
     0
176
     1
290
     0
176
     1
 90
       50
176
     1
 40
0.0
176
     1
 40
1.0
176
     1
 90
        0
176
     1
 62
    18
420
        0
176
     1
 90
       50
176
     1
 90
        3
176
     1
 62
     5
420
      255
176
     1
290
     0
176
     1
 90
       50
176
     1
 90
       50
176
     1
 90
       50
176
     1
290
     0
176
     1
 90
       50
176
     1
 62
   256
176
     0
 40
1.0
176
     0
 90
        2
176
     1
  1
strokes_ogs.tif
176
     1
290
     0
176
     1
 40
1.0
176
     1
 40
1.0
176
     1
  0
VISUALSTYLE
  5
E9
102
{ACAD_REACTORS
330
E6
102
}
330
E6
100
AcDbVisualStyle
  2
Gouraud
 70
     2
177
     3
291
     1
 70
    58
 90
        2
176
     1
 90
        2
176
     1
 90
        1
176
     1
 90
        2
176
     1
 40
0.6
176
     1
 40
30.0
176
     1
 62
     7
420
 16777215
176
     1
 90
        0
176
     1
 90
        0
176
     1
 62
     7
176
     1
 62
   257
176
     1
 90
        1
176
     1
 90
        1
176
     1
 40
1.0
176
     1
 90
        0
176
     1
 62
     7
176
     1
 40
1.0
176
     1
 90
        1
176
     1
 90
        6
176
     1
 90
        2
176
     1
 62
     7
176
     1
 90
        5
176
     1
 90
        0
176
     1
 90
        0
176
     1
290
     0
176
     1
 90
       13
176
     1
 40
0.0
176
     1
 90
        0
176
     1
290
     0
176
     1
290
     1
176
     1
290
     1
176
     1
290
     0
176
     1
290
     0
176
     1
290
     0
176
     1
290
     0
176
     1
290
     0
176
     1
290
     0
176
     1
 90
       50
176
     1
 40
0.0
176
     1
 40
1.0
176
     1
 90
        0
176
     1
 62
    18
420
        0
176
     1
 90
       50
176
     1
 90
        3
176
     1
 62
     5
420
      255
176
     1
290
     0
176
     1
 90
       50
176
     1
 90
       50
176
     1
 90
       50
176
     1
290
     0
176
     1
 90
       50
176
     1
 62
   256
176
     0
 40
1.0
176
     0
 90
        2
176
     1
  1
strokes_ogs.tif
176
     1
290
     0
176
     1
 40
1.0
176
     1
 40
1.0
176
     1
  0
VISUALSTYLE
  5
EA
102
{ACAD_REACTORS
330
E6
102
}
330
E6
100
AcDbVisualStyle
  2
GouraudWithEdges
 70
     3
177
     3
291
     1
 70
    58
 90
        2
176
     1
 90
        2
176
     1
 90
        1
176
     1
 90
        2
176
     1
 40
0.6
176
     1
 40
30.0
176
     1
 62
     7
420
 16777215
176
     1
 90
        1
176
     1
 90
        0
176
     1
 62
     7
176
     1
 62
   257
176
     1
 90
        1
176
     1
 90
        1
176
     1
 40
1.0
176
     1
 90
        0
176
     1
 62
   257
176
     1
 40
1.0
176
     1
 90
        1
176
     1
 90
        6
176
     1
 90
        2
176
     1
 62
     7
176
     1
 90
        5
176
     1
 90
        0
176
     1
 90
        0
176
     1
290
     0
176
     1
 90
       13
176
     1
 40
0.0
176
     1
 90
        0
176
     1
290
     0
176
     1
290
     1
176
     1
290
     1
176
     1
290
     0
176
     1
290
     0
176
     1
290
     0
176
     1
290
     0
176
     1
290
     0
176
     1
290
     0
176
     1
 90
       50
176
     1
 40
0.0
176
     1
 40
1.0
176
     1
 90
        0
176
     1
 62
    18
420
        0
176
     1
 90
       50
176
     1
 90
        3
176
     1
 62
     5
420
      255
176
     1
290
     0
176
     1
 90
       50
176
     1
 90
       50
176
     1
 90
       50
176
     1
290
     0
176
     1
 90
       50
176
     1
 62
   256
176
     0
 40
1.0
176
     0
 90
        2
176
     1
  1
strokes_ogs.tif
176
     1
290
     0
176
     1
 40
1.0
176
     1
 40
1.0
176
     1
  0
VISUALSTYLE
  5
EE
102
{ACAD_REACTORS
330
E6
102
}
330
E6
100
AcDbVisualStyle
  2
Hidden
 70
     6
177
     3
291
     0
 70
    58
 90
        1
176
     1
 90
        2
176
     1
 90
        2
176
     1
 90
        0
176
     1
 40
0.6
176
     1
 40
30.0
176
     1
 62
     7
420
 16777215
176
     1
 90
        2
176
     1
 90
        2
176
     1
 62
     7
176
     1
 62
   257
176
     1
 90
        2
176
     1
 90
        1
176
     1
 40
40.0
176
     1
 90
        0
176
     1
 62
   257
176
     1
 40
1.0
176
     1
 90
        1
176
     1
 90
        6
176
     1
 90
        2
176
     1
 62
     7
176
     1
 90
        3
176
     1
 90
        0
176
     1
 90
        0
176
     1
290
     0
176
     1
 90
        1
176
     1
 40
0.0
176
     1
 90
        0
176
     1
290
     0
176
     1
290
     1
176
     1
290
     1
176
     1
290
     0
176
     1
290
     0
176
     1
290
     0
176
     1
290
     0
176
     1
290
     0
176
     1
290
     0
176
     1
 90
       50
176
     1
 40
0.0
176
     1
 40
1.0
176
     1
 90
        0
176
     1
 62
    18
420
        0
176
     1
 90
       50
176
     1
 90
        3
176
     1
 62
     5
420
      255
176
     1
290
     0
176
     1
 90
       50
176
     1
 90
       50
176
     1
 90
       50
176
     1
290
     0
176
     1
 90
       50
176
     1
 62
   256
176
     0
 40
1.0
176
     0
 90
        2
176
     1
  1
strokes_ogs.tif
176
     1
290
     0
176
     1
 40
1.0
176
     1
 40
1.0
176
     1
  0
VISUALSTYLE
  5
1DB
102
{ACAD_REACTORS
330
E6
102
}
330
E6
100
AcDbVisualStyle
  2
JitterOff
 70
    20
177
     3
291
     1
 70
    58
 90
        2
176
     0
 90
        2
176
     0
 90
        0
176
     0
 90
        0
176
     0
 40
0.6
176
     0
 40
30.0
176
     0
 62
     7
420
 16777215
176
     0
 90
        1
176
     0
 90
        4
176
     0
 62
     7
176
     0
 62
   257
176
     0
 90
        1
176
     0
 90
        1
176
     0
 40
1.0
176
     0
 90
       10
176
     2
 62
     7
176
     0
 40
1.0
176
     0
 90
        1
176
     0
 90
        6
176
     0
 90
        2
176
     0
 62
     7
176
     0
 90
        5
176
     0
 90
        0
176
     0
 90
        0
176
     0
290
     0
176
     0
 90
        1
176
     0
 40
0.0
176
     0
 90
        0
176
     0
290
     0
176
     1
290
     1
176
     1
290
     1
176
     1
290
     0
176
     1
290
     0
176
     1
290
     0
176
     1
290
     0
176
     1
290
     0
176
     1
290
     0
176
     1
 90
       50
176
     1
 40
0.0
176
     1
 40
1.0
176
     1
 90
        0
176
     1
 62
    18
420
        0
176
     1
 90
       50
176
     1
 90
        3
176
     1
 62
     5
420
      255
176
     1
290
     0
176
     1
 90
       50
176
     1
 90
       50
176
     1
 90
       50
176
     1
290
     0
176
     1
 90
       50
176
     1
 62
   256
176
     0
 40
1.0
176
     0
 90
        2
176
     1
  1
strokes_ogs.tif
176
     1
290
     0
176
     1
 40
1.0
176
     1
 40
1.0
176
     1
  0
VISUALSTYLE
  5
F4
102
{ACAD_REACTORS
330
E6
102
}
330
E6
100
AcDbVisualStyle
  2
Linepattern
 70
    14
177
     3
291
     1
 70
    58
 90
        2
176
     1
 90
        2
176
     1
 90
        1
176
     1
 90
        0
176
     1
 40
0.6
176
     1
 40
30.0
176
     1
 62
     7
420
 16777215
176
     1
 90
        1
176
     1
 90
        4
176
     1
 62
     7
176
     1
 62
   257
176
     1
 90
        7
176
     1
 90
        7
176
     1
 40
1.0
176
     1
 90
        8
176
     1
 62
     7
176
     1
 40
1.0
176
     1
 90
        1
176
     1
 90
        6
176
     1
 90
        2
176
     1
 62
     7
176
     1
 90
        5
176
     1
 90
        0
176
     1
 90
        0
176
     1
290
     0
176
     1
 90
        1
176
     1
 40
0.0
176
     1
 90
        0
176
     1
290
     0
176
     1
290
     1
176
     1
290
     1
176
     1
290
     0
176
     1
290
     0
176
     1
290
     0
176
     1
290
     0
176
     1
290
     0
176
     1
290
     0
176
     1
 90
       50
176
     1
 40
0.0
176
     1
 40
1.0
176
     1
 90
        0
176
     1
 62
    18
420
        0
176
     1
 90
       50
176
     1
 90
        3
176
     1
 62
     5
420
      255
176
     1
290
     0
176
     1
 90
       50
176
     1
 90
       50
176
     1
 90
       50
176
     1
290
     0
176
     1
 90
       50
176
     1
 62
   256
176
     0
 40
1.0
176
     0
 90
        2
176
     1
  1
strokes_ogs.tif
176
     1
290
     0
176
     1
 40
1.0
176
     1
 40
1.0
176
     1
  0
VISUALSTYLE
  5
1DC
102
{ACAD_REACTORS
330
E6
102
}
330
E6
100
AcDbVisualStyle
  2
OverhangOff
 70
    21
177
     3
291
     1
 70
    58
 90
        2
176
     0
 90
        2
176
     0
 90
        0
176
     0
 90
        0
176
     0
 40
0.6
176
     0
 40
30.0
176
     0
 62
     7
420
 16777215
176
     0
 90
        1
176
     0
 90
        4
176
     0
 62
     7
176
     0
 62
   257
176
     0
 90
        1
176
     0
 90
        1
176
     0
 40
1.0
176
     0
 90
        9
176
     2
 62
     7
176
     0
 40
1.0
176
     0
 90
        1
176
     0
 90
        6
176
     0
 90
        2
176
     0
 62
     7
176
     0
 90
        5
176
     0
 90
        0
176
     0
 90
        0
176
     0
290
     0
176
     0
 90
        1
176
     0
 40
0.0
176
     0
 90
        0
176
     0
290
     0
176
     1
290
     1
176
     1
290
     1
176
     1
290
     0
176
     1
290
     0
176
     1
290
     0
176
     1
290
     0
176
     1
290
     0
176
     1
290
     0
176
     1
 90
       50
176
     1
 40
0.0
176
     1
 40
1.0
176
     1
 90
        0
176
     1
 62
    18
420
        0
176
     1
 90
       50
176
     1
 90
        3
176
     1
 62
     5
420
      255
176
     1
290
     0
176
     1
 90
       50
176
     1
 90
       50
176
     1
 90
       50
176
     1
290
     0
176
     1
 90
       50
176
     1
 62
   256
176
     0
 40
1.0
176
     0
 90
        2
176
     1
  1
strokes_ogs.tif
176
     1
290
     0
176
     1
 40
1.0
176
     1
 40
1.0
176
     1
  0
VISUALSTYLE
  5
F0
102
{ACAD_REACTORS
330
E6
102
}
330
E6
100
AcDbVisualStyle
  2
Realistic
 70
     8
177
     3
291
     0
 70
    58
 90
        2
176
     1
 90
        3
176
     1
 90
        0
176
     1
 90
        2
176
     1
 40
0.6
176
     1
 40
30.0
176
     1
 62
     7
420
 16777215
176
     1
 90
        0
176
     1
 90
        0
176
     1
 62
     7
176
     1
 62
   257
176
     1
 90
        1
176
     1
 90
        1
176
     1
 40
1.0
176
     1
 90
        8
176
     1
 62
   257
176
     1
 40
1.0
176
     1
 90
        1
176
     1
 90
        6
176
     1
 90
        2
176
     1
 62
     7
176
     1
 90
        3
176
     1
 90
        0
176
     1
 90
        0
176
     1
290
     0
176
     1
 90
       13
176
     1
 40
0.0
176
     1
 90
        0
176
     1
290
     0
176
     1
290
     1
176
     1
290
     1
176
     1
290
     0
176
     1
290
     0
176
     1
290
     0
176
     1
290
     0
176
     1
290
     0
176
     1
290
     0
176
     1
 90
       50
176
     1
 40
0.0
176
     1
 40
1.0
176
     1
 90
        0
176
     1
 62
    18
420
        0
176
     1
 90
       50
176
     1
 90
        3
176
     1
 62
     5
420
      255
176
     1
290
     0
176
     1
 90
       50
176
     1
 90
       50
176
     1
 90
       50
176
     1
290
     0
176
     1
 90
       50
176
     1
 62
   256
176
     0
 40
1.0
176
     0
 90
        2
176
     1
  1
strokes_ogs.tif
176
     1
290
     0
176
     1
 40
1.0
176
     1
 40
1.0
176
     1
  0
VISUALSTYLE
  5
1EA
102
{ACAD_REACTORS
330
E6
102
}
330
E6
100
AcDbVisualStyle
  2
Shaded
 70
    27
177
     3
291
     0
 70
    58
 90
        2
176
     1
 90
        2
176
     1
 90
        1
176
     1
 90
        2
176
     1
 40
0.6
176
     1
 40
30.0
176
     1
 62
     7
420
 16777215
176
     1
 90
        0
176
     1
 90
        4
176
     1
 62
     7
176
     1
 62
   257
176
     1
 90
        1
176
     1
 90
        1
176
     1
 40
1.0
176
     1
 90
        8
176
     1
 62
   257
176
     1
 40
1.0
176
     1
 90
        1
176
     1
 90
        6
176
     1
 90
        2
176
     1
 62
     8
420
  7895160
176
     1
 90
        3
176
     1
 90
        0
176
     1
 90
        0
176
     1
290
     0
176
     1
 90
        5
176
     1
 40
0.0
176
     1
 90
        0
176
     1
290
     0
176
     1
290
     1
176
     1
290
     1
176
     1
290
     0
176
     1
290
     0
176
     1
290
     0
176
     1
290
     0
176
     1
290
     0
176
     1
290
     0
176
     1
 90
       50
176
     1
 40
0.0
176
     1
 40
1.0
176
     1
 90
        0
176
     1
 62
    18
420
        0
176
     1
 90
       50
176
     1
 90
        3
176
     1
 62
     5
420
      255
176
     1
290
     0
176
     1
 90
       50
176
     1
 90
       50
176
     1
 90
       50
176
     1
290
     0
176
     1
 90
       50
176
     1
 62
   256
176
     0
 40
1.0
176
     0
 90
        2
176
     1
  1
strokes_ogs.tif
176
     1
290
     0
176
     1
 40
1.0
176
     1
 40
1.0
176
     1
  0
VISUALSTYLE
  5
1E9
102
{ACAD_REACTORS
330
E6
102
}
330
E6
100
AcDbVisualStyle
  2
Shaded with edges
 70
    26
177
     3
291
     0
 70
    58
 90
        2
176
     1
 90
        2
176
     1
 90
        1
176
     1
 90
        2
176
     1
 40
0.6
176
     1
 40
30.0
176
     1
 62
     7
420
 16777215
176
     1
 90
        1
176
     1
 90
       10
176
     1
 62
     7
176
     1
 62
   257
176
     1
 90
        2
176
     1
 90
        1
176
     1
 40
1.0
176
     1
 90
        8
176
     1
 62
   257
176
     1
 40
1.0
176
     1
 90
        1
176
     1
 90
        6
176
     1
 90
        2
176
     1
 62
     7
176
     1
 90
        3
176
     1
 90
        0
176
     1
 90
        0
176
     1
290
     0
176
     1
 90
        5
176
     1
 40
0.0
176
     1
 90
        0
176
     1
290
     0
176
     1
290
     1
176
     1
290
     1
176
     1
290
     0
176
     1
290
     0
176
     1
290
     0
176
     1
290
     0
176
     1
290
     0
176
     1
290
     0
176
     1
 90
       50
176
     1
 40
0.0
176
     1
 40
1.0
176
     1
 90
        0
176
     1
 62
    18
420
        0
176
     1
 90
       50
176
     1
 90
        3
176
     1
 62
     5
420
      255
176
     1
290
     0
176
     1
 90
       50
176
     1
 90
       50
176
     1
 90
       50
176
     1
290
     0
176
     1
 90
       50
176
     1
 62
   256
176
     0
 40
1.0
176
     0
 90
        2
176
     1
  1
strokes_ogs.tif
176
     1
290
     0
176
     1
 40
1.0
176
     1
 40
1.0
176
     1
  0
VISUALSTYLE
  5
1E6
102
{ACAD_REACTORS
330
E6
102
}
330
E6
100
AcDbVisualStyle
  2
Shades of Gray
 70
    23
177
     3
291
     0
 70
    58
 90
        2
176
     1
 90
        2
176
     1
 90
        3
176
     1
 90
        0
176
     1
 40
0.6
176
     1
 40
30.0
176
     1
 62
     7
420
 16777215
176
     1
 90
        2
176
     1
 90
        2
176
     1
 62
     7
176
     1
 62
     7
176
     1
 90
        1
176
     1
 90
        1
176
     1
 40
40.0
176
     1
 90
        8
176
     1
 62
     7
176
     1
 40
1.0
176
     1
 90
        1
176
     1
 90
        6
176
     1
 90
        2
176
     1
 62
     7
176
     1
 90
        3
176
     1
 90
        0
176
     1
 90
        0
176
     1
290
     0
176
     1
 90
        1
176
     1
 40
0.0
176
     1
 90
        0
176
     1
290
     0
176
     1
290
     1
176
     1
290
     1
176
     1
290
     0
176
     1
290
     0
176
     1
290
     0
176
     1
290
     0
176
     1
290
     0
176
     1
290
     0
176
     1
 90
       50
176
     1
 40
0.0
176
     1
 40
1.0
176
     1
 90
        0
176
     1
 62
    18
420
        0
176
     1
 90
       50
176
     1
 90
        3
176
     1
 62
     5
420
      255
176
     1
290
     0
176
     1
 90
       50
176
     1
 90
       50
176
     1
 90
       50
176
     1
290
     0
176
     1
 90
       50
176
     1
 62
   256
176
     0
 40
1.0
176
     0
 90
        2
176
     1
  1
strokes_ogs.tif
176
     1
290
     0
176
     1
 40
1.0
176
     1
 40
1.0
176
     1
  0
VISUALSTYLE
  5
1E7
102
{ACAD_REACTORS
330
E6
102
}
330
E6
100
AcDbVisualStyle
  2
Sketchy
 70
    24
177
     3
291
     0
 70
    58
 90
        1
176
     1
 90
        2
176
     1
 90
        2
176
     1
 90
        0
176
     1
 40
0.6
176
     1
 40
30.0
176
     1
 62
     7
420
 16777215
176
     1
 90
        2
176
     1
 90
        2
176
     1
 62
     7
176
     1
 62
     7
176
     1
 90
        1
176
     1
 90
        1
176
     1
 40
40.0
176
     1
 90
       11
176
     1
 62
     7
176
     1
 40
1.0
176
     1
 90
        1
176
     1
 90
        6
176
     1
 90
        2
176
     1
 62
     7
176
     1
 90
        6
176
     1
 90
        0
176
     1
 90
        0
176
     1
290
     0
176
     1
 90
        1
176
     1
 40
0.0
176
     1
 90
        0
176
     1
290
     0
176
     1
290
     1
176
     1
290
     1
176
     1
290
     0
176
     1
290
     0
176
     1
290
     0
176
     1
290
     0
176
     1
290
     0
176
     1
290
     0
176
     1
 90
       50
176
     1
 40
0.0
176
     1
 40
1.0
176
     1
 90
        0
176
     1
 62
    18
420
        0
176
     1
 90
       50
176
     1
 90
        3
176
     1
 62
     5
420
      255
176
     1
290
     0
176
     1
 90
       50
176
     1
 90
       50
176
     1
 90
       50
176
     1
290
     0
176
     1
 90
       50
176
     1
 62
   256
176
     0
 40
1.0
176
     0
 90
        2
176
     1
  1
strokes_ogs.tif
176
     1
290
     0
176
     1
 40
1.0
176
     1
 40
1.0
176
     1
  0
VISUALSTYLE
  5
F3
102
{ACAD_REACTORS
330
E6
102
}
330
E6
100
AcDbVisualStyle
  2
Thicken
 70
    13
177
     3
291
     1
 70
    58
 90
        2
176
     1
 90
        2
176
     1
 90
        1
176
     1
 90
        0
176
     1
 40
0.6
176
     1
 40
30.0
176
     1
 62
     7
420
 16777215
176
     1
 90
        1
176
     1
 90
        4
176
     1
 62
     7
176
     1
 62
   257
176
     1
 90
        1
176
     1
 90
        1
176
     1
 40
1.0
176
     1
 90
       12
176
     1
 62
     7
176
     1
 40
1.0
176
     1
 90
        1
176
     1
 90
        6
176
     1
 90
        2
176
     1
 62
     7
176
     1
 90
        5
176
     1
 90
        0
176
     1
 90
        0
176
     1
290
     0
176
     1
 90
        1
176
     1
 40
0.0
176
     1
 90
        0
176
     1
290
     0
176
     1
290
     1
176
     1
290
     1
176
     1
290
     0
176
     1
290
     0
176
     1
290
     0
176
     1
290
     0
176
     1
290
     0
176
     1
290
     0
176
     1
 90
       50
176
     1
 40
0.0
176
     1
 40
1.0
176
     1
 90
        0
176
     1
 62
    18
420
        0
176
     1
 90
       50
176
     1
 90
        3
176
     1
 62
     5
420
      255
176
     1
290
     0
176
     1
 90
       50
176
     1
 90
       50
176
     1
 90
       50
176
     1
290
     0
176
     1
 90
       50
176
     1
 62
   256
176
     0
 40
1.0
176
     0
 90
        2
176
     1
  1
strokes_ogs.tif
176
     1
290
     0
176
     1
 40
1.0
176
     1
 40
1.0
176
     1
  0
VISUALSTYLE
  5
ED
102
{ACAD_REACTORS
330
E6
102
}
330
E6
100
AcDbVisualStyle
  2
Wireframe
 70
     5
177
     3
291
     0
 70
    58
 90
        0
176
     1
 90
        2
176
     1
 90
        0
176
     1
 90
        0
176
     1
 40
0.6
176
     1
 40
30.0
176
     1
 62
     7
420
 16777215
176
     1
 90
        1
176
     1
 90
        4
176
     1
 62
     7
176
     1
 62
   257
176
     1
 90
        1
176
     1
 90
        1
176
     1
 40
1.0
176
     1
 90
        0
176
     1
 62
   257
176
     1
 40
1.0
176
     1
 90
        1
176
     1
 90
        6
176
     1
 90
        2
176
     1
 62
     7
176
     1
 90
        3
176
     1
 90
        0
176
     1
 90
        0
176
     1
290
     0
176
     1
 90
        1
176
     1
 40
0.0
176
     1
 90
        0
176
     1
290
     0
176
     1
290
     1
176
     1
290
     1
176
     1
290
     0
176
     1
290
     0
176
     1
290
     0
176
     1
290
     0
176
     1
290
     0
176
     1
290
     0
176
     1
 90
       50
176
     1
 40
0.0
176
     1
 40
1.0
176
     1
 90
        0
176
     1
 62
    18
420
        0
176
     1
 90
       50
176
     1
 90
        3
176
     1
 62
     5
420
      255
176
     1
290
     0
176
     1
 90
       50
176
     1
 90
       50
176
     1
 90
       50
176
     1
290
     0
176
     1
 90
       50
176
     1
 62
   256
176
     0
 40
1.0
176
     0
 90
        2
176
     1
  1
strokes_ogs.tif
176
     1
290
     0
176
     1
 40
1.0
176
     1
 40
1.0
176
     1
  0
VISUALSTYLE
  5
1E8
102
{ACAD_REACTORS
330
E6
102
}
330
E6
100
AcDbVisualStyle
  2
X-Ray
 70
    25
177
     3
291
     0
 70
    58
 90
        2
176
     1
 90
        2
176
     1
 90
        1
176
     1
 90
        1
176
     1
 40
0.5
176
     1
 40
30.0
176
     1
 62
     7
420
 16777215
176
     1
 90
        1
176
     1
 90
        0
176
     1
 62
     7
176
     1
 62
   257
176
     1
 90
        1
176
     1
 90
        1
176
     1
 40
1.0
176
     1
 90
        8
176
     1
 62
     7
176
     1
 40
1.0
176
     1
 90
        1
176
     1
 90
        6
176
     1
 90
        2
176
     1
 62
     7
176
     1
 90
        3
176
     1
 90
        0
176
     1
 90
        0
176
     1
290
     0
176
     1
 90
       13
176
     1
 40
0.0
176
     1
 90
        0
176
     1
290
     0
176
     1
290
     1
176
     1
290
     1
176
     1
290
     0
176
     1
290
     0
176
     1
290
     0
176
     1
290
     0
176
     1
290
     0
176
     1
290
     0
176
     1
 90
       50
176
     1
 40
0.0
176
     1
 40
1.0
176
     1
 90
        0
176
     1
 62
    18
420
        0
176
     1
 90
       50
176
     1
 90
        3
176
     1
 62
     5
420
      255
176
     1
290
     0
176
     1
 90
       50
176
     1
 90
       50
176
     1
 90
       50
176
     1
290
     0
176
     1
 90
       50
176
     1
 62
   256
176
     0
 40
1.0
176
     0
 90
        2
176
     1
  1
strokes_ogs.tif
176
     1
290
     0
176
     1
 40
1.0
176
     1
 40
1.0
176
     1
  0
DICTIONARYVAR
  5
13D
102
{ACAD_REACTORS
330
67
102
}
330
67
100
DictionaryVariables
280
     0
  1
1:1
  0
DICTIONARYVAR
  5
13C
102
{ACAD_REACTORS
330
67
102
}
330
67
100
DictionaryVariables
280
     0
  1
STANDARD
  0
DICTIONARYVAR
  5
C5
102
{ACAD_REACTORS
330
67
102
}
330
67
100
DictionaryVariables
280
     0
  1
STANDARD
  0
DICTIONARYVAR
  5
21E
102
{ACAD_REACTORS
330
67
102
}
330
67
100
DictionaryVariables
280
     0
  1
Metric50
  0
DICTIONARYVAR
  5
21F
102
{ACAD_REACTORS
330
67
102
}
330
67
100
DictionaryVariables
280
     0
  1
Metric50
  0
DICTIONARYVAR
  5
68
102
{ACAD_REACTORS
330
67
102
}
330
67
100
DictionaryVariables
280
     0
  1
2
  0
DICTIONARYVAR
  5
DA8
102
{ACAD_REACTORS
330
67
102
}
330
67
100
DictionaryVariables
280
     0
  1
2
  0
DICTIONARYVAR
  5
6C
102
{ACAD_REACTORS
330
67
102
}
330
67
100
DictionaryVariables
280
     0
  1
1
  0
DICTIONARYVAR
  5
1A5
102
{ACAD_REACTORS
330
67
102
}
330
67
100
DictionaryVariables
280
     0
  1
0
  0
DICTIONARYVAR
  5
1A6
102
{ACAD_REACTORS
330
67
102
}
330
67
100
DictionaryVariables
280
     0
  1
0
  0
DICTIONARY
  5
22D
330
213
100
AcDbDictionary
280
     1
281
     1
  3
ACAD_XREC_ROUNDTRIP
360
E5B
  0
DICTIONARY
  5
1FC
330
22
100
AcDbDictionary
280
     1
281
     1
  3
AcPublish_PlotSettingsOverride
360
DA7
  0
DICTIONARY
  5
1F0
330
E4
100
AcDbDictionary
280
     1
281
     1
  3
FBXASSET
360
1F1
  0
DICTIONARY
  5
1EE
330
E3
100
AcDbDictionary
280
     1
281
     1
  3
FBXASSET
360
1EF
  0
DICTIONARY
  5
16A
330
E5
100
AcDbDictionary
280
     1
281
     1
  3
BUMPTILE
360
16C
  3
DIFFUSETILE
360
16B
  3
FBXASSET
360
1F2
  3
OPACITYTILE
360
16D
  3
REFLECTIONTILE
360
16E
  0
DICTIONARY
  5
22B
330
211
100
AcDbDictionary
280
     1
281
     1
  3
ACAD_XREC_ROUNDTRIP
360
E5A
  0
DICTIONARY
  5
159
330
98
100
AcDbDictionary
280
     1
281
     1
  3
ACAD_ROUNDTRIP_2008_TABLESTYLE_CELLSTYLEMAP
360
E59
  0
XRECORD
  5
E5B
102
{ACAD_REACTORS
330
22D
102
}
330
22D
100
AcDbXrecord
280
     1
102
DISPLAYNAME
  1
Metric50
102
FLAGS
 90
        0
  0
PLOTSETTINGS
  5
DA7
102
{ACAD_REACTORS
330
1FC
102
}
330
1FC
100
AcDbPlotSettings
  1

  2
Kyocera TASKalfa 3050ci(J) KX
  4
ANSI_A_(8.50_x_11.00_Inches)
  6

 40
4.984749794006347
 41
5.111724853515625
 42
5.154083251953125
 43
4.9847412109375
 44
297.0106506347656
 45
419.9889831542968
 46
0.0
 47
0.0
 48
33316.24093491146
 49
28289.23237812787
140
35416.24093491148
141
29774.23237812787
142
1.0
143
1.0
 70
 11952
 72
     1
 73
     1
 74
     4
  7

 75
    16
147
1.0
 76
     0
 77
     2
 78
   300
148
-33316.24093491146
149
-28289.23237812787
1001
ACAD_PSEXT
1000
Kyocera TASKalfa 3050ci(J) KX
1000
Kyocera TASKalfa 3050ci(J) KX
1000
192.168.11.123
1000

1070
     0
  0
XRECORD
  5
1F1
102
{ACAD_REACTORS
330
1F0
102
}
330
1F0
100
AcDbXrecord
280
     1
 70
     1
 90
429727718
  1
F226E010-5D7B-4EF0-9E0F-00A2E58668EA
310
504B03040A0000080000C270623B3DEE336E79000000790000001B0000006175746F6465736B2D64657369676E2D7061636B6167652E786D6C3C3F786D6C2076657273696F6E3D22312E302220656E636F64696E673D227574662D3822203F3E3C666F726D6174733E3C666F726D61743E687474703A2F2F736368656D612E
310
6175746F6465736B2E636F6D2F64657369676E2D7061636B6167652F323030393C2F666F726D61743E3C2F666F726D6174733E504B0304140006080800C270623BD486FD9CA0000000F4000000130000005B436F6E74656E745F54797065735D2E786D6C7D8EC10E82300C865F65E91D8A1E8C310C0EEA1BF002731658846E
310
D98AC1B77784ABF1D8FE5FBFBF75BBCE937A534CCEB38643598122B6FEE978D0B0485F9C41B54DDD7D022595594E1A469170414C76A4D9A4D207E29CF43ECE46F218070CC6BECC4078ACAA135ACF422C856C0E68EA1BF5669944DDD7BCDE7B1F8E415D77AECB980613C2E4AC91FC167A2B244592486606FC29C8FD7F045B9A
310
EF7053A7E60B504B0304140006080800C270623B132FA9F8EA0000007C01000008000000636F72652E786D6C8D90DD6EC3200C855F05F976223169D2D18850ADDDF6047B010434436D200A30EDF147FA236D77BBB2757C3EDB3A62FF3D5DC8975DA20B7E00562110EB7530CE8F03E474A21CC85E8A2584F4CB06C4ABC90EB0
310
CA20C5B8843CDF251D7CB23E15D50763EFA28AD12620FA529A01A2FEB493AA544EC511CFD5ACF4598DB6628FAEC0393B436E479C29FBDCC9D905E486BFBF1D5ED8336D78D7D2961F90F2233FD2572C8316D9B6EB1A51AFB014C94D8FFB7AB12A5903B241DC51C628361FACED71DB63FB84BC4714F56AFF03E5D9FC13CACEA7
310
4D737FF7864590AC3C721D4851AF5994720DAAD43537F903504B0304140006080800C270623B55019EA25F0000007C00000007000000636E782E786D6C4DCB3B0E80201045D1AD90E915ED2CF8AC45050C11660C8261F98AB1B07AC9C97D42D718D865D3E909258CFD00CCE24AC6E326A164D74DC0B4128928FF326038472B
310
A13128B1252AC747C6BAB984FC68F0B87FE8960A5C09FE86CFB69FBA01504B0304140006080800C270623B0B97CEAB6F010000D40300000C0000006662782F636F72652E786D6CC553ED6E8320147D15C2DF05416B3BD720CDDA6D4FB017A04A1DA98241307DFC5D3F9AAE4BB774BFE60F25E7DCCB3DE7207C736A6AD42BD7
310
696B721C470C23650A5B6A53E538F803C930DA08EEACF55FCA3032B251391E602C78E56C6867A8B0C62BE30135B6543328BB4E798C8A1A1639EE8A0FD5C848060F15DD316A657194958AE20868A813BCF30E04A069C8F0C6E2B03F713AE18287A0CB99D5254CD307AD1C168BECED75FB1C3F92245BA624CDB68C64BB6C475E
310
1810298B57CB65C2E9D02CB8D7CD595DE194F4AAC42261EC89C43161C97B9CAED96ACDD20796AD19E37428BF6A0A6D796753D0C62F9259EED4D66111839091F8E61622F2A8933DE8A182D32144F88C095F070D8140C85EEEEBB38F2340BD2ABC752930A50D17AA9775503095456C7CD0CF0B4EA74E983A6E0EAE6FCE48EE9E
310
F1FB8E70D4D25460427A58EE831F74F249C31C5AAB1CE9FD0919EB1A59DF67E317877FA22EE26F4A2A6C6DDD7F29A2F301D1F9F7A0C37D149F504B0304140006080800C270623BD9317DDA7D0000009D0000000B0000006662782F636E782E786D6C4DCCD10AC2201886E15B91FFDC966B53037588D27D8CE686E4344CA3CB
310
6F8B1D74F4C1C3C72B86CF1AD0DBE5974F5102399D01B9784F938F8B845A66CC010D4AE494CADF0D501C572761675062C9A93E0F9ADC3CD650360D3E3E0E34BDE1DA901EDFAE96E18ED00E6BC65A6C29B78651DEB28B864689E657DA760FAB2F504B0304140006080800C270623B609261632A010000120200003100000066
310
62782F43354338414331352D463944372D343136342D413737322D4436384443373638323733412F636F72652E786D6C8D515B6EC32010BC0AE22B55850D0E7E24C24491A39EA0172086A42831583CAA1CBF503B52FB971F16CDCECC0E2C3B3CA63BF856CE6B6B7A480A0C8132A395DA5C7B18C30575101C3873D6863F3408
310
8C98540F330C39BB3A1BE7151AAD09CA84841A2BD50A0AEF558060BCA74B0FFDF8A52651881812C3DF8A598C3771550529523BF138F3C1A5006019924FC8877AE88E03A9D1C7EED4224A1A8A8E6D5BA153D39D86B6E9AA767B64E522E42C462D57B996298EBE68E55E35C962CE829E9EF147A7445012F20AE31D2204E1EA93
310
D03D6EF698BEE36E8F312B33FD9F28CEF24551D4266CAB35EE22F39013562E0DCEA48DE7FB338C7ACCD60590E76DBC1ADF20C705C635D951562EC4F4FCE4D8D0D5D107EBD2F76E6EE7C425F562DB50CECABCA1547ED7976ADE26FF01504B0304140006080800C270623BAB1CAE584E01000033030000300000006662782F43
310
354338414331352D463944372D343136342D413737322D4436384443373638323733412F636E782E786D6CD593CD6EC32010845F0571AD6CE3D48AD20813A9873E410FBD12D82434182C7EAAE6EDBB2424CD25871E7B41D6EC30B3FA84F9E67BB2E40B4234DE8DB46F1925E094D7C6ED479AD3AE5951B2113C789FEE6C9438
310
39C1488B4C05DF079FE72A69D8C96C13AAD6B8631503449F83828872B949AC57D26200B826A308D316B4064D6E46FCDA41C05550DC9E483A00797BFD207EFB092A45DE9514C1BBD22178396BD39D891265658C238DEA00936C654E5E433CB65A26D9F6EDB5EBC14EBF49A45CB856E66048291F6939A9A81BB5C8917738143C
310
A680F4AA299D66A042CEB3354A2684DC9D8D178FE0D9B8B41CAAD720F880EE7EF93C0C18769E099ECC04D5A102C8049A8A05632F4DDF376CF1DE0F6BB65CB3E189ADD68CF1AED805DF7A6FEB258C81E067A2BC4BE012153DEFCAF811BEEA23DA0464EDC3E90F2011406DBDD0B965FC673EDDF97D23AE807F81F801504B0304
310
140006080800C270623BCB23EE24670500003C100000340000006662782F43354338414331352D463944372D343136342D413737322D4436384443373638323733412F6F626A656374732E786D6CAD575B8F9B3818FD2B887DE69664A6332B866A72ABA26ADAAA51AB7D182932E030EC0046B69966F6D7EF31180224D3662F
310
7908D8D8DFF57CC79FFDF7873C335E2817292BEE4CCF764D8316118BD322B9332BB9B76E4CE37DE073C6646F99691424A777A69A36033FE1AC2AF5544CF7A4CAE468763DFFC310112DA869441911E2CE14D113CD894D2AC9622A9EED98486227FB83EDD9CDC2A1D88493F26924B4249C16129662BE8014A331CA1B0E5DD309
310
7C477D0F7CF5AF574DDF5EE5D4FE0CF5A78590A4884E948DC44CBDD97235B9BAB5AE66B3A935BB9E78D67C3D5F5ADEBBA9BBB85E2C6EEF57B7502C2487246D09A77B33F880D8F034F29DE65367B136FC9C49112B0A1AD5FEC3C3DA662D31A6252D62E431A502DA7A5EBBC3A1A762D3FB3C5563ADB23F7D9957FD1D3D41ADED
310
EDB36F290BFF840BE21254704115AA9AF868471BFCB9C7A8858C65FA5B2A8C9C48CA539219591A72C25FCD004BD592C01F8851E8E40AE1CA0333F08EF2FAB6A2347E8DDD7356EEAB2C53D034831AD93BE09F4A515B96FE45F9796DB009B9AAD242DE6887E46B49CDE0D677EAC9C0578FE9447F6C0269EC339220E570B3F93A
310
7274A16A6FB334838FEBF0B055F5785E79C95949B954F001B4DAC4B54F1525ADD6BB28736A039C19C4FC1894AF88FC2794EFD114E48DA787D961A6B5484E0AB1673C476E6CB7FE196EFB62756FA72FE0B3D1EAD335DDCCBF5AEC3B9DB143C2782B7F00974ACDCD7FCFDF30667DA4F6D217F82F2830C6A73A94DB8864A09E87
310
B4404214288D8C610A5CBE0F0F66B0015382D9B18B644117909317DF79C177FC37B2C156B5FADEB34042477C7B01F323967559C0B637C072C293B562EDDC5B31BFFA5F6AE67EB9FDB8ADF89E44F44113CB92EED32295383B8FE0ED1B3448C4C0A367FAFA83F1188E9E2661DB4F42AE5509445BC55C053E690F0B35386A1E28
310
88B02F618AF3FC5F6878484544B38C149455AD96EE185258ED4846F709A8C226A0D3C908C59CBEA4AA9318AC189885B33EE269A942D61D7A1D4FDB6FF8F26DF309A03483F9EB1C687D3EAE0A8F741FB18CF15DF8BA6B98D004F8B06788EEEF4378EB883A4A0A105F63B9A51C1DE25D9CEEF79500EF9E89E2F7CDA29FA98E48
310
4E5FDA026A35363539033BA3F608D7F06D75A221E004073B2B76298E7194E559E57DDD6305A296FB86FCB0CACB1DC95955C84BC2E4B6FEB4D677C2FB5D8CF84164F46406DBFA69CD41D9318D8FA91AA0401D41677C1AA4673D995CAF5CCFB5AE96EFE6D66CB576ADDB95BBB65CF77EB2BABAB9BEBE59DD7716D596047E7B42
310
F56B10D1C489E8573CD561FEB63996AD193C10299C0F4D413949F3FCB6B1D116FB0EF600E0DDC64D5E6634A785240ABE0FEA25FB4AD0550C6434F39B9C24F402299F3F6C473660E6827D5F54A9D11FA3BD7A76A16AE1AC10F954E56141D26CB4513B6E9745A2DD6E43D93D1B466F876AA4E3893E54B02C8D4138B191509653
310
09DAB980ED794E0510D3EFCA637D7BB860F74BD30F4A1266B4B5E489A025CE04500DB855911CCE1BBFA185535DD49D89C3CE7EC69F2E44D340AAEF4CF09B4C232AEC10C7A36A7C6AE18000BAB08E0401355224193AEB665337EE76A9D8807E70026AFDDD924BBA25EDD7807873529638B507B45ADBA61544FFC8F1D61C8348
310
BC8695EC7C394E74CED46A50598D53FA6E8016E259AB3EA0BE7EEE9667D76B0611B9E89EF4531034522D497852DF0B947DDAA4FBE51707AD80B1F96C9459952097974BB23805982B55E0401150A165964402AA8BDF1FBF7086BB686EAC5340E071C1F29C157A70AFEFB2C6F60937D3F811B440D5F5434C5CCF7BACBB7E7D11
310
D98544509BC4E219136DC1290F465803204F8E539D0247E560B47CB334F4813183D01AB4274D69730D37503CEAE6A84AA54F96E54F1B7FA75E0A3070B4ECC1DF504B0304140006080000C270623B000000000000000000000000350000006662782F43354338414331352D463944372D343136342D413737322D4436384443
310
373638323733412F76657274696365732E62696E504B0304140006080800C270623BF270F1330600000004000000360000006662782F43354338414331352D463944372D343136342D413737322D4436384443373638323733412F747269616E676C65732E62696E636660600000504B0304140006080000C270623B000000
310
000000000000000000370000006662782F43354338414331352D463944372D343136342D413737322D4436384443373638323733412F617474726962757465732E62696E504B0304140006080800C270623B08DA0BD19000000041010000360000006662782F43354338414331352D463944372D343136342D413737322D44
310
36384443373638323733412F6469726563746F72792E786D6C858F410AC3201045AF22B36F53E9A60B35CBEEBAE80D244E44489C6234F4F835464A48035D0DF398FF9F8AF63D0E6CC63039F212F8F9020C7D47C6792B21C5FE7403D62A1188E2E60C98D7234A5830286103A55745067B9D86B8A3CF9C7F90C11DE607FB1443
310
96D7B6A82D282E9A152AD114D5EF2CB866EEE831B8EEA07A7BB5A8D7D61A2BAAEB7FD5F70921FF497D00504B0304140006080800C270623B00848760FC000000A00100003B0000006662782F43354338414331352D463944372D343136342D413737322D4436384443373638323733412F7265736F75726365732F636F7265
310
2E786D6C8D504B6E833010BD0A9A6D65B009201719474DDA9EA017B0CC84580936F2A7EAF16B0295DA5D3733A3F7D13C3D71FC9AEFC527FA609C1D8095140AB4DA8DC64E03A478211C8AA314DEB9F84B068555330EB0C220C5E45D5A76483B1BD1C68C5A37E20EAA103042A1EFF91820E82BCEAA54296645B8958BD2373561
310
C9CA4C679D1421FA1CA0D89EAC13A4C7E092D71844B5B152A464C65D63C6FCD35C0C7A9007FEFE767A611DA979DB90869F28E1677E26AF34130D655DDBD6A25ACD524433FF64D41E55C411644DE933618CD0FA83353DED7ADA3C51DE532AAA55FEC79496F19FA6646C3CD47BDCCD1640B21CE4414851AD7DE5F52833EFB55B
310
F90D504B010214000A0000080000C270623B3DEE336E79000000790000001B00000000000000000000000000000000006175746F6465736B2D64657369676E2D7061636B6167652E786D6C504B01021400140006080800C270623BD486FD9CA0000000F40000001300000000000000000000000000B20000005B436F6E7465
310
6E745F54797065735D2E786D6C504B01021400140006080800C270623B132FA9F8EA0000007C010000080000000000000000000000000083010000636F72652E786D6C504B01021400140006080800C270623B55019EA25F0000007C000000070000000000000000000000000093020000636E782E786D6C504B0102140014
310
0006080800C270623B0B97CEAB6F010000D40300000C00000000000000000000000000170300006662782F636F72652E786D6C504B01021400140006080800C270623BD9317DDA7D0000009D0000000B00000000000000000000000000B00400006662782F636E782E786D6C504B01021400140006080800C270623B609261
310
632A010000120200003100000000000000000000000000560500006662782F43354338414331352D463944372D343136342D413737322D4436384443373638323733412F636F72652E786D6C504B01021400140006080800C270623BAB1CAE584E010000330300003000000000000000000000000000CF0600006662782F43
310
354338414331352D463944372D343136342D413737322D4436384443373638323733412F636E782E786D6C504B01021400140006080800C270623BCB23EE24670500003C10000034000000000000000000000000006B0800006662782F43354338414331352D463944372D343136342D413737322D44363844433736383237
310
33412F6F626A656374732E786D6C504B01021400140006080000C270623B0000000000000000000000003500000000000000000000000000240E00006662782F43354338414331352D463944372D343136342D413737322D4436384443373638323733412F76657274696365732E62696E504B01021400140006080800C270
310
623BF270F13306000000040000003600000000000000000000000000770E00006662782F43354338414331352D463944372D343136342D413737322D4436384443373638323733412F747269616E676C65732E62696E504B01021400140006080000C270623B00000000000000000000000037000000000000000000000000
310
00D10E00006662782F43354338414331352D463944372D343136342D413737322D4436384443373638323733412F617474726962757465732E62696E504B01021400140006080800C270623B08DA0BD190000000410100003600000000000000000000000000260F00006662782F43354338414331352D463944372D343136
310
342D413737322D4436384443373638323733412F6469726563746F72792E786D6C504B01021400140006080800C270623B00848760FC000000A00100003B000000000000000000000000000A1000006662782F43354338414331352D463944372D343136342D413737322D4436384443373638323733412F7265736F757263
310
65732F636F72652E786D6C504B0506000000000E000E00800400005F1100000000
  0
XRECORD
  5
1EF
102
{ACAD_REACTORS
330
1EE
102
}
330
1EE
100
AcDbXrecord
280
     1
 70
     1
 90
429727718
  1
E2304D28-6187-4406-84E4-1B0A0969D8AC
310
504B03040A0000080000C270623B3DEE336E79000000790000001B0000006175746F6465736B2D64657369676E2D7061636B6167652E786D6C3C3F786D6C2076657273696F6E3D22312E302220656E636F64696E673D227574662D3822203F3E3C666F726D6174733E3C666F726D61743E687474703A2F2F736368656D612E
310
6175746F6465736B2E636F6D2F64657369676E2D7061636B6167652F323030393C2F666F726D61743E3C2F666F726D6174733E504B0304140006080800C270623BD486FD9CA0000000F4000000130000005B436F6E74656E745F54797065735D2E786D6C7D8EC10E82300C865F65E91D8A1E8C310C0EEA1BF002731658846E
310
D98AC1B77784ABF1D8FE5FBFBF75BBCE937A534CCEB38643598122B6FEE978D0B0485F9C41B54DDD7D022595594E1A469170414C76A4D9A4D207E29CF43ECE46F218070CC6BECC4078ACAA135ACF422C856C0E68EA1BF5669944DDD7BCDE7B1F8E415D77AECB980613C2E4AC91FC167A2B244592486606FC29C8FD7F045B9A
310
EF7053A7E60B504B0304140006080800C270623B6C505844EA0000007C01000008000000636F72652E786D6C8D90416EC3201045AF82665B61834B1DC7C244B5EB1BF402088883128365A0EAF18B13476A775DCDE8CF7F33A3CF4FDFF30D7D993558EF3AA00501649CF2DABAA98314CFB80174127CF53EFEB2017272361D6C
310
32083EAD3E2DBBA4BC8BC6C5AC3AAFCD2ECA104C04A46EB9E920A88B99652153CC8E702D16A9AE7232057D76194EC96AF4386275DE67CFD6AC20081DC7633D50FCC1688F197BA3F8FD30F6781846D2B3C3D83475C5CB0D163CDAF9795FAD4646A34154841C31A598549F94B5A46E097B214D4B082F37FB1F282DFA9F50B22E
310
BE56FBBB0F2C80A0F991FB40F072CB22977B50B96EB9891F504B0304140006080800C270623B55019EA25F0000007C00000007000000636E782E786D6C4DCB3B0E80201045D1AD90E915ED2CF8AC45050C11660C8261F98AB1B07AC9C97D42D718D865D3E909258CFD00CCE24AC6E326A164D74DC0B4128928FF326038472B
310
A13128B1252AC747C6BAB984FC68F0B87FE8960A5C09FE86CFB69FBA01504B0304140006080800C270623B85AE40E170010000D40300000C0000006662782F636F72652E786D6CC553ED6E8320147D15C2DF4501E7FA15A4593BDF602F40913A53058360FAF8BB7E345D976EE97ECD1F4ACEB9977BCE41F8F6DCD4A8D7AEAB
310
ACC9308B2946DA285B54A6CC70F0C76885D1567067ADFF528691918DCEF00063C14B67433B43CA1AAF8D07D4D842CFA0EC3AED3152352C32DCA90FDDC858060F15DD296EA53AC952C72C061AEA04EFBC0301681A32BCB1381ECE9C4CB8E02154C5CC56054CAB8E9576585096E7EBC59E456F29DB4569FAC2A2D765BE8BF6FB
310
9CEED265BE5A2D124E8666C17DD55CD429A7A5D7051609A5EB88B18826EF2CDDD0C586A64F74B5A19493A1FCA629B4C5834DA132FE3999E54E6D1D160C848CC437B71091479DEC410F119C0C21C2674CF83668080442F6F2505F7C9C00EAB5F2D6A5C014365CA95ED641C3541AD3F1413F2F38993A61EAB839B8BE3B237978
310
C6EF3BC2514B538209E96179087ED0C9270D7368AD7651EFCFC858D7C8FA311BBF38FC1375157F5792B2B575FFA588CC0744E6DF830CF7517C02504B0304140006080800C270623BD959F09C7C0000009D0000000B0000006662782F636E782E786D6C4DCCD10A83201886E15B91FFDC4A2BF0400D0BBD8F581632D3E13476
310
F9ABD1C18E3E78F878F9F0D93D3A6C7ABB180490AA0164C3232E2E6C024A5E310334489E62CC7F374061DEAD808B41F22DC5F2BA69B1EB5C7C3ED5BBF0BCB11F29514A1BACD44471C74C8BC7C968CC28D13D316DC71A06B5E4F5AF74EE15965F504B0304140006080800C270623BD97BE6F829010000120200003100000066
310
62782F35423231414145462D414143322D343846332D424346452D3832314535314633343830382F636F72652E786D6C8D515B6EC32010BC0AE22B55850D0E8EDC081339517C825E8018E2A2C460F1A872FC42ED48ED5F7E58343B333BB0ECF098EEE05B39AFAD6921293004CA0C566A33B630862B6A203870E6AC0D7F6810
310
1831A916661872363A1BE7151AAC09CA84841A2BD50A0AEF558060B8A74B0BFDF0A52651881812C3DF8A590C3731AA8214A99D789CF9E05200B00CC927E4F5B1225D77EE51D79D2A449B7E8B8EA7FE8C9A8A9C6BD26F69831B562E42CE62D472956B99E2E8AB56EE55932CE62CE8E9197F704A042521AF30FE4084205C7D12
310
BAC7BB3DA6EFB8D963CCCA4CFF278AB37C5114B509DB6A8DBBC83CE484954B833369E3E5FE0CA31EB37501E4791BAF8637C87181714D680AB110D3F393E38EAE8E3E5897BE7773BB242EA917DB1DE5ACCC1B4AE5777DA9E66DF21F504B0304140006080800C270623BAB1CAE584E01000033030000300000006662782F3542
310
3231414145462D414143322D343846332D424346452D3832314535314633343830382F636E782E786D6CD593CD6EC32010845F0571AD6CE3D48AD20813A9873E410FBD12D82434182C7EAAE6EDBB2424CD25871E7B41D6EC30B3FA84F9E67BB2E40B4234DE8DB46F1925E094D7C6ED479AD3AE5951B2113C789FEE6C943839
310
C1488B4C05DF079FE72A69D8C96C13AAD6B8631503449F83828872B949AC57D26200B826A308D316B4064D6E46FCDA41C05550DC9E483A00797BFD207EFB092A45DE9514C1BBD22178396BD39D891265658C238DEA00936C654E5E433CB65A26D9F6EDB5EBC14EBF49A45CB856E66048291F6939A9A81BB5C8917738143CA6
310
80F4AA299D66A042CEB3354A2684DC9D8D178FE0D9B8B41CAAD720F880EE7EF93C0C18769E099ECC04D5A102C8049A8A05632F4DDF376CF1DE0F6BB65CB3E189ADD68CF1AED805DF7A6FEB258C81E067A2BC4BE012153DEFCAF811BEEA23DA0464EDC3E90F2011406DBDD0B965FC673EDDF97D23AE807F81F801504B030414
310
0006080800C270623B086A6785630500003C100000340000006662782F35423231414145462D414143322D343846332D424346452D3832314535314633343830382F6F626A656374732E786D6CAD575D739B3814FD2B0CFB0C189BA4CE0EA193D849C6D34DDBA9A79D7DC88C47804CD8006224913AFDF57B040203B65BEF87
310
1F0C12D2FD3CF7E8CA7FBFCB33E3957291B2E2DA74ED8969D02262715A24D76625B7D6DC34DE073E674CF696994641727A6DAA6933F013CEAA524FC5744BAA4C8E66EF6FFF3444440B6A1A514684B83645F44C7362934AB2988A173B2692D8C97667BB76B3702836E1A47C1E092D09A78584A5982F20C5688C7287C389E904
310
BEA3BE07BEFAD7AB66A75739B53F43FD69212429A20365233133D75BDE4D2FAEAC0BCF9B59DEE5D4B56EEF6F9796FB6E36595C2E1657377757502C2487246D09A75B3378406C781AF94EF3A9B3581B7ECCA48815058D6AFFE1616DB39618D3921631F29852016D3DAF27C3A1AB62D3FB3C5363ADB23F7D9E57FD1D3D41ADED
310
EDB36F290BFF820BE21C54704115AA9AF868471BFC4DF6510B19CBF4B75418399194A72433B234E484BF990196AA25813F10A3D0C915C2950766E0EEE5F56D4569FC1ABBC7ACDC5659A6A0690635B237C03F95A2B62CFD41F9716DB009B9AAD242CEB543F2ADA46670E53BF564E0ABC76CAA3F368134B619499072B8D97C1D
310
39BA50B5B75A9AC187FB70B756F5785C79C95949B954F001B4DAC4B54F1525ADD63D2B736A039C19C47C1F942F88FC4794EFDE14E48DA73B6FE7692D9293426C19CF911B7B52FF8C49FB62756F872FE0B3D1EAC335DDCCBF5AEC3B9DB143C238953F804BA566FEDFF3378C591FA9BDF405FE2B0A8CF1990EE53A2219A8E731
310
2D9010054A23639802976FC39D19ACC0946076EC2259D005E4E0C5775EF11DFF8D6CB055ADBEF72C90D011DF9EC1FC88655D16B0ED04580E78B256AC9D3B15F38BFFA5666E96EB0FEB8A6F49441F35B12CE9362D5289B3730FDEBE4183440C3C7AA16FDF198FE1E86112D6FD24E45A9540B455CC55E093F6B05083BDE68182
310
08FB12A638CFFF8586C7544434CB484159D56AE98E2185D58E64749F802A6C023A9B8E50CCE96BAA3A89C18A815938EB239E962A64DDA1D7F1B47DC297AFAB8F00A519DCBEFD41DEFA8419EEE93E6219E39BF06DD330A109F061CF10DDDF86F0D61175941420BEC6724B393AC49B38DD6E2B01DE3D12C56FAB453F531D911C
310
BEB405D46A6C6AD2033BA3F608D7F06D75A221E004073B2B36298E7194E551E57DDD6305A2967B427E58E5E586E4AC2AE439619AB4FEB4D677C2FB5D8CF84E64F46C06EBFA69DD82B2631A9F48A83A828EF83448CFDD7436F196D3B975E9CEDF599E37B9B4E6DE9D67B9B7939BC9D5E5D5727E83F00F2BA03DA1FA358868E2
310
44F42B9EEA307F5DEDCBD60C1E8914CE4353504ED23CBFAE6CB4C5BE833D0078B771959719CD69218982EFA37AC9BE1074150319CDFC2A27093D43CAA787F5C806CC9CB1EFB32A35FA7DB457CF2E542D1C15229FAB3C2C489A8D366AC7EDB248B4DB6D28BB67C3E8ED508D743CD1870A96A53108273612CA722A413B67B03D
310
CFA90062FA5D79AC6F0F67EC7E6DFA4149C28CB6963C13B4C49900AA413A552487F3C66F68E15417756DE2B0B35FF0A70BD13490EA6B13FC26D3880A3BC4F1A81A9F5A3820802EAC2341809E144986CEBAD9D48DBB5D2A36A01F9C805A7FB7E49C6E49FB3520DE9C94254EED01ADD6B66905D13F72BC35C72012AF61253B5F
310
F6139D33B59A005C0377BA075A8817AD7A87FAFAB95BAE5DAF1944E4AC7BD24F41D048B524E1497D2F5041D726DD2C3F3B68058CD527A3CCAA04B93C5F92C529C05CA902078A800A2DB32412505DFCFEF49933DC4573E33E05049E162CCF59A10737FA2E6BAC9F71338D9F400B545D3FC474E2BA4F75D7AF2F229B90086A93
310
58BC60A22D38E5C1086B00E4C171AAAF678ECAC168F96A69E803C383D01AB4074D69730D37503CEAE6A84AA54F96E54F1B7FA75E0A1470B4ECC1DF504B0304140006080000C270623B000000000000000000000000350000006662782F35423231414145462D414143322D343846332D424346452D38323145353146333438
310
30382F76657274696365732E62696E504B0304140006080800C270623BF270F1330600000004000000360000006662782F35423231414145462D414143322D343846332D424346452D3832314535314633343830382F747269616E676C65732E62696E636660600000504B0304140006080000C270623B0000000000000000
310
00000000370000006662782F35423231414145462D414143322D343846332D424346452D3832314535314633343830382F617474726962757465732E62696E504B0304140006080800C270623B08DA0BD19000000041010000360000006662782F35423231414145462D414143322D343846332D424346452D383231453531
310
4633343830382F6469726563746F72792E786D6C858F410AC3201045AF22B36F53E9A60B35CBEEBAE80D244E44489C6234F4F835464A48035D0DF398FF9F8AF63D0E6CC63039F212F8F9020C7D47C6792B21C5FE7403D62A1188E2E60C98D7234A5830286103A55745067B9D86B8A3CF9C7F90C11DE607FB144396D7B6A82D
310
282E9A152AD114D5EF2CB866EEE831B8EEA07A7BB5A8D7D61A2BAAEB7FD5F70921FF497D00504B0304140006080800C270623B7FFB76DCFC000000A00100003B0000006662782F35423231414145462D414143322D343846332D424346452D3832314535314633343830382F7265736F75726365732F636F72652E786D6C8D
310
504B6E833010BD0A9A6D65B029250419478572835EC032136A25D8C89FAAC7AF09546A77DDCC8CDE47F3F4F8E56BB9679FE8BCB6A6039653C8D0283B69337710C39534905D0477D6865F32C88C5CB0830D06C16767E37A40CA9A802624D4D8090F507A8F0132754F47075E7DE02273194352F85BBE4A759333E62C4F74D209
310
EE834B01B2FDC9364138F4363A859E173B2B788C7A3A347A4A3FF555A30341D9389EEB8192B78AF5A4AA5E18793D8D3D198691F6D5696C9ABAE4C566163CE8E527A37228034E204A4ACF843142CB7756B5B46E69F5449B96525E6CF23FA6B84EFF34456DC27379C4DD6D1E044B411E84E0C5D6575A8F32D3DEBA15DF504B01
310
0214000A0000080000C270623B3DEE336E79000000790000001B00000000000000000000000000000000006175746F6465736B2D64657369676E2D7061636B6167652E786D6C504B01021400140006080800C270623BD486FD9CA0000000F40000001300000000000000000000000000B20000005B436F6E74656E745F5479
310
7065735D2E786D6C504B01021400140006080800C270623B6C505844EA0000007C010000080000000000000000000000000083010000636F72652E786D6C504B01021400140006080800C270623B55019EA25F0000007C000000070000000000000000000000000093020000636E782E786D6C504B01021400140006080800
310
C270623B85AE40E170010000D40300000C00000000000000000000000000170300006662782F636F72652E786D6C504B01021400140006080800C270623BD959F09C7C0000009D0000000B00000000000000000000000000B10400006662782F636E782E786D6C504B01021400140006080800C270623BD97BE6F829010000
310
120200003100000000000000000000000000560500006662782F35423231414145462D414143322D343846332D424346452D3832314535314633343830382F636F72652E786D6C504B01021400140006080800C270623BAB1CAE584E010000330300003000000000000000000000000000CE0600006662782F354232314141
310
45462D414143322D343846332D424346452D3832314535314633343830382F636E782E786D6C504B01021400140006080800C270623B086A6785630500003C10000034000000000000000000000000006A0800006662782F35423231414145462D414143322D343846332D424346452D3832314535314633343830382F6F62
310
6A656374732E786D6C504B01021400140006080000C270623B00000000000000000000000035000000000000000000000000001F0E00006662782F35423231414145462D414143322D343846332D424346452D3832314535314633343830382F76657274696365732E62696E504B01021400140006080800C270623BF270F1
310
3306000000040000003600000000000000000000000000720E00006662782F35423231414145462D414143322D343846332D424346452D3832314535314633343830382F747269616E676C65732E62696E504B01021400140006080000C270623B0000000000000000000000003700000000000000000000000000CC0E0000
310
6662782F35423231414145462D414143322D343846332D424346452D3832314535314633343830382F617474726962757465732E62696E504B01021400140006080800C270623B08DA0BD190000000410100003600000000000000000000000000210F00006662782F35423231414145462D414143322D343846332D424346
310
452D3832314535314633343830382F6469726563746F72792E786D6C504B01021400140006080800C270623B7FFB76DCFC000000A00100003B00000000000000000000000000051000006662782F35423231414145462D414143322D343846332D424346452D3832314535314633343830382F7265736F75726365732F636F
310
72652E786D6C504B0506000000000E000E00800400005A1100000000
  0
XRECORD
  5
16C
102
{ACAD_REACTORS
330
16A
102
}
330
16A
100
AcDbXrecord
280
     1
270
     1
271
     1
  0
XRECORD
  5
16B
102
{ACAD_REACTORS
330
16A
102
}
330
16A
100
AcDbXrecord
280
     1
270
     1
271
     1
  0
XRECORD
  5
1F2
102
{ACAD_REACTORS
330
16A
102
}
330
16A
100
AcDbXrecord
280
     1
 70
     0
 90
1673772943
  1
AEB1D1DA-B7DF-4CBA-830A-738AA2653737
310
504B03040A0000080000C270623B3DEE336E79000000790000001B0000006175746F6465736B2D64657369676E2D7061636B6167652E786D6C3C3F786D6C2076657273696F6E3D22312E302220656E636F64696E673D227574662D3822203F3E3C666F726D6174733E3C666F726D61743E687474703A2F2F736368656D612E
310
6175746F6465736B2E636F6D2F64657369676E2D7061636B6167652F323030393C2F666F726D61743E3C2F666F726D6174733E504B0304140006080800C270623BD486FD9CA0000000F4000000130000005B436F6E74656E745F54797065735D2E786D6C7D8EC10E82300C865F65E91D8A1E8C310C0EEA1BF002731658846E
310
D98AC1B77784ABF1D8FE5FBFBF75BBCE937A534CCEB38643598122B6FEE978D0B0485F9C41B54DDD7D022595594E1A469170414C76A4D9A4D207E29CF43ECE46F218070CC6BECC4078ACAA135ACF422C856C0E68EA1BF5669944DDD7BCDE7B1F8E415D77AECB980613C2E4AC91FC167A2B244592486606FC29C8FD7F045B9A
310
EF7053A7E60B504B0304140006080800C270623BC5983BD0EB0000007C01000008000000636F72652E786D6C8D904D6EC3201085AF82665B6103F1BF3091AB2427E80510262E4A0C9681AAC72F4E1CA9DD7535A337EF9B193D7EFC9EEFE84BAFDE38DB03CD08206D951B8D9D7A88E18A1B4047C157E7C22F1B202B67DDC326
310
83E0D3EAE2B24BCAD9A06D48AA75A3DE45E9BD0E80D43D353D78F5A96799C91892C3DFB245AA9B9C74465F5D826334237A1E3163DA67AE46AF20CABAA887E1FD82D9401A5C9CCA136ED8E58CEBF650B2BAA8CE557BE6F9060B1ECCFCBAAF562D831E4130425A4C2926EC83161DA93A52BC91A62384E79BFD0F1497F19F5034
310
361CD8FEEE13F320687AE431103CDFB248E51154AA5B6EE207504B0304140006080800C270623B55019EA25F0000007C00000007000000636E782E786D6C4DCB3B0E80201045D1AD90E915ED2CF8AC45050C11660C8261F98AB1B07AC9C97D42D718D865D3E909258CFD00CCE24AC6E326A164D74DC0B4128928FF32603847
310
2BA13128B1252AC747C6BAB984FC68F0B87FE8960A5C09FE86CFB69FBA01504B0304140006080800C270623BEE35DAD072010000D40300000C0000006662782F636F72652E786D6CC553ED6E8230147D95A67F1768411435A5C6457D82BD4085CA1AA125A5253EFE2E1FC6B938E37E8D1FD09C736FEF39A7946D2E75853A69
310
5B657486A3906224756E0AA5CB0C7B770A96186D38B3C6B86F65186951CB0CF730E6ACB4C63713941BEDA476806A53C809146D2B1D4679058B0CB7F9A7AC4528BC838AF61C36223F8B5286510834D471D63A0B02D038A47F637E3A5E181971CEBC57C5C4AA02A6A9939216F3799AA4DBEDFB2188B7741924BBF92E58C6877D
310
90AE66F3384D16FBC56ACF48DFCC9953F5555D6EA570B2C03CA67415445140E38F2859D3C59A266F74B9A69491BEFCAEC937C58B4D5E69378B27B9635B8B79044206E2875B88C8A15674A0877046FA10E133247C1F340402213B71ACAE3ECE00753277C626C014C6DFA84E545EC2541AD2E141BF2F18193B61EAB039B87E38
310
237E79C6F31DE1A8852EC18470B03C7AD7EB64A38629B446DAA07317A48DAD45F59A8D270EFF44DDC43F94949BCAD8FF5244A60322D3EF41FAFBC8BF00504B0304140006080800C270623BD65DADFA7E0000009D0000000B0000006662782F636E782E786D6C4DCCD10A83201886E15B91FFDC651665A0C64C771FB12C62A6
310
C3E9D8E5AF46073BFAE0E1E3E5FD6773E86DE36B0D5E40792180ACBF8769F58B809C66CC00F592C710D2DF0D901F372BE060907C89213F4F9AEC3C66977675AB7F9C488DBA1A4309AE06D6E25ADD4ADCB5BAC2A4D1BAA135EBD440A190BCF895F63DC2F20B504B0304140006080800C270623B16D345222A01000012020000
310
310000006662782F32454241454532302D334338372D344246312D393744332D3036444436323438394243322F636F72652E786D6C8D515B6EC32010BC0AE2AB55850DC4719C0813358F9EA01720405294182C1E558E5FA81DA9FDCB0F8B66676607966DEFC30D7C6B1F8CB33D241586405BE994B1971EA678461D045BCEBC
310
73F10F0D022B06DDC30243CE2EDEA57186A4B351DB9851EB949E4111828E10C85BBEF430C82F3D884AA49819E15A8D425EC54557A4CAEDCCE32C449F038069483921A7C7DDFBF148315AECBB156A761F04AD578705C2EDE1D0D2A65BEFF694D59390B3948C9AE546E538E66CB47FD6A488398B6678C4975E8BA855D663BC46
310
84204C3F49B3C1ED06376FB8DB60CCEA42FF274AA37A52948C8D0B3AC79D640172C2EAA9C19972E9747B84D1F7D1F908CABC97A0E52BE4B8C2784968CBEA89989F9F1DDB66760CD1F9FCBD2FD753E692E564DB369CD56543B9FCAE2FD7B24DFE03504B0304140006080800C270623BAB1CAE584E0100003303000030000000
310
6662782F32454241454532302D334338372D344246312D393744332D3036444436323438394243322F636E782E786D6CD593CD6EC32010845F0571AD6CE3D48AD20813A9873E410FBD12D82434182C7EAAE6EDBB2424CD25871E7B41D6EC30B3FA84F9E67BB2E40B4234DE8DB46F1925E094D7C6ED479AD3AE5951B2113C78
310
9FEE6C943839C1488B4C05DF079FE72A69D8C96C13AAD6B8631503449F83828872B949AC57D26200B826A308D316B4064D6E46FCDA41C05550DC9E483A00797BFD207EFB092A45DE9514C1BBD22178396BD39D891265658C238DEA00936C654E5E433CB65A26D9F6EDB5EBC14EBF49A45CB856E66048291F6939A9A81BB5C8
310
917738143CA680F4AA299D66A042CEB3354A2684DC9D8D178FE0D9B8B41CAAD720F880EE7EF93C0C18769E099ECC04D5A102C8049A8A05632F4DDF376CF1DE0F6BB65CB3E189ADD68CF1AED805DF7A6FEB258C81E067A2BC4BE012153DEFCAF811BEEA23DA0464EDC3E90F2011406DBDD0B965FC673EDDF97D23AE807F81F8
310
01504B0304140006080800C270623B849BF81A650500003B100000340000006662782F32454241454532302D334338372D344246312D393744332D3036444436323438394243322F6F626A656374732E786D6CAD575B739B3814FE2B0CFB0C98D869921D42C797A6E3E9A4CDD4D3CE3E64C62340266C406224913AFBEBF713
310
080CD869BD173F18248ECEF53B1705EFF7456EBD502133CE6E6DDF9DD81665314F3296DEDA95DA39D7B6F53E0C04E7AA47665B8C14F4D6D6DB7618A48257A5D94AE88E54B91AEDDE2DFEB0644C19B5AD382752DEDA327EA2057149A57842E5B39B1045DC74B7777DB7211CB24D05299F464C4B222853D014FB0C5CAC46297F
310
B89CD85E1878FA7B18E87F43357D9BCAABED19CACF985484C547C2466CA6FE6CF5E1E2F2C6B99CCDA6CEECDD85EF2CEE162BC7BF9A4E96EF96CB9BF9871B08964A8093D144D09D1D7E846F4416075EF3A9D3D8287E4AA5983346E3DA7E5858EB6C3826B4A42C411C332A21AD67F564B8F4B56F7A9FA77A6D44F6B7CFB3AA7F
310
A2C7A8D5BD7DF635E5D19F30419E830A21A94655E31F636883BFC9C16B11E7B9F99649AB208A8A8CE4569E458288573B04A9260983011B8D4EA111AE2DB043FFC0AFAF2B52E3D7D83DA5E5AECA730D4D3BAC91BD05FEA992B566D95F549C96069D10AB2A63EADA18A45E4B6A873781576F86817E4C2FCCC7C691D62E272942
310
0E339BAF2343973AF7D62B3BFC7417ED373A1F4F0B2F052FA9501A3E80561BB8F6A9BD64C4FA67454E1F8031039F1F9CF2159EFF8CF43DA882B8896C3FDBCF8C142508933B2E0AC4C69DD43F6BD2BE38DDDBF10BEAD988FA98A6DBF957C481D7293B2C186FC50FE0D2A1B9FEEFF11BFAAC8FD45EF8C2E00509C6C5D4B87213
310
931CA5E73E63088806A595736CA196EFA2BD1DAE512951D9718AE461E790A397C07BC177FC37BC51AD6AF1BD27434047F5F68CCA0F5FD66901DDDE00CB519DAC051BE3DEF2F9E5FF9233F3D5E6D3A6123B12D37B5358567497B14CA1771EC0DB576810888145CFF4F50717090C3D0EC2A61F84C28892F0B6F6B9767CDA360B
310
BD38481E0888712EE5BAE605BF90709FC998E639619457AD94AE0D69AC7645C6CC09C8C2C6A1D38B118A057DC9F42431A018A8855E1F8BACD42EEB9A5E57A7DD376CF9B6FE0C50823EE711C90F44D1A1DAC73CE7621BBD6E9B4268037B383204F7F721BA8D433DCD0580AFA1DC561CE3E16D92ED769544D93DE1C4EFEB653F
310
505D1D397E69F3A795D8A4E40CC519A94784416F2B13F38020E8EB9C6D33747164E549E17DD96301B2E6FB06FFA82ACA2D2978C5D4396E9AB4F6B4DA77CCFB438CFC4154FC64879BFAE92C50B1139A1C42350081EE40276C1A8467FE61E1AFFCD5DC595CADEE9CD9723177AEA793B97335BD9ECF2FDE5D4EAFA6579D46B526
310
61D036A87E0AC29B6888412532E3E66FEB43D6DAE13D51D2FBD8E4939736CF6F6B175371E0E10CF0DD1D5C17654E0BCA14D1E8BDD72FF95782A162C0A3D95F1724A56770F9F27133D2013B679C7BD099467F8CCE9ADDA5CE85934CD45355448C64F9E8A031DC2D596ACC6E5DD93D9B82DE2EF5CAF81363A8E47996A0DE2456
310
4A794115AACE19C55E14540231FDA13C319787334EBF34E3A022514E5B4D9E0826E25C02D5805B15ABE1BEF51B26383D44DDDAE875EE33FE4C22DA16427D6BA3BCA92CA6D28DD01DF5DC53330704308475351050232CCD31583787BA75774AFB06E5070DD0C8EF48CE19968C5D83BA5B90B244D31E54D55A372320FE4786B7
310
EA5844E135AA5467CB61A333A61683CC6A8C3257034C10CF46F41EF9F573B37CB7A61978E4AC6BD24F41D070751411697D2DD0FA1995E6AB070F9380B5FE629579952296E773720405982B9DE04011506178964401AACBDF1F1F04C755B4B0EE3240E071C98B8233B3989BABACB579C2C534794459A0FAF6212F26BEFF580F
310
FDE61EB28D88A42E49E43336DA84D3168CB006401E755313024FC76044BE5E59A661CCC0B406EDD14CDADCC22D248FBE38EA54E917CBF2A773BF5793020C02137BF837504B0304140006080000C270623B000000000000000000000000350000006662782F32454241454532302D334338372D344246312D393744332D3036
310
444436323438394243322F76657274696365732E62696E504B0304140006080800C270623BF270F1330600000004000000360000006662782F32454241454532302D334338372D344246312D393744332D3036444436323438394243322F747269616E676C65732E62696E636660600000504B0304140006080000C270623B
310
000000000000000000000000370000006662782F32454241454532302D334338372D344246312D393744332D3036444436323438394243322F617474726962757465732E62696E504B0304140006080800C270623B08DA0BD19000000041010000360000006662782F32454241454532302D334338372D344246312D393744
310
332D3036444436323438394243322F6469726563746F72792E786D6C858F410AC3201045AF22B36F53E9A60B35CBEEBAE80D244E44489C6234F4F835464A48035D0DF398FF9F8AF63D0E6CC63039F212F8F9020C7D47C6792B21C5FE7403D62A1188E2E60C98D7234A5830286103A55745067B9D86B8A3CF9C7F90C11DE607
310
FB144396D7B6A82D282E9A152AD114D5EF2CB866EEE831B8EEA07A7BB5A8D7D61A2BAAEB7FD5F70921FF497D00504B0304140006080800C270623BAD7266E1FD000000A00100003B0000006662782F32454241454532302D334338372D344246312D393744332D3036444436323438394243322F7265736F75726365732F63
310
6F72652E786D6C8D50596E833010BD0A9ADFCA6008BB8C23AAD013F4029699502BC1465EAA1EBF26A152FBD79F99D15B344F8F9DBFD67BF289D629A307C8530A096A6966A5970182BF9216923367D618FF4B0689162B0EB0C3C0D9624DD80E481AED51FB886A33E3010AE7D04322EFF118C0C90F5C452A828F0A774B37216F
310
62C1344F231D759C396F6380E4F9649FC02D3A13AC44C7B227CB59086A3E346A8E3FD555A1055E3565338EAF132946DA92F2525D485BBC4DA4E94E55D194F5547713CB7633675EAD3F19A545E171065E50DA913C27B478CFCB9ED63D2D5F68DB53CAB25DFEC714B6F99FA6A0B43F1547DCA7CD01CF639007C159B6F715D7A3
310
CCB8F76EF937504B010214000A0000080000C270623B3DEE336E79000000790000001B00000000000000000000000000000000006175746F6465736B2D64657369676E2D7061636B6167652E786D6C504B01021400140006080800C270623BD486FD9CA0000000F40000001300000000000000000000000000B20000005B43
310
6F6E74656E745F54797065735D2E786D6C504B01021400140006080800C270623BC5983BD0EB0000007C010000080000000000000000000000000083010000636F72652E786D6C504B01021400140006080800C270623B55019EA25F0000007C000000070000000000000000000000000094020000636E782E786D6C504B01
310
021400140006080800C270623BEE35DAD072010000D40300000C00000000000000000000000000180300006662782F636F72652E786D6C504B01021400140006080800C270623BD65DADFA7E0000009D0000000B00000000000000000000000000B40400006662782F636E782E786D6C504B01021400140006080800C27062
310
3B16D345222A0100001202000031000000000000000000000000005B0500006662782F32454241454532302D334338372D344246312D393744332D3036444436323438394243322F636F72652E786D6C504B01021400140006080800C270623BAB1CAE584E010000330300003000000000000000000000000000D406000066
310
62782F32454241454532302D334338372D344246312D393744332D3036444436323438394243322F636E782E786D6C504B01021400140006080800C270623B849BF81A650500003B1000003400000000000000000000000000700800006662782F32454241454532302D334338372D344246312D393744332D303644443632
310
3438394243322F6F626A656374732E786D6C504B01021400140006080000C270623B0000000000000000000000003500000000000000000000000000270E00006662782F32454241454532302D334338372D344246312D393744332D3036444436323438394243322F76657274696365732E62696E504B0102140014000608
310
0800C270623BF270F133060000000400000036000000000000000000000000007A0E00006662782F32454241454532302D334338372D344246312D393744332D3036444436323438394243322F747269616E676C65732E62696E504B01021400140006080000C270623B000000000000000000000000370000000000000000
310
0000000000D40E00006662782F32454241454532302D334338372D344246312D393744332D3036444436323438394243322F617474726962757465732E62696E504B01021400140006080800C270623B08DA0BD190000000410100003600000000000000000000000000290F00006662782F32454241454532302D33433837
310
2D344246312D393744332D3036444436323438394243322F6469726563746F72792E786D6C504B01021400140006080800C270623BAD7266E1FD000000A00100003B000000000000000000000000000D1000006662782F32454241454532302D334338372D344246312D393744332D3036444436323438394243322F726573
310
6F75726365732F636F72652E786D6C504B0506000000000E000E0080040000631100000000
  0
XRECORD
  5
16D
102
{ACAD_REACTORS
330
16A
102
}
330
16A
100
AcDbXrecord
280
     1
270
     1
271
     1
  0
XRECORD
  5
16E
102
{ACAD_REACTORS
330
16A
102
}
330
16A
100
AcDbXrecord
280
     1
270
     1
271
     1
  0
XRECORD
  5
E5A
102
{ACAD_REACTORS
330
22B
102
}
330
22B
100
AcDbXrecord
280
     1
102
DISPLAYNAME
  1
Metric50
102
FLAGS
 90
        0
  0
CELLSTYLEMAP
  5
E59
102
{ACAD_REACTORS
330
159
102
}
330
159
100
AcDbCellStyleMap
 90
        3
300
CELLSTYLE
  1
TABLEFORMAT_BEGIN
 90
        5
170
     1
 91
        0
 92
    32768
 62
   257
 93
        1
300
CONTENTFORMAT
  1
CONTENTFORMAT_BEGIN
 90
        0
 91
        0
 92
      512
 93
        0
300

 40
0.0
140
1.0
 94
        5
 62
     0
340
11
144
6.0
309
CONTENTFORMAT_END
171
     1
301
MARGIN
  1
CELLMARGIN_BEGIN
 40
1.5
 40
1.5
 40
1.5
 40
1.5
 40
4.5
 40
4.5
309
CELLMARGIN_END
 94
        6
 95
        1
302
GRIDFORMAT
  1
GRIDFORMAT_BEGIN
 90
        0
 91
        1
 62
     0
 92
       -2
340
14
 93
        0
 40
1.125
309
GRIDFORMAT_END
 95
        2
302
GRIDFORMAT
  1
GRIDFORMAT_BEGIN
 90
        0
 91
        1
 62
     0
 92
       -2
340
14
 93
        0
 40
1.125
309
GRIDFORMAT_END
 95
        4
302
GRIDFORMAT
  1
GRIDFORMAT_BEGIN
 90
        0
 91
        1
 62
     0
 92
       -2
340
14
 93
        0
 40
1.125
309
GRIDFORMAT_END
 95
        8
302
GRIDFORMAT
  1
GRIDFORMAT_BEGIN
 90
        0
 91
        1
 62
     0
 92
       -2
340
14
 93
        0
 40
1.125
309
GRIDFORMAT_END
 95
       16
302
GRIDFORMAT
  1
GRIDFORMAT_BEGIN
 90
        0
 91
        1
 62
     0
 92
       -2
340
14
 93
        0
 40
1.125
309
GRIDFORMAT_END
 95
       32
302
GRIDFORMAT
  1
GRIDFORMAT_BEGIN
 90
        0
 91
        1
 62
     0
 92
       -2
340
14
 93
        0
 40
1.125
309
GRIDFORMAT_END
309
TABLEFORMAT_END
  1
CELLSTYLE_BEGIN
 90
        1
 91
        1
300
_TITLE
309
CELLSTYLE_END
300
CELLSTYLE
  1
TABLEFORMAT_BEGIN
 90
        5
170
     1
 91
        0
 92
        0
 62
   257
 93
        1
300
CONTENTFORMAT
  1
CONTENTFORMAT_BEGIN
 90
        0
 91
        0
 92
      512
 93
        0
300

 40
0.0
140
1.0
 94
        5
 62
     0
340
11
144
4.5
309
CONTENTFORMAT_END
171
     1
301
MARGIN
  1
CELLMARGIN_BEGIN
 40
1.5
 40
1.5
 40
1.5
 40
1.5
 40
4.5
 40
4.5
309
CELLMARGIN_END
 94
        6
 95
        1
302
GRIDFORMAT
  1
GRIDFORMAT_BEGIN
 90
        0
 91
        1
 62
     0
 92
       -2
340
14
 93
        0
 40
1.125
309
GRIDFORMAT_END
 95
        2
302
GRIDFORMAT
  1
GRIDFORMAT_BEGIN
 90
        0
 91
        1
 62
     0
 92
       -2
340
14
 93
        0
 40
1.125
309
GRIDFORMAT_END
 95
        4
302
GRIDFORMAT
  1
GRIDFORMAT_BEGIN
 90
        0
 91
        1
 62
     0
 92
       -2
340
14
 93
        0
 40
1.125
309
GRIDFORMAT_END
 95
        8
302
GRIDFORMAT
  1
GRIDFORMAT_BEGIN
 90
        0
 91
        1
 62
     0
 92
       -2
340
14
 93
        0
 40
1.125
309
GRIDFORMAT_END
 95
       16
302
GRIDFORMAT
  1
GRIDFORMAT_BEGIN
 90
        0
 91
        1
 62
     0
 92
       -2
340
14
 93
        0
 40
1.125
309
GRIDFORMAT_END
 95
       32
302
GRIDFORMAT
  1
GRIDFORMAT_BEGIN
 90
        0
 91
        1
 62
     0
 92
       -2
340
14
 93
        0
 40
1.125
309
GRIDFORMAT_END
309
TABLEFORMAT_END
  1
CELLSTYLE_BEGIN
 90
        2
 91
        1
300
_HEADER
309
CELLSTYLE_END
300
CELLSTYLE
  1
TABLEFORMAT_BEGIN
 90
        5
170
     1
 91
        0
 92
        0
 62
   257
 93
        1
300
CONTENTFORMAT
  1
CONTENTFORMAT_BEGIN
 90
        0
 91
        0
 92
      512
 93
        0
300

 40
0.0
140
1.0
 94
        2
 62
     0
340
11
144
4.5
309
CONTENTFORMAT_END
171
     1
301
MARGIN
  1
CELLMARGIN_BEGIN
 40
1.5
 40
1.5
 40
1.5
 40
1.5
 40
4.5
 40
4.5
309
CELLMARGIN_END
 94
        6
 95
        1
302
GRIDFORMAT
  1
GRIDFORMAT_BEGIN
 90
        0
 91
        1
 62
     0
 92
       -2
340
14
 93
        0
 40
1.125
309
GRIDFORMAT_END
 95
        2
302
GRIDFORMAT
  1
GRIDFORMAT_BEGIN
 90
        0
 91
        1
 62
     0
 92
       -2
340
14
 93
        0
 40
1.125
309
GRIDFORMAT_END
 95
        4
302
GRIDFORMAT
  1
GRIDFORMAT_BEGIN
 90
        0
 91
        1
 62
     0
 92
       -2
340
14
 93
        0
 40
1.125
309
GRIDFORMAT_END
 95
        8
302
GRIDFORMAT
  1
GRIDFORMAT_BEGIN
 90
        0
 91
        1
 62
     0
 92
       -2
340
14
 93
        0
 40
1.125
309
GRIDFORMAT_END
 95
       16
302
GRIDFORMAT
  1
GRIDFORMAT_BEGIN
 90
        0
 91
        1
 62
     0
 92
       -2
340
14
 93
        0
 40
1.125
309
GRIDFORMAT_END
 95
       32
302
GRIDFORMAT
  1
GRIDFORMAT_BEGIN
 90
        0
 91
        1
 62
     0
 92
       -2
340
14
 93
        0
 40
1.125
309
GRIDFORMAT_END
309
TABLEFORMAT_END
  1
CELLSTYLE_BEGIN
 90
        3
 91
        2
300
_DATA
309
CELLSTYLE_END
  0
ENDSEC
  0
SECTION
  2
ACDSDATA
 70
     2
 71
     8
  0
ACDSSCHEMA
 90
        0
  1
AcDb_Thumbnail_Schema
  2
AcDbDs::ID
280
    10
 91
        8
  2
Thumbnail_Data
280
    15
 91
        0
101
ACDSRECORD
 95
        0
 90
        1
  2
AcDbDs::TreatedAsObjectData
280
     1
291
     1
101
ACDSRECORD
 95
        0
 90
        2
  2
AcDbDs::Legacy
280
     1
291
     1
101
ACDSRECORD
  1
AcDbDs::ID
 90
        3
  2
AcDs:Indexable
280
     1
291
     1
101
ACDSRECORD
  1
AcDbDs::ID
 90
        4
  2
AcDbDs::HandleAttribute
280
     7
282
     1
  0
ACDSSCHEMA
 90
        1
  1
AcDbDs::TreatedAsObjectDataSchema
  2
AcDbDs::TreatedAsObjectData
280
     1
 91
        0
  0
ACDSSCHEMA
 90
        2
  1
AcDbDs::LegacySchema
  2
AcDbDs::Legacy
280
     1
 91
        0
  0
ACDSSCHEMA
 90
        3
  1
AcDbDs::IndexedPropertySchema
  2
AcDs:Indexable
280
     1
 91
        0
  0
ACDSSCHEMA
 90
        4
  1
AcDbDs::HandleAttributeSchema
  2
AcDbDs::HandleAttribute
280
     7
 91
        1
284
     1
  0
ACDSRECORD
 90
        0
  2
AcDbDs::ID
280
    10
320
22
  2
Thumbnail_Data
280
    15
 94
     3270
310
89504E470D0A1A0A0000000D49484452000001340000010008030000000AB47A1600000300504C5445212830000000C8C8C80000000000000000000000000000000000000000000000000000330000660000990000CC0000FF0033000033330033660033990033CC0033FF0066000066330066660066990066CC0066FF0099
310
000099330099660099990099CC0099FF00CC0000CC3300CC6600CC9900CCCC00CCFF00FF0000FF3300FF6600FF9900FFCC00FFFF3300003300333300663300993300CC3300FF3333003333333333663333993333CC3333FF3366003366333366663366993366CC3366FF3399003399333399663399993399CC3399FF33CC00
310
33CC3333CC6633CC9933CCCC33CCFF33FF0033FF3333FF6633FF9933FFCC33FFFF6600006600336600666600996600CC6600FF6633006633336633666633996633CC6633FF6666006666336666666666996666CC6666FF6699006699336699666699996699CC6699FF66CC0066CC3366CC6666CC9966CCCC66CCFF66FF0066
310
FF3366FF6666FF9966FFCC66FFFF9900009900339900669900999900CC9900FF9933009933339933669933999933CC9933FF9966009966339966669966999966CC9966FF9999009999339999669999999999CC9999FF99CC0099CC3399CC6699CC9999CCCC99CCFF99FF0099FF3399FF6699FF9999FFCC99FFFFCC0000CC00
310
33CC0066CC0099CC00CCCC00FFCC3300CC3333CC3366CC3399CC33CCCC33FFCC6600CC6633CC6666CC6699CC66CCCC66FFCC9900CC9933CC9966CC9999CC99CCCC99FFCCCC00CCCC33CCCC66CCCC99CCCCCCCCCCFFCCFF00CCFF33CCFF66CCFF99CCFFCCCCFFFFFF0000FF0033FF0066FF0099FF00CCFF00FFFF3300FF3333
310
FF3366FF3399FF33CCFF33FFFF6600FF6633FF6666FF6699FF66CCFF66FFFF9900FF9933FF9966FF9999FF99CCFF99FFFFCC00FFCC33FFCC66FFCC99FFCCCCFFCCFFFFFF00FFFF33FFFF66FFFF99FFFFCCFFFFFF0000000D0D0D1A1A1A2828283535354343435050505D5D5D6B6B6B787878868686939393A1A1A1AEAEAEBB
310
BBBBC9C9C9D6D6D6E4E4E4F1F1F1FFFFFF000000000000000000000000000000000000000000000000000000000000B21171F6000004FF4944415478DAEDDC5B76E2300C80612D47FB5F0FDBE8FB9C0EC4B61CF9161B129ADF3D67064A9B265F24DF4184325E7E286E21320EC41204A081061A68A0514003ED0BD1E8FBBBBD
310
7F22ED405481061A68A081061A0534D040030DB45279DCB35C32D21E973E9C80061A68A081061A687F144DB5FCECF5BDCACB3534EF581744D3F6790EA0E956B2C795C399D7F580DA7A3435E5D8BD3D80F61B6AA5BFD98FA6C5B2126D7FCC165A83741CAD7D3BBE01AD51F9689BED487AFE065BCF45BE7EBDCEF2FA1385F39B
310
471BBCF5C9D99543ED0E680391D665969E9596547477755ABAD2527A6E0771EFEDFBD1641C4D57A395091EA5FA64FBE556B5762E5A7AB19556F451EFA524CF34459371347572FF2368DA8B9675A9641E4D8D5FE7E1427CB93269621692740D5A5FEBF87C1EF2ACBF9FA65AEC2568B34AFF6A3493148D7EB883A695B83B8866
310
E2F36CB46237523ADA00E72A77A1501F894EA39D50A7F50DB4E4009A7A613783661BE6335BCF79B2ECAC5E97A46955349B9EE1907BB4B16EE482118139ED726BD01C47E57D84580B381738889629953A2ADD8DFB049AF6A1B52FD0EBDCDABBD29A5DEBEAA715EAB44F0DD89DF1481E7EC5C17D7B9CA2A6FFA97DBDD1265A52
310
1BAB39E627D1A403CDAD3C7A22CD8EB165162D1B79A9772374373C9573D0C43FBB269A9D98E898FC1EE872983BD21C729C919E5AEDBB754C0DA95F694F746E0B686684FC9E8660376B50AAD366D18ACF16A3351BAA459DDB33D19228368B525D686E9DA67EABB51CADBB9FF60634CD4E601ACD1B88BCA1219011B4B1CEAD33
310
83E6A45279CDA29D9EB51BF1BE6194DF9616D3731EAD3801E25FE6C31BC6D56660F2F981DAF13E8476203DCB7FBF7D529D689548AD1E6F1A6D55F9C45E0ED5C3D7C30698D9E381061A68A0DD1B8D375F1069A42768A08106DA28DAB64758C54CDD5D146D370CDF9679C254D6FF759738843797172F6C3AD2CC12BF6C5F9743
310
D34C2DEE110C34C97FE913FBC2A2590E0D51569BECBC02DA53E81961F27C946E96DBEE7AD85D1F509359DE8568E98DD04BD66921EDE2FC4FDC2192A1E58EEB234DD29454B96A9D6697D1C52E6EA8DA8C8D8EF2FA776D9D96ED1F9635C1F6A9D6F395242269A8D92DF361CBCDC2F40C4BC0DBD7955BCFABF4D3D26A40E4DB22
310
EDA47E5A4C786F2507B4AF1E116C09B1DD5DB32AAB62EAB5B8EDF2EE685165DF1CAAA95B628543A4A54D55E8296568C9980634493BF9697AEEDEE0467AD21080061A68A081764534168B8934D21334D040AB943023195712D4CC2DDC15ADFC46D80C2DD9412DC9F7EF1C69CE07CF885D738DA25918DE134DDDB03159B85B17
310
35AB57F744733E6F234E90BE1ED43E4AEF9E91E65475714234666AF2D3639F9F760B344DE26FCB55BBBE576D41FF3E5AE9A340930978355B174093D207B6E56F2B0B6B40A4272302D040030D34D040030D34D040BB311AEB9E441AE9091A68A081061A68A081061A68A081061A68A081061A68A081061A68A081061A683744
310
63B19848233D41030D34D040030D34D040030D34D040030D34D040030D34D040030D34D04003ED86682C161369A42768A081061A68A081061A68A081061A68A081061A68A081061A68A081061A68DF8EC6BAE77522EDE20534D040030D34D040030D34D040030D34D040030D34D040030D34D040030D34D040030D34D04003
310
0D34D040030D34D040030D34D040030D34D040030D34D040030D34D040030D34D040030D34D040030D34D040030D34D040038D021A68A081061A05B453D1FE0199E0F7A7E88420C30000000049454E44AE426082A3689435F7D63D8989EE4980061A68A0814680061A68A0814680061A68A0814680061A68A0814680061A68
310
A0814680061A68A0814680061A68A081061A68A081061A68A081061A68A081061A68A081061A68A081061A68A081061A011A68A081061A011A68A081061A011A683745FB0FAFF27F697DC987DF0000000049454E44AE426082D4D28AA6E8BF06AD89FE34A0DD12DA6A0ABEB00B613D79B02A64ECAD25ECBB91566422A43AD0
310
BE0C39960DF27117B0B4DC835F439BBBE26DCAEEE70AD7554F45A18DC44A40B36143AA7A26330273556777129A4D9814585A64974AB469EBE3FDB2C3DB5C456D075AD04F7C99A599DCC3754D9D772146B6ABA18AA5E9DA362D3C558DAA9D84FD1034EDCFA5592E4EBB7377B73E841CA5A0E95E1981F9907906FDE340FBAA73
310
378C548A5D23F8256866A7EF1668A9662D4CC3FC6C0068F5430E6EEA3B2FE4708BAFD8D6475B5A3261B751AF0F4DDB7540031AD08046C2CE2DF140031AD0800634A091B01372645A5AEE2CD640031AD08006340BEDA1FA17B4E70A6857427BB40E427BBCBE87F0072F2E9CFAC4A0D6C90000000049454E44AE4260826DBFA7
310
BB536893B4D49FAA67E685AB5DB7B261B7497CAF7484C96694ECD70EA1FD576573FD5F6215A029D5F397AEDBCB13902C681C4053CFF0971960B68DCCE351825BA96540F3AF2FB0343A779D223EEA35FB1E6822BA479656D5A76D5CC0082AEA1AAA1F3D4F4193799A1248AE4F85471C8D623E483BDEDECB5114055AF5794CB1
310
2BC6E7D31E0B2DB3A7BBC568D430D0F68707A8E968D488D028A644411C05B46E7C1A3E735B39E510AF277D0344CF4D8BC03F531040636D29A0011AA0015AFFD010089072BCB89703D0000DD0000DD0000D29072CEDA5D04E7DE708A0011AA0011AA0217A1E4383CAF334A84080761A1AA4691F1A54686950B9A54110044110
310
0441100441100441100441100441100441100441D008FA03D13FEB0951E896A30000000049454E44AE426082DA2CA5750C347E9E4EE364144B429BFF83FA7925D60B4DBAF251F76C1F84A40FD74E5C07ADDCD46E43E00F54D9E77C3E9E467C1B6874B0A4C5DF9BDE3DDC4DE24F489EBA1E9A5A157ED63DBFD469893579C7B2
310
84D1D633F1CB9A9725440FC88B64CEAD09E073A03D690AAFE2A7C9E1A0D324ED315378F5015AE664A0EE24687E70FDE6D00A16D44F5C9062E23375DA23A0ED0C7767AB884E8076BB518E7D68B43DCD3214DABA40EF59D0281DEA204A57C20CEF9E4F5896700F3F4D26C6EAEE035C8E59EC9F4B2E6EBC19D000EDC3304ADCBD
310
1243E3E2664003344003B4BB43832120DC85F773434380066880066880066880063FEDE7FD3476CB1258DC332DC69BC5DDC57E0A7E79F969689B6BE4A25B0365164F80B13732AC92B6AEC7293EA5C0BE40D2C46D12811D11498041F220691E9A9434CAEE7888BA2874DA4CEE3E23953C3D4494C9A6FF4D810A34A47E9783DE
310
27691B0DE8766E09D000ED3268480D29814690B40E7953909FDE54BA3290B4A6CF01B45E6648DD0992064983A4C110001AA0011AA0011AA0011AA0011AA0011AA0011AA0011AA00D85F6071FF2081925625F020000000049454E44AE426082
  0
ACDSRECORD
 90
        0
  2
AcDbDs::ID
280
    10
320
D3
  2
Thumbnail_Data
280
    15
 94
     1153
310
89504E470D0A1A0A0000000D4948445200000100000000B5080300000087DCD12600000300504C5445FFFFFF000000C8C8C80000000000000000000000000000000000000000000000000000330000660000990000CC0000FF0033000033330033660033990033CC0033FF0066000066330066660066990066CC0066FF0099
310
000099330099660099990099CC0099FF00CC0000CC3300CC6600CC9900CCCC00CCFF00FF0000FF3300FF6600FF9900FFCC00FFFF3300003300333300663300993300CC3300FF3333003333333333663333993333CC3333FF3366003366333366663366993366CC3366FF3399003399333399663399993399CC3399FF33CC00
310
33CC3333CC6633CC9933CCCC33CCFF33FF0033FF3333FF6633FF9933FFCC33FFFF6600006600336600666600996600CC6600FF6633006633336633666633996633CC6633FF6666006666336666666666996666CC6666FF6699006699336699666699996699CC6699FF66CC0066CC3366CC6666CC9966CCCC66CCFF66FF0066
310
FF3366FF6666FF9966FFCC66FFFF9900009900339900669900999900CC9900FF9933009933339933669933999933CC9933FF9966009966339966669966999966CC9966FF9999009999339999669999999999CC9999FF99CC0099CC3399CC6699CC9999CCCC99CCFF99FF0099FF3399FF6699FF9999FFCC99FFFFCC0000CC00
310
33CC0066CC0099CC00CCCC00FFCC3300CC3333CC3366CC3399CC33CCCC33FFCC6600CC6633CC6666CC6699CC66CCCC66FFCC9900CC9933CC9966CC9999CC99CCCC99FFCCCC00CCCC33CCCC66CCCC99CCCCCCCCCCFFCCFF00CCFF33CCFF66CCFF99CCFFCCCCFFFFFF0000FF0033FF0066FF0099FF00CCFF00FFFF3300FF3333
310
FF3366FF3399FF33CCFF33FFFF6600FF6633FF6666FF6699FF66CCFF66FFFF9900FF9933FF9966FF9999FF99CCFF99FFFFCC00FFCC33FFCC66FFCC99FFCCCCFFCCFFFFFF00FFFF33FFFF66FFFF99FFFFCCFFFFFF0000000D0D0D1A1A1A2828283535354343435050505D5D5D6B6B6B787878868686939393A1A1A1AEAEAEBB
310
BBBBC9C9C9D6D6D6E4E4E4F1F1F1FFFFFF000000000000000000000000000000000000000000000000000000000000B0E2D2350000013C4944415478DAEDDDB11184300C4541F75FA6428F8A00C3508319FF5540017BF8E9223CBA67F2F4E81EC903E001A87B229FE96F403902DF1100107E04008820001104208200441080
310
08021041002208400401882000110420820044108008021041002208400401882000110420820044108008021041002208400401882000110420820044108008021041000746B0B6CE1F0036FF2ADB23082005A00000C88EA02D600B68000000B6802D600B6800001104208200441080080210410022084004018820001104
310
2082004410800802104100220840040188200011042082004410800802104100220840040188200011042082004410800802104100220840040188200011042082004410800802104100220840040F0048FFBC7ECCB865C62D33EE180100C016B0056C010D78FF81063E3500C00298C9B300B2E702A59C2161B99429460000
310
000049454E44AE426082
  0
ENDSEC
  0
EOF
